  0
SECTION
  2
HEADER
  9
$ACADVER
  1
AC1015
  9
$ACADMAINTVER
 70
    13
  9
$DWGCODEPAGE
  3
ANSI_1252
  9
$INSBASE
 10
0.0
 20
0.0
 30
0.0
  9
$EXTMIN
 10
-1740.643187999999
 20
-2926.433086958983
 30
0.0
  9
$EXTMAX
 10
5154.021975039564
 20
1340.934580075572
 30
0.0
  9
$LIMMIN
 10
-1740.643187999999
 20
-3026.512451
  9
$LIMMAX
 10
4667.124512
 20
1339.278076
  9
$ORTHOMODE
 70
     0
  9
$REGENMODE
 70
     1
  9
$FILLMODE
 70
     1
  9
$QTEXTMODE
 70
     0
  9
$MIRRTEXT
 70
     1
  9
$LTSCALE
 40
1.0
  9
$ATTMODE
 70
     2
  9
$TEXTSIZE
 40
0.2
  9
$TRACEWID
 40
0.05
  9
$TEXTSTYLE
  7
STANDARD
  9
$CLAYER
  8
4
  9
$CELTYPE
  6
CONTINUOUS
  9
$CECOLOR
 62
   256
  9
$CELTSCALE
 40
1.0
  9
$DISPSILH
 70
     0
  9
$DIMSCALE
 40
1.0
  9
$DIMASZ
 40
125.0
  9
$DIMEXO
 40
50.0
  9
$DIMDLI
 40
0.38
  9
$DIMRND
 40
0.0
  9
$DIMDLE
 40
0.0
  9
$DIMEXE
 40
50.0
  9
$DIMTP
 40
0.0
  9
$DIMTM
 40
0.0
  9
$DIMTXT
 40
80.0
  9
$DIMCEN
 40
0.09
  9
$DIMTSZ
 40
0.0
  9
$DIMTOL
 70
     0
  9
$DIMLIM
 70
     0
  9
$DIMTIH
 70
     1
  9
$DIMTOH
 70
     1
  9
$DIMSE1
 70
     0
  9
$DIMSE2
 70
     0
  9
$DIMTAD
 70
     0
  9
$DIMZIN
 70
     0
  9
$DIMBLK
  1

  9
$DIMASO
 70
     1
  9
$DIMSHO
 70
     1
  9
$DIMPOST
  1
mm
  9
$DIMAPOST
  1

  9
$DIMALT
 70
     0
  9
$DIMALTD
 70
     2
  9
$DIMALTF
 40
25.4
  9
$DIMLFAC
 40
1.0
  9
$DIMTOFL
 70
     0
  9
$DIMTVP
 40
0.0
  9
$DIMTIX
 70
     0
  9
$DIMSOXD
 70
     0
  9
$DIMSAH
 70
     0
  9
$DIMBLK1
  1

  9
$DIMBLK2
  1

  9
$DIMSTYLE
  2
STANDARD
  9
$DIMCLRD
 70
     7
  9
$DIMCLRE
 70
     7
  9
$DIMCLRT
 70
     7
  9
$DIMTFAC
 40
1.0
  9
$DIMGAP
 40
0.09
  9
$DIMJUST
 70
     0
  9
$DIMSD1
 70
     0
  9
$DIMSD2
 70
     0
  9
$DIMTOLJ
 70
     1
  9
$DIMTZIN
 70
     0
  9
$DIMALTZ
 70
     0
  9
$DIMALTTZ
 70
     0
  9
$DIMUPT
 70
     0
  9
$DIMDEC
 70
     4
  9
$DIMTDEC
 70
     4
  9
$DIMALTU
 70
     2
  9
$DIMALTTD
 70
     2
  9
$DIMTXSTY
  7
TIMESRMN
  9
$DIMAUNIT
 70
     0
  9
$DIMADEC
 70
     0
  9
$DIMALTRND
 40
0.0
  9
$DIMAZIN
 70
     0
  9
$DIMDSEP
 70
    46
  9
$DIMATFIT
 70
     1
  9
$DIMFRAC
 70
     0
  9
$DIMLDRBLK
  1

  9
$DIMLUNIT
 70
     2
  9
$DIMLWD
 70
    -2
  9
$DIMLWE
 70
    -2
  9
$DIMTMOVE
 70
     0
  9
$LUNITS
 70
     2
  9
$LUPREC
 70
     3
  9
$SKETCHINC
 40
0.1
  9
$FILLETRAD
 40
0.0
  9
$AUNITS
 70
     0
  9
$AUPREC
 70
     3
  9
$MENU
  1
acad
  9
$ELEVATION
 40
0.0
  9
$PELEVATION
 40
0.0
  9
$THICKNESS
 40
0.0
  9
$LIMCHECK
 70
     0
  9
$CHAMFERA
 40
0.5
  9
$CHAMFERB
 40
0.5
  9
$CHAMFERC
 40
0.0
  9
$CHAMFERD
 40
0.0
  9
$SKPOLY
 70
     0
  9
$TDCREATE
 40
2444972.416666666
  9
$TDUCREATE
 40
2444972.000000000
  9
$TDUPDATE
 40
2453647.424825335
  9
$TDUUPDATE
 40
2453647.008158668
  9
$TDINDWG
 40
0.0213848032
  9
$TDUSRTIMER
 40
0.0213848032
  9
$USRTIMER
 70
     1
  9
$ANGBASE
 50
0.0
  9
$ANGDIR
 70
     0
  9
$PDMODE
 70
     2
  9
$PDSIZE
 40
0.0
  9
$PLINEWID
 40
0.0
  9
$SPLFRAME
 70
     0
  9
$SPLINETYPE
 70
     6
  9
$SPLINESEGS
 70
     8
  9
$HANDSEED
  5
187
  9
$SURFTAB1
 70
     6
  9
$SURFTAB2
 70
     6
  9
$SURFTYPE
 70
     6
  9
$SURFU
 70
     6
  9
$SURFV
 70
     6
  9
$UCSBASE
  2

  9
$UCSNAME
  2

  9
$UCSORG
 10
0.0
 20
0.0
 30
0.0
  9
$UCSXDIR
 10
1.0
 20
0.0
 30
0.0
  9
$UCSYDIR
 10
0.0
 20
1.0
 30
0.0
  9
$UCSORTHOREF
  2

  9
$UCSORTHOVIEW
 70
     0
  9
$UCSORGTOP
 10
0.0
 20
0.0
 30
0.0
  9
$UCSORGBOTTOM
 10
0.0
 20
0.0
 30
0.0
  9
$UCSORGLEFT
 10
0.0
 20
0.0
 30
0.0
  9
$UCSORGRIGHT
 10
0.0
 20
0.0
 30
0.0
  9
$UCSORGFRONT
 10
0.0
 20
0.0
 30
0.0
  9
$UCSORGBACK
 10
0.0
 20
0.0
 30
0.0
  9
$PUCSBASE
  2

  9
$PUCSNAME
  2

  9
$PUCSORG
 10
0.0
 20
0.0
 30
0.0
  9
$PUCSXDIR
 10
1.0
 20
0.0
 30
0.0
  9
$PUCSYDIR
 10
0.0
 20
1.0
 30
0.0
  9
$PUCSORTHOREF
  2

  9
$PUCSORTHOVIEW
 70
     0
  9
$PUCSORGTOP
 10
0.0
 20
0.0
 30
0.0
  9
$PUCSORGBOTTOM
 10
0.0
 20
0.0
 30
0.0
  9
$PUCSORGLEFT
 10
0.0
 20
0.0
 30
0.0
  9
$PUCSORGRIGHT
 10
0.0
 20
0.0
 30
0.0
  9
$PUCSORGFRONT
 10
0.0
 20
0.0
 30
0.0
  9
$PUCSORGBACK
 10
0.0
 20
0.0
 30
0.0
  9
$USERI1
 70
     0
  9
$USERI2
 70
     0
  9
$USERI3
 70
     0
  9
$USERI4
 70
     0
  9
$USERI5
 70
     0
  9
$USERR1
 40
0.0
  9
$USERR2
 40
0.0
  9
$USERR3
 40
0.0
  9
$USERR4
 40
0.0
  9
$USERR5
 40
0.0
  9
$WORLDVIEW
 70
     1
  9
$SHADEDGE
 70
     3
  9
$SHADEDIF
 70
    70
  9
$TILEMODE
 70
     1
  9
$MAXACTVP
 70
    16
  9
$PINSBASE
 10
0.0
 20
0.0
 30
0.0
  9
$PLIMCHECK
 70
     0
  9
$PEXTMIN
 10
1.000000000000000E+20
 20
1.000000000000000E+20
 30
1.000000000000000E+20
  9
$PEXTMAX
 10
-1.000000000000000E+20
 20
-1.000000000000000E+20
 30
-1.000000000000000E+20
  9
$PLIMMIN
 10
0.0
 20
0.0
  9
$PLIMMAX
 10
12.0
 20
9.0
  9
$UNITMODE
 70
     0
  9
$VISRETAIN
 70
     0
  9
$PLINEGEN
 70
     0
  9
$PSLTSCALE
 70
     1
  9
$TREEDEPTH
 70
  3020
  9
$CMLSTYLE
  2
STANDARD
  9
$CMLJUST
 70
     0
  9
$CMLSCALE
 40
1.0
  9
$PROXYGRAPHICS
 70
     1
  9
$MEASUREMENT
 70
     0
  9
$CELWEIGHT
370
    -1
  9
$ENDCAPS
280
     0
  9
$JOINSTYLE
280
     0
  9
$LWDISPLAY
290
     0
  9
$INSUNITS
 70
     0
  9
$HYPERLINKBASE
  1

  9
$STYLESHEET
  1

  9
$XEDIT
290
     1
  9
$CEPSNTYPE
380
     0
  9
$PSTYLEMODE
290
     1
  9
$FINGERPRINTGUID
  2
{0909B1A7-91E5-49A1-8FC5-0A136EDE3AD0}
  9
$VERSIONGUID
  2
{63D00A73-C9E3-45E0-9B98-19BA7C05D12F}
  9
$EXTNAMES
290
     1
  9
$PSVPSCALE
 40
0.0
  9
$OLESTARTUP
290
     0
  0
ENDSEC
  0
SECTION
  2
CLASSES
  0
CLASS
  1
ACDBDICTIONARYWDFLT
  2
AcDbDictionaryWithDefault
  3
AutoCAD 2000
 90
        0
280
     0
281
     0
  0
CLASS
  1
ACDBPLACEHOLDER
  2
AcDbPlaceHolder
  3
AutoCAD 2000
 90
        0
280
     0
281
     0
  0
CLASS
  1
LAYOUT
  2
AcDbLayout
  3
AutoCAD 2000
 90
        0
280
     0
281
     0
  0
CLASS
  1
DICTIONARYVAR
  2
AcDbDictionaryVar
  3
AutoCAD 2000
 90
        0
280
     0
281
     0
  0
ENDSEC
  0
SECTION
  2
TABLES
  0
TABLE
  2
VPORT
  5
175
330
0
100
AcDbSymbolTable
 70
     4
  0
VPORT
  5
186
330
175
100
AcDbSymbolTableRecord
100
AcDbViewportTableRecord
  2
*Active
 70
     0
 10
0.0
 20
0.0
 11
1.0
 21
1.0
 12
1293.042039963432
 22
-777.0716385212121
 13
0.0
 23
0.0
 14
1.0
 24
1.0
 15
0.0
 25
0.0
 16
0.0
 26
0.0
 36
1.0
 17
0.0
 27
0.0
 37
0.0
 40
4456.37353514716
 41
1.786259541984732
 42
50.0
 43
0.0
 44
0.0
 50
0.0
 51
0.0
 71
     0
 72
   100
 73
     1
 74
     1
 75
     0
 76
     0
 77
     0
 78
     0
281
     0
 65
     1
110
0.0
120
0.0
130
0.0
111
1.0
121
0.0
131
0.0
112
0.0
122
1.0
132
0.0
 79
     0
146
0.0
  0
ENDTAB
  0
TABLE
  2
LTYPE
  5
170
330
0
100
AcDbSymbolTable
 70
     4
  0
LTYPE
  5
171
330
170
100
AcDbSymbolTableRecord
100
AcDbLinetypeTableRecord
  2
BYBLOCK
 70
     0
  3

 72
    65
 73
     0
 40
0.0
  0
LTYPE
  5
172
330
170
100
AcDbSymbolTableRecord
100
AcDbLinetypeTableRecord
  2
BYLAYER
 70
     0
  3

 72
    65
 73
     0
 40
0.0
  0
LTYPE
  5
8
330
170
100
AcDbSymbolTableRecord
100
AcDbLinetypeTableRecord
  2
CONTINUOUS
 70
     0
  3
SOLID LINE
 72
    65
 73
     0
 40
0.0
  0
LTYPE
  5
48
330
170
100
AcDbSymbolTableRecord
100
AcDbLinetypeTableRecord
  2
CENTER
 70
     0
  3
____ _ ____ _ ____ _ ____ _ ____ _ ____ _ ____
 72
    65
 73
     4
 40
2.0
 49
1.25
 74
     0
 49
-0.25
 74
     0
 49
0.25
 74
     0
 49
-0.25
 74
     0
  0
LTYPE
  5
D
330
170
100
AcDbSymbolTableRecord
100
AcDbLinetypeTableRecord
  2
DASHDOT
 70
     0
  3
__ . __ . __ . __ . __ . __ . __ . __ . __ . __
 72
    65
 73
     4
 40
1.0
 49
0.5
 74
     0
 49
-0.25
 74
     0
 49
0.0
 74
     0
 49
-0.25
 74
     0
  0
LTYPE
  5
2C
330
170
100
AcDbSymbolTableRecord
100
AcDbLinetypeTableRecord
  2
PHANTOM
 70
     0
  3
_____ _ _ _____ _ _ _____ _ _ _____ _ _ ____
 72
    65
 73
     6
 40
2.5
 49
1.25
 74
     0
 49
-0.25
 74
     0
 49
0.25
 74
     0
 49
-0.25
 74
     0
 49
0.25
 74
     0
 49
-0.25
 74
     0
  0
ENDTAB
  0
TABLE
  2
LAYER
  5
16D
330
0
100
AcDbSymbolTable
 70
    11
  0
LAYER
  5
4
330
16D
100
AcDbSymbolTableRecord
100
AcDbLayerTableRecord
  2
0
 70
     0
 62
     4
  6
CONTINUOUS
370
    -3
390
5
  0
LAYER
  5
67
330
16D
100
AcDbSymbolTableRecord
100
AcDbLayerTableRecord
  2
4
 70
     0
 62
     4
  6
CONTINUOUS
370
    -3
390
5
  0
LAYER
  5
22
330
16D
100
AcDbSymbolTableRecord
100
AcDbLayerTableRecord
  2
2
 70
     0
 62
     4
  6
CONTINUOUS
370
    -3
390
5
  0
LAYER
  5
FE
330
16D
100
AcDbSymbolTableRecord
100
AcDbLayerTableRecord
  2
8
 70
     0
 62
     4
  6
CONTINUOUS
370
    -3
390
5
  0
LAYER
  5
6D
330
16D
100
AcDbSymbolTableRecord
100
AcDbLayerTableRecord
  2
50
 70
     0
 62
     4
  6
CONTINUOUS
370
    -3
390
5
  0
LAYER
  5
35
330
16D
100
AcDbSymbolTableRecord
100
AcDbLayerTableRecord
  2
52
 70
     0
 62
     4
  6
CONTINUOUS
370
    -3
390
5
  0
LAYER
  5
3F
330
16D
100
AcDbSymbolTableRecord
100
AcDbLayerTableRecord
  2
60
 70
     0
 62
     4
  6
CONTINUOUS
370
    -3
390
5
  0
LAYER
  5
56
330
16D
100
AcDbSymbolTableRecord
100
AcDbLayerTableRecord
  2
62
 70
     0
 62
     4
  6
CONTINUOUS
370
    -3
390
5
  0
LAYER
  5
D3
330
16D
100
AcDbSymbolTableRecord
100
AcDbLayerTableRecord
  2
66
 70
     0
 62
     4
  6
DASHDOT
370
    -3
390
5
  0
LAYER
  5
93
330
16D
100
AcDbSymbolTableRecord
100
AcDbLayerTableRecord
  2
DEFPOINTS
 70
     0
 62
    -7
  6
CONTINUOUS
290
     0
370
    -3
390
5
  0
LAYER
  5
87
330
16D
100
AcDbSymbolTableRecord
100
AcDbLayerTableRecord
  2
1
 70
     0
 62
     7
  6
CONTINUOUS
370
    -3
390
5
  0
ENDTAB
  0
TABLE
  2
STYLE
  5
16E
330
0
100
AcDbSymbolTable
 70
     2
  0
STYLE
  5
88
330
16E
100
AcDbSymbolTableRecord
100
AcDbTextStyleTableRecord
  2
STANDARD
 70
     0
 40
0.0
 41
1.0
 50
0.0
 71
     0
 42
0.2
  3
txt
  4

  0
STYLE
  5
C4
330
16E
100
AcDbSymbolTableRecord
100
AcDbTextStyleTableRecord
  2
TIMESRMN
 70
     0
 40
0.0
 41
1.0
 50
0.0
 71
     0
 42
1.0
  3
TXT
  4

  0
ENDTAB
  0
TABLE
  2
VIEW
  5
173
330
0
100
AcDbSymbolTable
 70
     0
  0
ENDTAB
  0
TABLE
  2
UCS
  5
174
330
0
100
AcDbSymbolTable
 70
     0
  0
ENDTAB
  0
TABLE
  2
APPID
  5
177
330
0
100
AcDbSymbolTable
 70
     1
  0
APPID
  5
98
330
177
100
AcDbSymbolTableRecord
100
AcDbRegAppTableRecord
  2
ACAD
 70
     0
  0
ENDTAB
  0
TABLE
  2
DIMSTYLE
  5
178
330
0
100
AcDbSymbolTable
 70
     1
100
AcDbDimStyleTable
 71
     1
340
89
  0
DIMSTYLE
105
89
102
{ACAD_REACTORS
330
99
330
137
330
86
330
145
330
153
330
A7
330
B5
330
C3
102
}
330
178
100
AcDbSymbolTableRecord
100
AcDbDimStyleTableRecord
  2
STANDARD
 70
     0
340
88
  0
ENDTAB
  0
TABLE
  2
BLOCK_RECORD
  5
1
330
0
100
AcDbSymbolTable
 70
     8
  0
BLOCK_RECORD
  5
2
330
1
100
AcDbSymbolTableRecord
100
AcDbBlockTableRecord
  2
*MODEL_SPACE
340
167
  0
BLOCK_RECORD
  5
169
330
1
100
AcDbSymbolTableRecord
100
AcDbBlockTableRecord
  2
*PAPER_SPACE
340
16C
  0
BLOCK_RECORD
  5
C5
330
1
100
AcDbSymbolTableRecord
100
AcDbBlockTableRecord
  2
*D0
340
0
  0
BLOCK_RECORD
  5
B6
330
1
100
AcDbSymbolTableRecord
100
AcDbBlockTableRecord
  2
*D1
340
0
  0
BLOCK_RECORD
  5
A8
330
1
100
AcDbSymbolTableRecord
100
AcDbBlockTableRecord
  2
*D2
340
0
  0
BLOCK_RECORD
  5
9A
330
1
100
AcDbSymbolTableRecord
100
AcDbBlockTableRecord
  2
*D3
340
0
  0
BLOCK_RECORD
  5
8A
330
1
100
AcDbSymbolTableRecord
100
AcDbBlockTableRecord
  2
*D4
340
0
  0
BLOCK_RECORD
  5
138
330
1
100
AcDbSymbolTableRecord
100
AcDbBlockTableRecord
  2
*D5
340
0
  0
BLOCK_RECORD
  5
146
330
1
100
AcDbSymbolTableRecord
100
AcDbBlockTableRecord
  2
*D6
340
0
  0
BLOCK_RECORD
  5
154
330
1
100
AcDbSymbolTableRecord
100
AcDbBlockTableRecord
  2
*D7
340
0
  0
ENDTAB
  0
ENDSEC
  0
SECTION
  2
BLOCKS
  0
BLOCK
  5
165
330
2
100
AcDbEntity
  8
0
100
AcDbBlockBegin
  2
*MODEL_SPACE
 70
     0
 10
0.0
 20
0.0
 30
0.0
  3
*MODEL_SPACE
  1

  0
ENDBLK
  5
166
330
2
100
AcDbEntity
  8
0
100
AcDbBlockEnd
  0
BLOCK
  5
16A
330
169
100
AcDbEntity
 67
     1
  8
0
100
AcDbBlockBegin
  2
*PAPER_SPACE
 70
     0
 10
0.0
 20
0.0
 30
0.0
  3
*PAPER_SPACE
  1

  0
ENDBLK
  5
16B
330
169
100
AcDbEntity
 67
     1
  8
0
100
AcDbBlockEnd
  0
BLOCK
  5
D0
330
C5
100
AcDbEntity
  8
0
100
AcDbBlockBegin
  2
*D0
 70
     1
 10
0.0
 20
0.0
 30
0.0
  3
*D0
  1

  0
LINE
  5
C6
330
C5
100
AcDbEntity
  8
1
 62
     7
370
    -2
100
AcDbLine
 10
-1275.643188
 20
-2355.153076
 30
0.0
 11
-1275.643188
 21
-1229.213745
 31
0.0
  0
LINE
  5
C7
330
C5
100
AcDbEntity
  8
1
 62
     7
370
    -2
100
AcDbLine
 10
1724.357055999999
 20
-2355.153076
 30
0.0
 11
1724.357055999999
 21
-1229.213745
 31
0.0
  0
LINE
  5
C8
330
C5
100
AcDbEntity
  8
1
 62
     7
370
    -2
100
AcDbLine
 10
-1150.643188
 20
-1279.213745
 30
0.0
 11
-295.869491648022
 21
-1279.213745
 31
0.0
  0
LINE
  5
C9
330
C5
100
AcDbEntity
  8
1
 62
     7
370
    -2
100
AcDbLine
 10
1599.357055999999
 20
-1279.213745
 30
0.0
 11
744.5833596480219
 21
-1279.213745
 31
0.0
  0
SOLID
  5
CA
330
C5
100
AcDbEntity
  8
1
 62
     7
100
AcDbTrace
 10
-1150.643188
 20
-1258.380411666666
 30
0.0
 11
-1150.643188
 21
-1300.047078333333
 31
0.0
 12
-1275.643188
 22
-1279.213745
 32
0.0
 13
-1275.643188
 23
-1279.213745
 33
0.0
  0
SOLID
  5
CB
330
C5
100
AcDbEntity
  8
1
 62
     7
100
AcDbTrace
 10
1599.357055999999
 20
-1258.380411666666
 30
0.0
 11
1599.357055999999
 21
-1300.047078333333
 31
0.0
 12
1724.357055999999
 22
-1279.213745
 32
0.0
 13
1724.357055999999
 23
-1279.213745
 33
0.0
  0
MTEXT
  5
CC
330
C5
100
AcDbEntity
  8
1
 62
     7
100
AcDbMText
 10
224.3569339999999
 20
-1279.213745
 30
0.0
 40
80.0
 41
0.0
 71
     5
 72
     1
  1
\A1;{\fArial|b1|i0|c0|p34;W OPENING WIDTH}
  7
TIMESRMN
 73
     1
 44
1.0
  0
POINT
  5
CD
330
C5
100
AcDbEntity
  8
DEFPOINTS
 62
     0
100
AcDbPoint
 10
-1275.643188
 20
-2405.153076
 30
0.0
  0
POINT
  5
CE
330
C5
100
AcDbEntity
  8
DEFPOINTS
 62
     0
100
AcDbPoint
 10
1724.357055999999
 20
-2405.153076
 30
0.0
  0
POINT
  5
CF
330
C5
100
AcDbEntity
  8
DEFPOINTS
 62
     0
100
AcDbPoint
 10
1724.357055999999
 20
-1279.213745
 30
0.0
  0
ENDBLK
  5
D1
330
C5
100
AcDbEntity
  8
0
100
AcDbBlockEnd
  0
BLOCK
  5
C1
330
B6
100
AcDbEntity
  8
0
100
AcDbBlockBegin
  2
*D1
 70
     1
 10
0.0
 20
0.0
 30
0.0
  3
*D1
  1

  0
LINE
  5
B7
330
B6
100
AcDbEntity
  8
1
 62
     7
370
    -2
100
AcDbLine
 10
4033.276367
 20
594.846924
 30
0.0
 11
4667.124512
 21
594.8469239999999
 31
0.0
  0
LINE
  5
B8
330
B6
100
AcDbEntity
  8
1
 62
     7
370
    -2
100
AcDbLine
 10
4033.276367
 20
1122.346924
 30
0.0
 11
4667.124512
 21
1122.346923999999
 31
0.0
  0
LINE
  5
B9
330
B6
100
AcDbEntity
  8
1
 62
     7
370
    -2
100
AcDbLine
 10
4617.124511999999
 20
719.8469239999999
 30
0.0
 11
4617.124511999999
 21
817.1426675197816
 31
0.0
  0
LINE
  5
BA
330
B6
100
AcDbEntity
  8
1
 62
     7
370
    -2
100
AcDbLine
 10
4617.124511999999
 20
997.3469239999998
 30
0.0
 11
4617.124511999999
 21
900.0511804802181
 31
0.0
  0
SOLID
  5
BB
330
B6
100
AcDbEntity
  8
1
 62
     7
100
AcDbTrace
 10
4596.291178666667
 20
719.8469239999999
 30
0.0
 11
4637.957845333332
 21
719.8469239999999
 31
0.0
 12
4617.124511999999
 22
594.8469239999999
 32
0.0
 13
4617.124511999999
 23
594.8469239999999
 33
0.0
  0
SOLID
  5
BC
330
B6
100
AcDbEntity
  8
1
 62
     7
100
AcDbTrace
 10
4596.291178666667
 20
997.3469239999998
 30
0.0
 11
4637.957845333332
 21
997.3469239999998
 31
0.0
 12
4617.124511999999
 22
1122.346923999999
 32
0.0
 13
4617.124511999999
 23
1122.346923999999
 33
0.0
  0
MTEXT
  5
BD
330
B6
100
AcDbEntity
  8
1
 62
     7
100
AcDbMText
 10
4617.124511999999
 20
858.5969240000006
 30
0.0
 40
80.0
 41
0.0
 71
     5
 72
     1
  1
\A1;{\fArial|b1|i0|c0|p34;C}
 73
     1
 44
1.0
  0
POINT
  5
BE
330
B6
100
AcDbEntity
  8
DEFPOINTS
 62
     0
100
AcDbPoint
 10
3983.276367
 20
594.846924
 30
0.0
  0
POINT
  5
BF
330
B6
100
AcDbEntity
  8
DEFPOINTS
 62
     0
100
AcDbPoint
 10
3983.276367
 20
1122.346924
 30
0.0
  0
POINT
  5
C0
330
B6
100
AcDbEntity
  8
DEFPOINTS
 62
     0
100
AcDbPoint
 10
4617.124511999999
 20
1122.346923999999
 30
0.0
  0
ENDBLK
  5
C2
330
B6
100
AcDbEntity
  8
0
100
AcDbBlockEnd
  0
BLOCK
  5
B3
330
A8
100
AcDbEntity
  8
0
100
AcDbBlockBegin
  2
*D2
 70
     1
 10
0.0
 20
0.0
 30
0.0
  3
*D2
  1

  0
LINE
  5
A9
330
A8
100
AcDbEntity
  8
1
 62
     7
370
    -2
100
AcDbLine
 10
4234.522461
 20
-2405.153076
 30
0.0
 11
4666.750487999999
 21
-2405.153076
 31
0.0
  0
LINE
  5
AA
330
A8
100
AcDbEntity
  8
1
 62
     7
370
    -2
100
AcDbLine
 10
4033.276367
 20
594.846924
 30
0.0
 11
4666.750488
 21
594.8469239999999
 31
0.0
  0
LINE
  5
AB
330
A8
100
AcDbEntity
  8
1
 62
     7
370
    -2
100
AcDbLine
 10
4616.750488
 20
-2280.153076
 30
0.0
 11
4616.750488
 21
-946.6073324802184
 31
0.0
  0
LINE
  5
AC
330
A8
100
AcDbEntity
  8
1
 62
     7
370
    -2
100
AcDbLine
 10
4616.750488
 20
469.8469239999999
 30
0.0
 11
4616.750488
 21
-863.6988195197819
 31
0.0
  0
SOLID
  5
AD
330
A8
100
AcDbEntity
  8
1
 62
     7
100
AcDbTrace
 10
4595.917154666667
 20
-2280.153076
 30
0.0
 11
4637.583821333333
 21
-2280.153076
 31
0.0
 12
4616.750488
 22
-2405.153076
 32
0.0
 13
4616.750488
 23
-2405.153076
 33
0.0
  0
SOLID
  5
AE
330
A8
100
AcDbEntity
  8
1
 62
     7
100
AcDbTrace
 10
4595.917154666667
 20
469.8469239999999
 30
0.0
 11
4637.583821333334
 21
469.8469239999999
 31
0.0
 12
4616.750488
 22
594.8469239999999
 32
0.0
 13
4616.750488
 23
594.8469239999999
 33
0.0
  0
MTEXT
  5
AF
330
A8
100
AcDbEntity
  8
1
 62
     7
100
AcDbMText
 10
4616.750488
 20
-905.1530759999993
 30
0.0
 40
80.0
 41
0.0
 71
     5
 72
     1
  1
\A1;{\fArial|b1|i0|c0|p34;H OPENING HEIGHT}
 73
     1
 44
1.0
  0
POINT
  5
B0
330
A8
100
AcDbEntity
  8
DEFPOINTS
 62
     0
100
AcDbPoint
 10
4184.522460999999
 20
-2405.153076
 30
0.0
  0
POINT
  5
B1
330
A8
100
AcDbEntity
  8
DEFPOINTS
 62
     0
100
AcDbPoint
 10
3983.276367
 20
594.846924
 30
0.0
  0
POINT
  5
B2
330
A8
100
AcDbEntity
  8
DEFPOINTS
 62
     0
100
AcDbPoint
 10
4616.750488
 20
594.8469239999999
 30
0.0
  0
ENDBLK
  5
B4
330
A8
100
AcDbEntity
  8
0
100
AcDbBlockEnd
  0
BLOCK
  5
A5
330
9A
100
AcDbEntity
  8
0
100
AcDbBlockBegin
  2
*D3
 70
     1
 10
0.0
 20
0.0
 30
0.0
  3
*D3
  1

  0
LINE
  5
9B
330
9A
100
AcDbEntity
  8
1
 62
     7
370
    -2
100
AcDbLine
 10
-1490.643187999999
 20
642.3469240000001
 30
0.0
 11
-1490.643187999999
 21
-591.826294
 31
0.0
  0
LINE
  5
9C
330
9A
100
AcDbEntity
  8
1
 62
     7
370
    -2
100
AcDbLine
 10
-1275.643188
 20
544.846924
 30
0.0
 11
-1275.643188
 21
-591.826294
 31
0.0
  0
LINE
  5
9D
330
9A
100
AcDbEntity
  8
1
 62
     7
370
    -2
100
AcDbLine
 10
-1615.643187999999
 20
-541.826294
 30
0.0
 11
-1740.643187999999
 21
-541.826294
 31
0.0
  0
LINE
  5
9E
330
9A
100
AcDbEntity
  8
1
 62
     7
370
    -2
100
AcDbLine
 10
-1150.643188
 20
-541.826294
 30
0.0
 11
-1014.633746247495
 21
-541.826294
 31
0.0
  0
SOLID
  5
9F
330
9A
100
AcDbEntity
  8
1
 62
     7
100
AcDbTrace
 10
-1615.643187999999
 20
-520.9929606666666
 30
0.0
 11
-1615.643187999999
 21
-562.6596273333334
 31
0.0
 12
-1490.643187999999
 22
-541.826294
 32
0.0
 13
-1490.643187999999
 23
-541.826294
 33
0.0
  0
SOLID
  5
A0
330
9A
100
AcDbEntity
  8
1
 62
     7
100
AcDbTrace
 10
-1150.643188
 20
-520.9929606666666
 30
0.0
 11
-1150.643188
 21
-562.6596273333334
 31
0.0
 12
-1275.643188
 22
-541.826294
 32
0.0
 13
-1275.643188
 23
-541.826294
 33
0.0
  0
MTEXT
  5
A1
330
9A
100
AcDbEntity
  8
1
 62
     7
100
AcDbMText
 10
-981.0376070933344
 20
-541.826294
 30
0.0
 40
80.0
 41
0.0
 71
     5
 72
     1
  1
\A1;{\fArial|b1|i0|c0|p34;B}
 73
     1
 44
1.0
  0
POINT
  5
A2
330
9A
100
AcDbEntity
  8
DEFPOINTS
 62
     0
100
AcDbPoint
 10
-1490.643187999999
 20
692.3469240000001
 30
0.0
  0
POINT
  5
A3
330
9A
100
AcDbEntity
  8
DEFPOINTS
 62
     0
100
AcDbPoint
 10
-1275.643188
 20
594.846924
 30
0.0
  0
POINT
  5
A4
330
9A
100
AcDbEntity
  8
DEFPOINTS
 62
     0
100
AcDbPoint
 10
-1275.643188
 20
-541.826294
 30
0.0
  0
ENDBLK
  5
A6
330
9A
100
AcDbEntity
  8
0
100
AcDbBlockEnd
  0
BLOCK
  5
96
330
8A
100
AcDbEntity
  8
0
100
AcDbBlockBegin
  2
*D4
 70
     1
 10
0.0
 20
0.0
 30
0.0
  3
*D4
  1

  0
LINE
  5
8B
330
8A
100
AcDbEntity
  8
1
 62
     7
370
    -2
100
AcDbLine
 10
1724.357055999999
 20
544.846924
 30
0.0
 11
1724.357055999999
 21
-591.8264159999999
 31
0.0
  0
LINE
  5
8C
330
8A
100
AcDbEntity
  8
1
 62
     7
370
    -2
100
AcDbLine
 10
2017.357055999999
 20
-325.6295779999999
 30
0.0
 11
2017.357055999999
 21
-591.8264159999999
 31
0.0
  0
LINE
  5
8D
330
8A
100
AcDbEntity
  8
1
 62
     7
370
    -2
100
AcDbLine
 10
1599.357055999999
 20
-541.8264159999999
 30
0.0
 11
1474.357055999999
 21
-541.8264159999999
 31
0.0
  0
LINE
  5
8E
330
8A
100
AcDbEntity
  8
1
 62
     7
370
    -2
100
AcDbLine
 10
2142.357055999999
 20
-541.8264159999999
 30
0.0
 11
2267.357056
 21
-541.8264159999999
 31
0.0
  0
SOLID
  5
8F
330
8A
100
AcDbEntity
  8
1
 62
     7
100
AcDbTrace
 10
1599.357055999999
 20
-520.9930826666666
 30
0.0
 11
1599.357055999999
 21
-562.6597493333333
 31
0.0
 12
1724.357055999999
 22
-541.8264159999999
 32
0.0
 13
1724.357055999999
 23
-541.8264159999999
 33
0.0
  0
SOLID
  5
90
330
8A
100
AcDbEntity
  8
1
 62
     7
100
AcDbTrace
 10
2142.357055999999
 20
-520.9930826666666
 30
0.0
 11
2142.357055999999
 21
-562.6597493333333
 31
0.0
 12
2017.357055999999
 22
-541.8264159999999
 32
0.0
 13
2017.357055999999
 23
-541.8264159999999
 33
0.0
  0
MTEXT
  5
91
330
8A
100
AcDbEntity
  8
1
 62
     7
100
AcDbMText
 10
2307.583481648022
 20
-541.8264159999999
 30
0.0
 40
80.0
 41
0.0
 71
     5
 72
     1
  1
\A1;{\fArial|b1|i0|c0|p34;A}
 73
     1
 44
1.0
  0
POINT
  5
92
330
8A
100
AcDbEntity
  8
DEFPOINTS
 62
     0
100
AcDbPoint
 10
1724.357055999999
 20
594.846924
 30
0.0
  0
POINT
  5
94
330
8A
100
AcDbEntity
  8
DEFPOINTS
 62
     0
100
AcDbPoint
 10
2017.357055999999
 20
-275.6295779999999
 30
0.0
  0
POINT
  5
95
330
8A
100
AcDbEntity
  8
DEFPOINTS
 62
     0
100
AcDbPoint
 10
2017.357055999999
 20
-541.8264159999999
 30
0.0
  0
ENDBLK
  5
97
330
8A
100
AcDbEntity
  8
0
100
AcDbBlockEnd
  0
BLOCK
  5
143
330
138
100
AcDbEntity
  8
0
100
AcDbBlockBegin
  2
*D5
 70
     1
 10
0.0
 20
0.0
 30
0.0
  3
*D5
  1

  0
LINE
  5
139
330
138
100
AcDbEntity
  8
4
  6
Continuous
 62
     7
370
    -2
100
AcDbLine
 10
-1600.643188
 20
869.8469240000001
 30
0.0
 11
-1703.74860952629
 21
869.8469240000001
 31
0.0
  0
LINE
  5
13A
330
138
100
AcDbEntity
  8
4
  6
Continuous
 62
     7
370
    -2
100
AcDbLine
 10
-1325.643188
 20
594.8469240000001
 30
0.0
 11
-1703.74860952629
 21
594.8469240000001
 31
0.0
  0
LINE
  5
13B
330
138
100
AcDbEntity
  8
4
  6
Continuous
 62
     7
370
    -2
100
AcDbLine
 10
-1653.74860952629
 20
994.8469240000001
 30
0.0
 11
-1653.74860952629
 21
1119.846924
 31
0.0
  0
LINE
  5
13C
330
138
100
AcDbEntity
  8
4
  6
Continuous
 62
     7
370
    -2
100
AcDbLine
 10
-1653.74860952629
 20
469.8469240000001
 30
0.0
 11
-1653.74860952629
 21
344.8469240000001
 31
0.0
  0
SOLID
  5
13D
330
138
100
AcDbEntity
  8
4
  6
Continuous
 62
     7
100
AcDbTrace
 10
-1674.581942859623
 20
994.8469240000001
 30
0.0
 11
-1632.915276192957
 21
994.8469240000001
 31
0.0
 12
-1653.74860952629
 22
869.8469240000001
 32
0.0
 13
-1653.74860952629
 23
869.8469240000001
 33
0.0
  0
SOLID
  5
13E
330
138
100
AcDbEntity
  8
4
  6
Continuous
 62
     7
100
AcDbTrace
 10
-1674.581942859624
 20
469.8469240000002
 30
0.0
 11
-1632.915276192957
 21
469.8469240000001
 31
0.0
 12
-1653.74860952629
 22
594.8469240000001
 32
0.0
 13
-1653.74860952629
 23
594.8469240000001
 33
0.0
  0
MTEXT
  5
13F
330
138
100
AcDbEntity
  8
4
  6
Continuous
 62
     7
100
AcDbMText
 10
-1653.74860952629
 20
752.2807004792903
 30
0.0
 40
80.0
 41
0.0
 71
     5
 72
     1
  1
\A1;{\fArial|b1|i0|c0|p34;E}
 73
     1
 44
1.0
  0
POINT
  5
140
330
138
100
AcDbEntity
  8
DEFPOINTS
  6
Continuous
 62
     0
100
AcDbPoint
 10
-1550.643188
 20
869.8469240000001
 30
0.0
  0
POINT
  5
141
330
138
100
AcDbEntity
  8
DEFPOINTS
  6
Continuous
 62
     0
100
AcDbPoint
 10
-1275.643188
 20
594.846924
 30
0.0
  0
POINT
  5
142
330
138
100
AcDbEntity
  8
DEFPOINTS
  6
Continuous
 62
     0
100
AcDbPoint
 10
-1653.74860952629
 20
594.8469240000001
 30
0.0
  0
ENDBLK
  5
144
330
138
100
AcDbEntity
  8
0
100
AcDbBlockEnd
  0
BLOCK
  5
151
330
146
100
AcDbEntity
  8
0
100
AcDbBlockBegin
  2
*D6
 70
     1
 10
0.0
 20
0.0
 30
0.0
  3
*D6
  1

  0
LINE
  5
147
330
146
100
AcDbEntity
  8
4
  6
Continuous
 62
     7
370
    -2
100
AcDbLine
 10
1849.357055999999
 20
1069.846923999999
 30
0.0
 11
2357.675209762521
 21
1069.846923999999
 31
0.0
  0
LINE
  5
148
330
146
100
AcDbEntity
  8
4
  6
Continuous
 62
     7
370
    -2
100
AcDbLine
 10
2037.357055999999
 20
172.346924
 30
0.0
 11
2357.675209762521
 21
172.3469239999999
 31
0.0
  0
LINE
  5
149
330
146
100
AcDbEntity
  8
4
  6
Continuous
 62
     7
370
    -2
100
AcDbLine
 10
2307.675209762521
 20
944.8469239999997
 30
0.0
 11
2307.675209762521
 21
661.1869239999998
 31
0.0
  0
LINE
  5
14A
330
146
100
AcDbEntity
  8
4
  6
Continuous
 62
     7
370
    -2
100
AcDbLine
 10
2307.675209762521
 20
297.3469239999999
 30
0.0
 11
2307.675209762521
 21
581.0069239999998
 31
0.0
  0
SOLID
  5
14B
330
146
100
AcDbEntity
  8
4
  6
Continuous
 62
     7
100
AcDbTrace
 10
2286.841876429187
 20
944.8469239999999
 30
0.0
 11
2328.508543095855
 21
944.8469239999997
 31
0.0
 12
2307.675209762521
 22
1069.846923999999
 32
0.0
 13
2307.675209762521
 23
1069.846923999999
 33
0.0
  0
SOLID
  5
14C
330
146
100
AcDbEntity
  8
4
  6
Continuous
 62
     7
100
AcDbTrace
 10
2286.841876429187
 20
297.3469239999999
 30
0.0
 11
2328.508543095855
 21
297.3469239999999
 31
0.0
 12
2307.675209762521
 22
172.3469239999999
 32
0.0
 13
2307.675209762521
 23
172.3469239999999
 33
0.0
  0
MTEXT
  5
14D
330
146
100
AcDbEntity
  8
4
  6
Continuous
 62
     7
100
AcDbMText
 10
2307.675209762521
 20
621.0969240000003
 30
0.0
 40
80.0
 41
0.0
 71
     5
 72
     1
  1
\A1;{\fArial|b1|i0|c0|p34;F}
 73
     1
 44
1.0
  0
POINT
  5
14E
330
146
100
AcDbEntity
  8
DEFPOINTS
  6
Continuous
 62
     0
100
AcDbPoint
 10
1799.357055999999
 20
1069.846923999999
 30
0.0
  0
POINT
  5
14F
330
146
100
AcDbEntity
  8
DEFPOINTS
  6
Continuous
 62
     0
100
AcDbPoint
 10
1987.357055999999
 20
172.346924
 30
0.0
  0
POINT
  5
150
330
146
100
AcDbEntity
  8
DEFPOINTS
  6
Continuous
 62
     0
100
AcDbPoint
 10
2307.675209762521
 20
172.3469239999999
 30
0.0
  0
ENDBLK
  5
152
330
146
100
AcDbEntity
  8
0
100
AcDbBlockEnd
  0
BLOCK
  5
15F
330
154
100
AcDbEntity
  8
0
100
AcDbBlockBegin
  2
*D7
 70
     1
 10
0.0
 20
0.0
 30
0.0
  3
*D7
  1

  0
LINE
  5
155
330
154
100
AcDbEntity
  8
4
  6
Continuous
 62
     7
370
    -2
100
AcDbLine
 10
3603.276367
 20
635.009766
 30
0.0
 11
3603.276367
 21
-667.4389534770836
 31
0.0
  0
LINE
  5
156
330
154
100
AcDbEntity
  8
4
  6
Continuous
 62
     7
370
    -2
100
AcDbLine
 10
3053.276123001022
 20
327.3469276602065
 30
0.0
 11
3053.276123001022
 21
-667.4389534770835
 31
0.0
  0
LINE
  5
157
330
154
100
AcDbEntity
  8
4
  6
Continuous
 62
     7
370
    -2
100
AcDbLine
 10
3478.276367
 20
-617.4389534770835
 30
0.0
 11
3361.899669284276
 21
-617.4389534770835
 31
0.0
  0
LINE
  5
158
330
154
100
AcDbEntity
  8
4
  6
Continuous
 62
     7
370
    -2
100
AcDbLine
 10
3178.276123001022
 20
-617.4389534770835
 30
0.0
 11
3294.652820716746
 21
-617.4389534770835
 31
0.0
  0
SOLID
  5
159
330
154
100
AcDbEntity
  8
4
  6
Continuous
 62
     7
100
AcDbTrace
 10
3478.276367
 20
-596.6056201437501
 30
0.0
 11
3478.276367
 21
-638.2722868104168
 31
0.0
 12
3603.276367
 22
-617.4389534770835
 32
0.0
 13
3603.276367
 23
-617.4389534770835
 33
0.0
  0
SOLID
  5
15A
330
154
100
AcDbEntity
  8
4
  6
Continuous
 62
     7
100
AcDbTrace
 10
3178.276123001022
 20
-596.6056201437501
 30
0.0
 11
3178.276123001022
 21
-638.2722868104168
 31
0.0
 12
3053.276123001022
 22
-617.4389534770835
 32
0.0
 13
3053.276123001022
 23
-617.4389534770835
 33
0.0
  0
MTEXT
  5
15B
330
154
100
AcDbEntity
  8
4
  6
Continuous
 62
     7
100
AcDbMText
 10
3328.276245000511
 20
-617.4389534770835
 30
0.0
 40
80.0
 41
0.0
 71
     5
 72
     1
  1
\A1;{\fArial|b1|i0|c0|p34;D}
 73
     1
 44
1.0
  0
POINT
  5
15C
330
154
100
AcDbEntity
  8
DEFPOINTS
  6
Continuous
 62
     0
100
AcDbPoint
 10
3603.276367
 20
685.009766
 30
0.0
  0
POINT
  5
15D
330
154
100
AcDbEntity
  8
DEFPOINTS
  6
Continuous
 62
     0
100
AcDbPoint
 10
3053.276123001022
 20
377.3469276602065
 30
0.0
  0
POINT
  5
15E
330
154
100
AcDbEntity
  8
DEFPOINTS
  6
Continuous
 62
     0
100
AcDbPoint
 10
3053.276123001022
 20
-617.4389534770835
 30
0.0
  0
ENDBLK
  5
160
330
154
100
AcDbEntity
  8
0
100
AcDbBlockEnd
  0
ENDSEC
  0
SECTION
  2
ENTITIES
  0
LINE
  5
3
330
2
100
AcDbEntity
  8
0
  6
Continuous
 62
     7
100
AcDbLine
 10
-1350.643188
 20
669.846924
 30
0.0
 11
1799.357055999999
 21
669.846924
 31
0.0
  0
LINE
  5
9
330
2
100
AcDbEntity
  8
0
  6
Continuous
 62
     7
100
AcDbLine
 10
1799.357055999999
 20
669.846924
 30
0.0
 11
1799.357055999999
 21
1069.846923999999
 31
0.0
  0
LINE
  5
A
330
2
100
AcDbEntity
  8
0
  6
Continuous
 62
     7
100
AcDbLine
 10
1799.357055999999
 20
1069.846923999999
 30
0.0
 11
-1350.643188
 21
1069.846923999999
 31
0.0
  0
LINE
  5
B
330
2
100
AcDbEntity
  8
0
  6
Continuous
 62
     7
100
AcDbLine
 10
-1350.643188
 20
1069.846923999999
 30
0.0
 11
-1350.643188
 21
669.846924
 31
0.0
  0
LINE
  5
C
330
2
100
AcDbEntity
  8
0
  6
DASHDOT
 62
     7
100
AcDbLine
 10
-1550.643188
 20
869.8469240000001
 30
0.0
 11
1999.357056
 21
869.8469240000001
 31
0.0
  0
LINE
  5
E
330
2
100
AcDbEntity
  8
0
  6
Continuous
 62
     7
100
AcDbLine
 10
-1275.643188
 20
594.846924
 30
0.0
 11
1724.357055999999
 21
594.846924
 31
0.0
  0
LINE
  5
F
330
2
100
AcDbEntity
  8
0
  6
Continuous
 62
     7
100
AcDbLine
 10
-1350.643188
 20
952.346924
 30
0.0
 11
-1400.643188
 21
952.346924
 31
0.0
  0
LINE
  5
10
330
2
100
AcDbEntity
  8
0
  6
Continuous
 62
     7
100
AcDbLine
 10
-1400.643188
 20
952.346924
 30
0.0
 11
-1400.643188
 21
787.346924
 31
0.0
  0
LINE
  5
11
330
2
100
AcDbEntity
  8
0
  6
Continuous
 62
     7
100
AcDbLine
 10
-1400.643188
 20
787.346924
 30
0.0
 11
-1350.643188
 21
787.346924
 31
0.0
  0
LINE
  5
12
330
2
100
AcDbEntity
  8
0
  6
Continuous
 62
     7
100
AcDbLine
 10
-1400.643188
 20
888.846924
 30
0.0
 11
-1500.643188
 21
888.846924
 31
0.0
  0
LINE
  5
13
330
2
100
AcDbEntity
  8
0
  6
Continuous
 62
     7
100
AcDbLine
 10
-1500.643188
 20
888.846924
 30
0.0
 11
-1500.643188
 21
850.846924
 31
0.0
  0
LINE
  5
14
330
2
100
AcDbEntity
  8
0
  6
Continuous
 62
     7
100
AcDbLine
 10
-1500.643188
 20
850.846924
 30
0.0
 11
-1400.643188
 21
850.846924
 31
0.0
  0
LINE
  5
15
330
2
100
AcDbEntity
  8
0
  6
Continuous
 62
     7
100
AcDbLine
 10
-1275.643188
 20
-2405.153076
 30
0.0
 11
-1275.643188
 21
669.846924
 31
0.0
  0
LINE
  5
16
330
2
100
AcDbEntity
  8
0
  6
Continuous
 62
     7
100
AcDbLine
 10
-1375.643188
 20
-2405.153076
 30
0.0
 11
-1375.643188
 21
694.846924
 31
0.0
  0
LINE
  5
17
330
2
100
AcDbEntity
  8
0
  6
Continuous
 62
     7
100
AcDbLine
 10
-1375.643188
 20
694.846924
 30
0.0
 11
-1350.643188
 21
694.846924
 31
0.0
  0
LINE
  5
18
330
2
100
AcDbEntity
  8
0
  6
Continuous
 62
     7
100
AcDbLine
 10
1824.357056
 20
-2405.153076
 30
0.0
 11
1824.357056
 21
694.846924
 31
0.0
  0
LINE
  5
19
330
2
100
AcDbEntity
  8
0
  6
Continuous
 62
     7
100
AcDbLine
 10
1824.357056
 20
694.846924
 30
0.0
 11
1799.357055999999
 21
694.846924
 31
0.0
  0
LINE
  5
1A
330
2
100
AcDbEntity
  8
0
  6
Continuous
 62
     7
100
AcDbLine
 10
1724.357055999999
 20
-2405.153076
 30
0.0
 11
1724.357055999999
 21
669.846924
 31
0.0
  0
LINE
  5
1B
330
2
100
AcDbEntity
  8
0
  6
Continuous
 62
     7
100
AcDbLine
 10
1799.357055999999
 20
952.346924
 30
0.0
 11
1849.357055999999
 21
952.346924
 31
0.0
  0
LINE
  5
1C
330
2
100
AcDbEntity
  8
0
  6
Continuous
 62
     7
100
AcDbLine
 10
1849.357055999999
 20
952.346924
 30
0.0
 11
1849.357055999999
 21
787.346924
 31
0.0
  0
LINE
  5
1D
330
2
100
AcDbEntity
  8
0
  6
Continuous
 62
     7
100
AcDbLine
 10
1849.357055999999
 20
787.346924
 30
0.0
 11
1799.357055999999
 21
787.346924
 31
0.0
  0
LINE
  5
1E
330
2
100
AcDbEntity
  8
0
  6
Continuous
 62
     7
100
AcDbLine
 10
1849.357055999999
 20
888.846924
 30
0.0
 11
1949.357056
 21
888.846924
 31
0.0
  0
LINE
  5
1F
330
2
100
AcDbEntity
  8
0
  6
Continuous
 62
     7
100
AcDbLine
 10
1949.357056
 20
888.846924
 30
0.0
 11
1949.357056
 21
850.846924
 31
0.0
  0
LINE
  5
20
330
2
100
AcDbEntity
  8
0
  6
Continuous
 62
     7
100
AcDbLine
 10
1949.357056
 20
850.846924
 30
0.0
 11
1849.357055999999
 21
850.846924
 31
0.0
  0
LINE
  5
21
330
2
100
AcDbEntity
  8
2
  6
Continuous
 62
     7
100
AcDbLine
 10
-1415.643187999999
 20
1047.346923999999
 30
0.0
 11
-1490.643187999999
 21
1047.346923999999
 31
0.0
  0
LINE
  5
23
330
2
100
AcDbEntity
  8
2
  6
Continuous
 62
     7
100
AcDbLine
 10
-1490.643187999999
 20
1047.346923999999
 30
0.0
 11
-1490.643187999999
 21
692.3469240000001
 31
0.0
  0
LINE
  5
24
330
2
100
AcDbEntity
  8
2
  6
Continuous
 62
     7
100
AcDbLine
 10
-1490.643187999999
 20
692.3469240000001
 30
0.0
 11
-1415.643187999999
 21
692.3469240000001
 31
0.0
  0
LINE
  5
25
330
2
100
AcDbEntity
  8
2
  6
Continuous
 62
     7
100
AcDbLine
 10
-1415.643187999999
 20
692.3469240000001
 30
0.0
 11
-1415.643187999999
 21
1047.346923999999
 31
0.0
  0
LINE
  5
26
330
2
100
AcDbEntity
  8
2
  6
Continuous
 62
     7
100
AcDbLine
 10
-1423.643187999999
 20
1047.346923999999
 30
0.0
 11
-1423.643187999999
 21
692.3469240000001
 31
0.0
  0
LINE
  5
27
330
2
100
AcDbEntity
  8
2
  6
DASHDOT
 62
     7
100
AcDbLine
 10
-1450.643188
 20
1042.346924
 30
0.0
 11
-1450.643188
 21
1002.346924
 31
0.0
  0
LINE
  5
28
330
2
100
AcDbEntity
  8
2
  6
DASHDOT
 62
     7
100
AcDbLine
 10
-1420.643188
 20
1022.346924
 30
0.0
 11
-1480.643188
 21
1022.346924
 31
0.0
  0
LINE
  5
29
330
2
100
AcDbEntity
  8
2
  6
DASHDOT
 62
     7
100
AcDbLine
 10
-1450.643188
 20
697.346924
 30
0.0
 11
-1450.643188
 21
737.346924
 31
0.0
  0
LINE
  5
2A
330
2
100
AcDbEntity
  8
2
  6
DASHDOT
 62
     7
100
AcDbLine
 10
-1420.643188
 20
717.3469240000001
 30
0.0
 11
-1480.643188
 21
717.3469240000001
 31
0.0
  0
LINE
  5
2B
330
2
100
AcDbEntity
  8
0
  6
PHANTOM
 62
     7
100
AcDbLine
 10
-1575.643188
 20
-2405.153076
 30
0.0
 11
2024.357055999999
 21
-2405.153076
 31
0.0
  0
LINE
  5
2D
330
2
100
AcDbEntity
  8
2
  6
Continuous
 62
     7
100
AcDbLine
 10
1864.357055999999
 20
1047.346923999999
 30
0.0
 11
1939.357055999999
 21
1047.346923999999
 31
0.0
  0
LINE
  5
2E
330
2
100
AcDbEntity
  8
2
  6
Continuous
 62
     7
100
AcDbLine
 10
1939.357055999999
 20
1047.346923999999
 30
0.0
 11
1939.357055999999
 21
692.3469240000001
 31
0.0
  0
LINE
  5
2F
330
2
100
AcDbEntity
  8
2
  6
Continuous
 62
     7
100
AcDbLine
 10
1939.357055999999
 20
692.3469240000001
 30
0.0
 11
1864.357055999999
 21
692.3469240000001
 31
0.0
  0
LINE
  5
30
330
2
100
AcDbEntity
  8
2
  6
DASHDOT
 62
     7
100
AcDbLine
 10
1899.357055999999
 20
1042.346924
 30
0.0
 11
1899.357055999999
 21
1002.346924
 31
0.0
  0
LINE
  5
31
330
2
100
AcDbEntity
  8
2
  6
DASHDOT
 62
     7
100
AcDbLine
 10
1869.357055999999
 20
1022.346924
 30
0.0
 11
1929.357055999999
 21
1022.346924
 31
0.0
  0
LINE
  5
32
330
2
100
AcDbEntity
  8
2
  6
DASHDOT
 62
     7
100
AcDbLine
 10
1899.357055999999
 20
697.346924
 30
0.0
 11
1899.357055999999
 21
737.346924
 31
0.0
  0
LINE
  5
33
330
2
100
AcDbEntity
  8
2
  6
DASHDOT
 62
     7
100
AcDbLine
 10
1869.357055999999
 20
717.3469240000001
 30
0.0
 11
1929.357055999999
 21
717.3469240000001
 31
0.0
  0
LINE
  5
34
330
2
100
AcDbEntity
  8
52
  6
Continuous
 62
     7
100
AcDbLine
 10
3625.276367
 20
1047.346923999999
 30
0.0
 11
3625.276367
 21
692.3469240000001
 31
0.0
  0
ARC
  5
36
330
2
100
AcDbEntity
  8
52
  6
Continuous
 62
     7
100
AcDbCircle
 10
3633.276611
 20
627.34668
 30
0.0
 40
65.000244
100
AcDbArc
 50
90.00021399999999
 51
179.9997859999999
  0
LINE
  5
37
330
2
100
AcDbEntity
  8
52
  6
Continuous
 62
     7
100
AcDbLine
 10
3568.276367000001
 20
627.346924
 30
0.0
 11
3438.276367
 21
627.346924
 31
0.0
  0
LINE
  5
38
330
2
100
AcDbEntity
  8
52
  6
Continuous
 62
     7
100
AcDbLine
 10
3558.276367
 20
1047.346923999999
 30
0.0
 11
3558.276367
 21
692.3469240000001
 31
0.0
  0
LINE
  5
39
330
2
100
AcDbEntity
  8
52
  6
Continuous
 62
     7
100
AcDbLine
 10
3558.276367
 20
692.3469240000001
 30
0.0
 11
3633.276367
 21
692.3469240000001
 31
0.0
  0
POINT
  5
3A
330
2
100
AcDbEntity
  8
52
  6
Continuous
 62
     7
100
AcDbPoint
 10
3373.276367
 20
422.346924
 30
0.0
  0
CIRCLE
  5
3B
330
2
100
AcDbEntity
  8
52
  6
Continuous
 62
     7
100
AcDbCircle
 10
3373.276367
 20
422.346924
 30
0.0
 40
15.875
  0
LINE
  5
3C
330
2
100
AcDbEntity
  8
52
  6
Continuous
 62
     7
100
AcDbLine
 10
3438.276367
 20
627.346924
 30
0.0
 11
3438.276367
 21
512.346924
 31
0.0
  0
LINE
  5
3D
330
2
100
AcDbEntity
  8
52
  6
Continuous
 62
     7
100
AcDbLine
 10
3278.276367
 20
507.346924
 30
0.0
 11
3300.776367
 21
507.346924
 31
0.0
  0
ARC
  5
3E
330
2
100
AcDbEntity
  8
60
  6
Continuous
 62
     7
100
AcDbCircle
 10
3308.776610999999
 20
504.34668
 30
0.0
 40
8.000244
100
AcDbArc
 50
90.001747
 51
179.9982449999999
  0
LINE
  5
40
330
2
100
AcDbEntity
  8
60
  6
Continuous
 62
     7
100
AcDbLine
 10
3308.776367
 20
512.346924
 30
0.0
 11
3437.776367
 21
512.346924
 31
0.0
  0
ARC
  5
41
330
2
100
AcDbEntity
  8
60
  6
Continuous
 62
     7
100
AcDbCircle
 10
3437.776367
 20
504.3467709999999
 30
0.0
 40
8.000152999999999
100
AcDbArc
 50
0.001093
 51
90.0
  0
POINT
  5
42
330
2
100
AcDbEntity
  8
60
  6
Continuous
 62
     7
100
AcDbPoint
 10
3373.276367
 20
342.346924
 30
0.0
  0
CIRCLE
  5
43
330
2
100
AcDbEntity
  8
60
  6
Continuous
 62
     7
100
AcDbCircle
 10
3373.276367
 20
342.346924
 30
0.0
 40
125.0
  0
CIRCLE
  5
44
330
2
100
AcDbEntity
  8
60
  6
Continuous
 62
     7
100
AcDbCircle
 10
3373.276367
 20
342.346924
 30
0.0
 40
12.700012
  0
LINE
  5
45
330
2
100
AcDbEntity
  8
60
  6
Continuous
 62
     7
100
AcDbLine
 10
3300.776367
 20
444.1739499999999
 30
0.0
 11
3300.776367
 21
504.346924
 31
0.0
  0
LINE
  5
46
330
2
100
AcDbEntity
  8
60
  6
Continuous
 62
     7
100
AcDbLine
 10
3445.776367
 20
444.1739499999999
 30
0.0
 11
3445.776367
 21
504.346924
 31
0.0
  0
ARC
  5
47
330
2
100
AcDbEntity
  8
60
  6
CENTER
 62
     7
100
AcDbCircle
 10
3437.776122999999
 20
325.347168
 30
0.0
 40
8.000244
100
AcDbArc
 50
270.0017399999999
 51
359.99826
  0
LINE
  5
49
330
2
100
AcDbEntity
  8
60
  6
CENTER
 62
     7
100
AcDbLine
 10
3437.776367
 20
317.346924
 30
0.0
 11
3308.776367
 21
317.346924
 31
0.0
  0
ARC
  5
4A
330
2
100
AcDbEntity
  8
60
  6
CENTER
 62
     7
100
AcDbCircle
 10
3308.776367
 20
325.3470759999999
 30
0.0
 40
8.000152999999999
100
AcDbArc
 50
180.0010989999999
 51
270.0
  0
LINE
  5
4B
330
2
100
AcDbEntity
  8
60
  6
CENTER
 62
     7
100
AcDbLine
 10
3300.776367
 20
444.1739499999999
 30
0.0
 11
3300.776367
 21
325.346924
 31
0.0
  0
LINE
  5
4C
330
2
100
AcDbEntity
  8
60
  6
CENTER
 62
     7
100
AcDbLine
 10
3445.776367
 20
444.1739499999999
 30
0.0
 11
3445.776367
 21
325.346924
 31
0.0
  0
POINT
  5
4D
330
2
100
AcDbEntity
  8
52
  6
Continuous
 62
     7
100
AcDbPoint
 10
3380.776367000001
 20
869.8469240000001
 30
0.0
  0
CIRCLE
  5
4E
330
2
100
AcDbEntity
  8
52
  6
Continuous
 62
     7
100
AcDbCircle
 10
3380.776367000001
 20
869.8469240000001
 30
0.0
 40
19.0
  0
LINE
  5
4F
330
2
100
AcDbEntity
  8
52
  6
Continuous
 62
     7
100
AcDbLine
 10
3633.276367
 20
1047.346923999999
 30
0.0
 11
3343.276367
 21
1047.346923999999
 31
0.0
  0
ARC
  5
50
330
2
100
AcDbEntity
  8
52
  6
Continuous
 62
     7
100
AcDbCircle
 10
3343.276367
 20
982.3468019999999
 30
0.0
 40
65.00012199999999
100
AcDbArc
 50
90.0
 51
179.9998929999999
  0
LINE
  5
51
330
2
100
AcDbEntity
  8
52
  6
Continuous
 62
     7
100
AcDbLine
 10
3278.276367
 20
982.3469240000001
 30
0.0
 11
3278.276367
 21
507.346924
 31
0.0
  0
LINE
  5
52
330
2
100
AcDbEntity
  8
60
  6
DASHDOT
 62
     7
100
AcDbLine
 10
3204.758301
 20
-293.9889529999999
 30
0.0
 11
3514.981934000001
 21
-210.8646849999999
 31
0.0
  0
LINE
  5
53
330
2
100
AcDbEntity
  8
60
  6
DASHDOT
 62
     7
100
AcDbLine
 10
3273.276367
 20
342.346924
 30
0.0
 11
3273.276367
 21
-275.6295779999999
 31
0.0
  0
LINE
  5
54
330
2
100
AcDbEntity
  8
60
  6
DASHDOT
 62
     7
100
AcDbLine
 10
3473.276367
 20
342.346924
 30
0.0
 11
3473.276367
 21
-222.039673
 31
0.0
  0
LINE
  5
55
330
2
100
AcDbEntity
  8
62
  6
Continuous
 62
     7
100
AcDbLine
 10
3273.276367
 20
347.346924
 30
0.0
 11
3273.276367
 21
497.346924
 31
0.0
  0
ARC
  5
57
330
2
100
AcDbEntity
  8
62
  6
Continuous
 62
     7
100
AcDbCircle
 10
3083.275879
 20
377.34668
 30
0.0
 40
29.999756
100
AcDbArc
 50
179.999527
 51
270.000916
  0
LINE
  5
58
330
2
100
AcDbEntity
  8
62
  6
Continuous
 62
     7
100
AcDbLine
 10
3083.276367
 20
347.346924
 30
0.0
 11
3273.276367
 21
347.346924
 31
0.0
  0
LINE
  5
59
330
2
100
AcDbEntity
  8
62
  6
Continuous
 62
     7
100
AcDbLine
 10
3053.276367
 20
377.346924
 30
0.0
 11
3053.276367
 21
467.346924
 31
0.0
  0
ARC
  5
5A
330
2
100
AcDbEntity
  8
62
  6
Continuous
 62
     7
100
AcDbCircle
 10
3083.276123
 20
467.347198
 30
0.0
 40
29.999725
100
AcDbArc
 50
89.999535
 51
180.0005189999999
  0
LINE
  5
5B
330
2
100
AcDbEntity
  8
62
  6
Continuous
 62
     7
100
AcDbLine
 10
3083.276367
 20
497.346924
 30
0.0
 11
3273.276367
 21
497.346924
 31
0.0
  0
LINE
  5
5C
330
2
100
AcDbEntity
  8
62
  6
Continuous
 62
     7
100
AcDbLine
 10
3493.276367
 20
172.346924
 30
0.0
 11
3253.276367
 21
172.346924
 31
0.0
  0
LINE
  5
5D
330
2
100
AcDbEntity
  8
62
  6
Continuous
 62
     7
100
AcDbLine
 10
3253.276367
 20
172.346924
 30
0.0
 11
3253.276367
 21
212.346924
 31
0.0
  0
LINE
  5
5E
330
2
100
AcDbEntity
  8
62
  6
Continuous
 62
     7
100
AcDbLine
 10
3253.276367
 20
212.346924
 30
0.0
 11
3493.276367
 21
212.346924
 31
0.0
  0
LINE
  5
5F
330
2
100
AcDbEntity
  8
62
  6
Continuous
 62
     7
100
AcDbLine
 10
3493.276367
 20
212.346924
 30
0.0
 11
3493.276367
 21
172.346924
 31
0.0
  0
LINE
  5
60
330
2
100
AcDbEntity
  8
62
  6
Continuous
 62
     7
100
AcDbLine
 10
3513.276367
 20
522.346924
 30
0.0
 11
3493.276367
 21
487.705811
 31
0.0
  0
LINE
  5
61
330
2
100
AcDbEntity
  8
62
  6
Continuous
 62
     7
100
AcDbLine
 10
3493.276367
 20
487.705811
 30
0.0
 11
3473.276367
 21
522.3470459999999
 31
0.0
  0
LINE
  5
62
330
2
100
AcDbEntity
  8
62
  6
Continuous
 62
     7
100
AcDbLine
 10
3513.276367
 20
522.346924
 30
0.0
 11
3513.276367
 21
322.346924
 31
0.0
  0
LINE
  5
63
330
2
100
AcDbEntity
  8
62
  6
Continuous
 62
     7
100
AcDbLine
 10
3473.276367
 20
322.346924
 30
0.0
 11
3473.276367
 21
522.3470459999999
 31
0.0
  0
LINE
  5
64
330
2
100
AcDbEntity
  8
62
  6
Continuous
 62
     7
100
AcDbLine
 10
3513.276367
 20
322.346924
 30
0.0
 11
3493.276367
 21
356.988037
 31
0.0
  0
LINE
  5
65
330
2
100
AcDbEntity
  8
62
  6
Continuous
 62
     7
100
AcDbLine
 10
3493.276367
 20
356.988037
 30
0.0
 11
3473.276367
 21
322.346802
 31
0.0
  0
LINE
  5
66
330
2
100
AcDbEntity
  8
4
  6
Continuous
 62
     7
100
AcDbLine
 10
-1350.643188
 20
1019.846924
 30
0.0
 11
1799.357055999999
 21
1019.846924
 31
0.0
  0
LINE
  5
68
330
2
100
AcDbEntity
  8
4
  6
Continuous
 62
     7
100
AcDbLine
 10
1799.357055999999
 20
1019.846924
 30
0.0
 11
1799.357055999999
 21
929.8469240000001
 31
0.0
  0
LINE
  5
69
330
2
100
AcDbEntity
  8
4
  6
Continuous
 62
     7
100
AcDbLine
 10
1799.357055999999
 20
929.8469240000001
 30
0.0
 11
-1350.643188
 21
929.8469240000001
 31
0.0
  0
LINE
  5
6A
330
2
100
AcDbEntity
  8
4
  6
Continuous
 62
     7
100
AcDbLine
 10
-1350.643188
 20
719.846924
 30
0.0
 11
1799.357055999999
 21
719.846924
 31
0.0
  0
LINE
  5
6B
330
2
100
AcDbEntity
  8
4
  6
Continuous
 62
     7
100
AcDbLine
 10
1799.357055999999
 20
809.846924
 30
0.0
 11
-1350.643188
 21
809.846924
 31
0.0
  0
LINE
  5
6C
330
2
100
AcDbEntity
  8
50
  6
Continuous
 62
     7
100
AcDbLine
 10
3633.276367
 20
1047.346923999999
 30
0.0
 11
3633.276367
 21
-2405.153076
 31
0.0
  0
LINE
  5
6E
330
2
100
AcDbEntity
  8
50
  6
PHANTOM
 62
     7
100
AcDbLine
 10
2952.931152
 20
-2405.153076
 30
0.0
 11
4184.522460999999
 21
-2405.153076
 31
0.0
  0
LINE
  5
6F
330
2
100
AcDbEntity
  8
50
  6
Continuous
 62
     7
100
AcDbLine
 10
3603.276367
 20
-2405.153076
 30
0.0
 11
3603.276367
 21
685.009766
 31
0.0
  0
LINE
  5
70
330
2
100
AcDbEntity
  8
50
  6
Continuous
 62
     7
100
AcDbLine
 10
3633.276367
 20
594.846924
 30
0.0
 11
3983.276367
 21
594.846924
 31
0.0
  0
LINE
  5
71
330
2
100
AcDbEntity
  8
50
  6
Continuous
 62
     7
100
AcDbLine
 10
3983.276367
 20
594.846924
 30
0.0
 11
3983.276367
 21
1258.272949
 31
0.0
  0
LINE
  5
72
330
2
100
AcDbEntity
  8
52
  6
Continuous
 62
     7
100
AcDbLine
 10
3633.276367
 20
692.3469240000001
 30
0.0
 11
3633.276367
 21
1258.273071
 31
0.0
  0
LINE
  5
73
330
2
100
AcDbEntity
  8
2
  6
Continuous
 62
     7
100
AcDbLine
 10
1864.357055999999
 20
1047.346923999999
 30
0.0
 11
1864.357055999999
 21
337.3469239999999
 31
0.0
  0
LINE
  5
74
330
2
100
AcDbEntity
  8
2
  6
Continuous
 62
     7
100
AcDbLine
 10
1872.357056
 20
1047.346923999999
 30
0.0
 11
1872.357056
 21
337.3469239999999
 31
0.0
  0
LINE
  5
75
330
2
100
AcDbEntity
  8
4
  6
Continuous
 62
     7
100
AcDbLine
 10
1864.357055999999
 20
337.3469239999999
 30
0.0
 11
1872.357056
 21
337.3469239999999
 31
0.0
  0
LINE
  5
76
330
2
100
AcDbEntity
  8
4
  6
Continuous
 62
     7
100
AcDbLine
 10
1872.357056
 20
512.346924
 30
0.0
 11
1957.357056
 21
512.346924
 31
0.0
  0
LINE
  5
77
330
2
100
AcDbEntity
  8
4
  6
Continuous
 62
     7
100
AcDbLine
 10
1957.357056
 20
512.346924
 30
0.0
 11
1957.357056
 21
317.346924
 31
0.0
  0
LINE
  5
78
330
2
100
AcDbEntity
  8
4
  6
Continuous
 62
     7
100
AcDbLine
 10
1957.357056
 20
317.346924
 30
0.0
 11
1872.357056
 21
317.346924
 31
0.0
  0
LINE
  5
79
330
2
100
AcDbEntity
  8
4
  6
Continuous
 62
     7
100
AcDbLine
 10
1872.357056
 20
317.346924
 30
0.0
 11
1872.357056
 21
512.346924
 31
0.0
  0
CIRCLE
  5
7A
330
2
100
AcDbEntity
  8
4
  6
Continuous
 62
     7
100
AcDbCircle
 10
1917.357055999999
 20
414.8469239999999
 30
0.0
 40
75.0
  0
LINE
  5
7B
330
2
100
AcDbEntity
  8
4
  6
Continuous
 62
     7
100
AcDbLine
 10
1967.357055999999
 20
217.346924
 30
0.0
 11
1967.357055999999
 21
467.346924
 31
0.0
  0
LINE
  5
7C
330
2
100
AcDbEntity
  8
4
  6
Continuous
 62
     7
100
AcDbLine
 10
2007.357056
 20
467.346924
 30
0.0
 11
2007.357056
 21
217.346924
 31
0.0
  0
LINE
  5
7D
330
2
100
AcDbEntity
  8
4
  6
Continuous
 62
     7
100
AcDbLine
 10
2007.357056
 20
217.346924
 30
0.0
 11
1987.357055999999
 21
251.9882809999999
 31
0.0
  0
LINE
  5
7E
330
2
100
AcDbEntity
  8
4
  6
Continuous
 62
     7
100
AcDbLine
 10
1987.357055999999
 20
251.9882809999999
 30
0.0
 11
1967.357055999999
 21
217.346924
 31
0.0
  0
LINE
  5
7F
330
2
100
AcDbEntity
  8
4
  6
Continuous
 62
     7
100
AcDbLine
 10
2007.357056
 20
467.346924
 30
0.0
 11
1987.357055999999
 21
432.705566
 31
0.0
  0
LINE
  5
80
330
2
100
AcDbEntity
  8
4
  6
Continuous
 62
     7
100
AcDbLine
 10
1987.357055999999
 20
432.705566
 30
0.0
 11
1967.357055999999
 21
467.346924
 31
0.0
  0
LINE
  5
81
330
2
100
AcDbEntity
  8
4
  6
Continuous
 62
     7
100
AcDbLine
 10
1957.357056
 20
172.346924
 30
0.0
 11
1997.357056
 21
172.346924
 31
0.0
  0
LINE
  5
82
330
2
100
AcDbEntity
  8
4
  6
Continuous
 62
     7
100
AcDbLine
 10
1997.357056
 20
172.346924
 30
0.0
 11
1997.357056
 21
212.346924
 31
0.0
  0
LINE
  5
83
330
2
100
AcDbEntity
  8
4
  6
Continuous
 62
     7
100
AcDbLine
 10
1997.357056
 20
212.346924
 30
0.0
 11
1957.357056
 21
212.346924
 31
0.0
  0
LINE
  5
84
330
2
100
AcDbEntity
  8
4
  6
Continuous
 62
     7
100
AcDbLine
 10
1957.357056
 20
212.346924
 30
0.0
 11
1957.357056
 21
172.346924
 31
0.0
  0
LINE
  5
85
330
2
100
AcDbEntity
  8
4
  6
DASHDOT
 62
     7
100
AcDbLine
 10
1987.357055999999
 20
251.9882809999999
 30
0.0
 11
1987.357055999999
 21
-275.6295779999999
 31
0.0
  0
DIMENSION
  5
86
330
2
100
AcDbEntity
  8
1
 62
     7
100
AcDbDimension
  2
*D4
 10
2017.357055999999
 20
-541.8264159999999
 30
0.0
 11
2307.583481648022
 21
-541.8264159999999
 31
0.0
 70
   160
  1
{\fArial|b1|i0|c0|p34;A}
 71
     5
 42
293.0
  3
STANDARD
100
AcDbAlignedDimension
 13
1724.357055999999
 23
594.846924
 33
0.0
 14
2017.357055999999
 24
-275.6295779999999
 34
0.0
100
AcDbRotatedDimension
1001
ACAD
1000
DSTYLE
1002
{
1070
     3
1000
mm
1070
    41
1040
125.0
1070
    42
1040
50.0
1070
    44
1040
50.0
1070
   140
1040
80.0
1070
   176
1070
     7
1070
   177
1070
     7
1070
   178
1070
     7
1070
   289
1070
     1
1002
}
  0
DIMENSION
  5
99
330
2
100
AcDbEntity
  8
1
 62
     7
100
AcDbDimension
  2
*D3
 10
-1275.643188
 20
-541.826294
 30
0.0
 11
-981.0376070933344
 21
-541.826294
 31
0.0
 70
   160
  1
{\fArial|b1|i0|c0|p34;B}
 71
     5
 42
215.0
  3
STANDARD
100
AcDbAlignedDimension
 13
-1490.643187999999
 23
692.3469240000001
 33
0.0
 14
-1275.643188
 24
594.846924
 34
0.0
100
AcDbRotatedDimension
1001
ACAD
1000
DSTYLE
1002
{
1070
     3
1000
mm
1070
    41
1040
125.0
1070
    42
1040
50.0
1070
    44
1040
50.0
1070
   140
1040
80.0
1070
   176
1070
     7
1070
   177
1070
     7
1070
   178
1070
     7
1070
   289
1070
     1
1002
}
  0
DIMENSION
  5
A7
330
2
100
AcDbEntity
  8
1
 62
     7
100
AcDbDimension
  2
*D2
 10
4616.750488
 20
594.8469239999999
 30
0.0
 11
4616.750488
 21
-905.1530759999993
 31
0.0
 70
    32
  1
{\fArial|b1|i0|c0|p34;H OPENING HEIGHT}
 71
     5
 42
3000.0
  3
STANDARD
100
AcDbAlignedDimension
 13
4184.522460999999
 23
-2405.153076
 33
0.0
 14
3983.276367
 24
594.846924
 34
0.0
 50
90.0
100
AcDbRotatedDimension
1001
ACAD
1000
DSTYLE
1002
{
1070
     3
1000
mm
1070
    41
1040
125.0
1070
    42
1040
50.0
1070
    44
1040
50.0
1070
   140
1040
80.0
1070
   176
1070
     7
1070
   177
1070
     7
1070
   178
1070
     7
1070
   289
1070
     1
1002
}
  0
DIMENSION
  5
B5
330
2
100
AcDbEntity
  8
1
 62
     7
100
AcDbDimension
  2
*D1
 10
4617.124511999999
 20
1122.346923999999
 30
0.0
 11
4617.124511999999
 21
858.5969240000006
 31
0.0
 70
    32
  1
{\fArial|b1|i0|c0|p34;C}
 71
     5
 42
527.4999999999998
  3
STANDARD
100
AcDbAlignedDimension
 13
3983.276367
 23
594.846924
 33
0.0
 14
3983.276367
 24
1122.346924
 34
0.0
 50
90.0
100
AcDbRotatedDimension
1001
ACAD
1000
DSTYLE
1002
{
1070
     3
1000
mm
1070
    41
1040
125.0
1070
    42
1040
50.0
1070
    44
1040
50.0
1070
   140
1040
80.0
1070
   176
1070
     7
1070
   177
1070
     7
1070
   178
1070
     7
1070
   289
1070
     1
1002
}
  0
DIMENSION
  5
C3
330
2
100
AcDbEntity
  8
1
 62
     7
100
AcDbDimension
  2
*D0
 10
1724.357055999999
 20
-1279.213745
 30
0.0
 11
224.3569339999999
 21
-1279.213745
 31
0.0
 70
    32
  1
{\fArial|b1|i0|c0|p34;W OPENING WIDTH}
 71
     5
 42
3000.000244
  3
STANDARD
100
AcDbAlignedDimension
 13
-1275.643188
 23
-2405.153076
 33
0.0
 14
1724.357055999999
 24
-2405.153076
 34
0.0
100
AcDbRotatedDimension
1001
ACAD
1000
DSTYLE
1002
{
1070
     3
1000
mm
1070
    41
1040
125.0
1070
    42
1040
50.0
1070
    44
1040
50.0
1070
   140
1040
80.0
1070
   176
1070
     7
1070
   177
1070
     7
1070
   178
1070
     7
1070
   289
1070
     1
1070
   340
1005
C4
1002
}
  0
ARC
  5
D2
330
2
100
AcDbEntity
  8
66
  6
DASHDOT
 62
     7
100
AcDbCircle
 10
3308.777588
 20
1152.278319999999
 30
0.0
 40
8.001221000000001
100
AcDbArc
 50
180.0087429999999
 51
269.991272
  0
LINE
  5
D4
330
2
100
AcDbEntity
  8
66
  6
DASHDOT
 62
     7
100
AcDbLine
 10
3308.776367
 20
1144.2771
 30
0.0
 11
3437.776367
 21
1144.2771
 31
0.0
  0
ARC
  5
D5
330
2
100
AcDbEntity
  8
66
  6
DASHDOT
 62
     7
100
AcDbCircle
 10
3437.775145999999
 20
1152.278442
 30
0.0
 40
8.001342999999998
100
AcDbArc
 50
270.0087279999999
 51
359.990387
  0
LINE
  5
D6
330
2
100
AcDbEntity
  8
66
  6
DASHDOT
 62
     7
100
AcDbLine
 10
3273.276367
 20
1309.278076
 30
0.0
 11
3273.276367
 21
1159.278076
 31
0.0
  0
ARC
  5
D7
330
2
100
AcDbEntity
  8
66
  6
DASHDOT
 62
     7
100
AcDbCircle
 10
3083.276611
 20
1279.277954
 30
0.0
 40
30.000122
100
AcDbArc
 50
90.00046500000001
 51
179.999771
  0
LINE
  5
D8
330
2
100
AcDbEntity
  8
66
  6
DASHDOT
 62
     7
100
AcDbLine
 10
3083.276367
 20
1309.278076
 30
0.0
 11
3273.276367
 21
1309.278076
 31
0.0
  0
LINE
  5
D9
330
2
100
AcDbEntity
  8
66
  6
DASHDOT
 62
     7
100
AcDbLine
 10
3053.276367
 20
1279.278076
 30
0.0
 11
3053.276367
 21
1189.278076
 31
0.0
  0
ARC
  5
DA
330
2
100
AcDbEntity
  8
66
  6
DASHDOT
 62
     7
100
AcDbCircle
 10
3083.274902
 20
1189.276611
 30
0.0
 40
29.998535
100
AcDbArc
 50
179.997208
 51
270.002808
  0
LINE
  5
DB
330
2
100
AcDbEntity
  8
66
  6
DASHDOT
 62
     7
100
AcDbLine
 10
3083.276367
 20
1159.278076
 30
0.0
 11
3273.276367
 21
1159.278076
 31
0.0
  0
LINE
  5
DC
330
2
100
AcDbEntity
  8
66
  6
DASHDOT
 62
     7
100
AcDbLine
 10
3513.276367
 20
1134.2771
 30
0.0
 11
3493.276367
 21
1168.918701
 31
0.0
  0
LINE
  5
DD
330
2
100
AcDbEntity
  8
66
  6
DASHDOT
 62
     7
100
AcDbLine
 10
3493.276367
 20
1168.918701
 30
0.0
 11
3473.276367
 21
1134.2771
 31
0.0
  0
LINE
  5
DE
330
2
100
AcDbEntity
  8
66
  6
DASHDOT
 62
     7
100
AcDbLine
 10
3513.276367
 20
1134.2771
 30
0.0
 11
3513.276367
 21
1334.278076
 31
0.0
  0
LINE
  5
DF
330
2
100
AcDbEntity
  8
66
  6
DASHDOT
 62
     7
100
AcDbLine
 10
3473.276367
 20
1334.278076
 30
0.0
 11
3473.276367
 21
1134.2771
 31
0.0
  0
LINE
  5
E0
330
2
100
AcDbEntity
  8
66
  6
DASHDOT
 62
     7
100
AcDbLine
 10
3513.276367
 20
1334.278076
 30
0.0
 11
3493.276367
 21
1299.636475
 31
0.0
  0
LINE
  5
E1
330
2
100
AcDbEntity
  8
66
  6
DASHDOT
 62
     7
100
AcDbLine
 10
3493.276367
 20
1299.636475
 30
0.0
 11
3473.276367
 21
1334.278076
 31
0.0
  0
ARC
  5
E2
330
2
100
AcDbEntity
  8
66
  6
DASHDOT
 62
     7
100
AcDbCircle
 10
3437.775145999999
 20
1331.276733
 30
0.0
 40
8.001221000000001
100
AcDbArc
 50
0.009615
 51
89.99125699999998
  0
LINE
  5
E3
330
2
100
AcDbEntity
  8
66
  6
DASHDOT
 62
     7
100
AcDbLine
 10
3437.776367
 20
1339.278076
 30
0.0
 11
3308.776367
 21
1339.278076
 31
0.0
  0
ARC
  5
E4
330
2
100
AcDbEntity
  8
66
  6
DASHDOT
 62
     7
100
AcDbCircle
 10
3308.777588
 20
1331.276733
 30
0.0
 40
8.001342999999998
100
AcDbArc
 50
90.00874300000001
 51
179.990387
  0
LINE
  5
E5
330
2
100
AcDbEntity
  8
66
  6
DASHDOT
 62
     7
100
AcDbLine
 10
3300.776367
 20
1331.278076
 30
0.0
 11
3300.776367
 21
1152.2771
 31
0.0
  0
LINE
  5
E6
330
2
100
AcDbEntity
  8
66
  6
DASHDOT
 62
     7
100
AcDbLine
 10
3445.776367
 20
1331.278076
 30
0.0
 11
3445.776367
 21
1152.2771
 31
0.0
  0
ARC
  5
E7
330
2
100
AcDbEntity
  8
66
  6
DASHDOT
 62
     7
100
AcDbCircle
 10
2937.332764
 20
787.847168
 30
0.0
 40
8.001221000000001
100
AcDbArc
 50
180.0087429999999
 51
269.991272
  0
LINE
  5
E8
330
2
100
AcDbEntity
  8
66
  6
DASHDOT
 62
     7
100
AcDbLine
 10
2937.331542999999
 20
779.845947
 30
0.0
 11
3066.331542999999
 21
779.845947
 31
0.0
  0
ARC
  5
E9
330
2
100
AcDbEntity
  8
66
  6
DASHDOT
 62
     7
100
AcDbCircle
 10
3066.330322
 20
787.8470459999999
 30
0.0
 40
8.001098999999999
100
AcDbArc
 50
270.0087279999999
 51
359.9921259999999
  0
LINE
  5
EA
330
2
100
AcDbEntity
  8
66
  6
DASHDOT
 62
     7
100
AcDbLine
 10
2901.831543
 20
944.8469240000001
 30
0.0
 11
2901.831543
 21
794.846924
 31
0.0
  0
ARC
  5
EB
330
2
100
AcDbEntity
  8
66
  6
DASHDOT
 62
     7
100
AcDbCircle
 10
2711.831787
 20
914.8466800000001
 30
0.0
 40
30.000244
100
AcDbArc
 50
90.00046500000001
 51
179.999527
  0
LINE
  5
EC
330
2
100
AcDbEntity
  8
66
  6
DASHDOT
 62
     7
100
AcDbLine
 10
2711.831543
 20
944.8469240000001
 30
0.0
 11
2901.831543
 21
944.8469240000001
 31
0.0
  0
LINE
  5
ED
330
2
100
AcDbEntity
  8
66
  6
DASHDOT
 62
     7
100
AcDbLine
 10
2681.831542999999
 20
914.846924
 30
0.0
 11
2681.831542999999
 21
824.846924
 31
0.0
  0
ARC
  5
EE
330
2
100
AcDbEntity
  8
66
  6
DASHDOT
 62
     7
100
AcDbCircle
 10
2711.830078
 20
824.84552
 30
0.0
 40
29.998596
100
AcDbArc
 50
179.9973139999999
 51
270.002808
  0
LINE
  5
EF
330
2
100
AcDbEntity
  8
66
  6
DASHDOT
 62
     7
100
AcDbLine
 10
2711.831543
 20
794.846924
 30
0.0
 11
2901.831543
 21
794.846924
 31
0.0
  0
LINE
  5
F0
330
2
100
AcDbEntity
  8
66
  6
DASHDOT
 62
     7
100
AcDbLine
 10
3141.831543
 20
769.845947
 30
0.0
 11
3121.831542999999
 21
804.487549
 31
0.0
  0
LINE
  5
F1
330
2
100
AcDbEntity
  8
66
  6
DASHDOT
 62
     7
100
AcDbLine
 10
3121.831542999999
 20
804.487549
 30
0.0
 11
3101.831542999999
 21
769.845947
 31
0.0
  0
LINE
  5
F2
330
2
100
AcDbEntity
  8
66
  6
DASHDOT
 62
     7
100
AcDbLine
 10
3141.831543
 20
769.845947
 30
0.0
 11
3141.831543
 21
969.8469240000001
 31
0.0
  0
LINE
  5
F3
330
2
100
AcDbEntity
  8
66
  6
DASHDOT
 62
     7
100
AcDbLine
 10
3101.831542999999
 20
969.8469240000001
 30
0.0
 11
3101.831542999999
 21
769.845947
 31
0.0
  0
LINE
  5
F4
330
2
100
AcDbEntity
  8
66
  6
DASHDOT
 62
     7
100
AcDbLine
 10
3141.831543
 20
969.8469240000001
 30
0.0
 11
3121.831542999999
 21
935.205322
 31
0.0
  0
LINE
  5
F5
330
2
100
AcDbEntity
  8
66
  6
DASHDOT
 62
     7
100
AcDbLine
 10
3121.831542999999
 20
935.205322
 30
0.0
 11
3101.831542999999
 21
969.8469240000001
 31
0.0
  0
ARC
  5
F6
330
2
100
AcDbEntity
  8
66
  6
DASHDOT
 62
     7
100
AcDbCircle
 10
3066.330322
 20
966.8457029999999
 30
0.0
 40
8.001221000000001
100
AcDbArc
 50
0.008741
 51
89.99125699999998
  0
LINE
  5
F7
330
2
100
AcDbEntity
  8
66
  6
DASHDOT
 62
     7
100
AcDbLine
 10
3066.331542999999
 20
974.846924
 30
0.0
 11
2937.331542999999
 21
974.846924
 31
0.0
  0
ARC
  5
F8
330
2
100
AcDbEntity
  8
66
  6
DASHDOT
 62
     7
100
AcDbCircle
 10
2937.333007999999
 20
966.845642
 30
0.0
 40
8.001282000000001
100
AcDbArc
 50
90.01049
 51
179.9908289999999
  0
LINE
  5
F9
330
2
100
AcDbEntity
  8
66
  6
DASHDOT
 62
     7
100
AcDbLine
 10
2929.331542999999
 20
966.846924
 30
0.0
 11
2929.331542999999
 21
787.845947
 31
0.0
  0
LINE
  5
FA
330
2
100
AcDbEntity
  8
66
  6
DASHDOT
 62
     7
100
AcDbLine
 10
3074.331542999999
 20
966.846924
 30
0.0
 11
3074.331542999999
 21
787.845947
 31
0.0
  0
ARC
  5
FB
330
2
100
AcDbEntity
  8
4
  6
Continuous
 62
     7
100
AcDbCircle
 10
3383.484863
 20
868.440857
 30
0.0
 40
200.023102
100
AcDbArc
 50
63.43500500000001
 51
238.265717
  0
ARC
  5
FC
330
2
100
AcDbEntity
  8
4
  6
DASHDOT
 62
     7
100
AcDbCircle
 10
3383.484375
 20
868.440674
 30
0.0
 40
200.0231169999999
100
AcDbArc
 50
238.265808
 51
63.434822
  0
LINE
  5
FD
330
2
100
AcDbEntity
  8
8
  6
Continuous
 62
     7
100
AcDbLine
 10
-1575.643188
 20
-2405.153076
 30
0.0
 11
-1575.643188
 21
-2641.164062
 31
0.0
  0
LINE
  5
FF
330
2
100
AcDbEntity
  8
8
  6
Continuous
 62
     7
100
AcDbLine
 10
-1575.643188
 20
-2641.164062
 30
0.0
 11
2024.356812
 21
-2641.164062
 31
0.0
  0
LINE
  5
100
330
2
100
AcDbEntity
  8
8
  6
Continuous
 62
     7
100
AcDbLine
 10
2024.356812
 20
-2641.164062
 30
0.0
 11
2024.356812
 21
-2405.153076
 31
0.0
  0
LINE
  5
101
330
2
100
AcDbEntity
  8
8
  6
Continuous
 62
     7
100
AcDbLine
 10
2024.356812
 20
-2405.153076
 30
0.0
 11
-1575.643188
 21
-2405.153076
 31
0.0
  0
LINE
  5
102
330
2
100
AcDbEntity
  8
8
  6
Continuous
 62
     7
100
AcDbLine
 10
2006.723511
 20
-2641.163879
 30
0.0
 11
2024.357055999999
 21
-2623.529219999999
 31
0.0
  0
LINE
  5
103
330
2
100
AcDbEntity
  8
8
  6
Continuous
 62
     7
100
AcDbLine
 10
1865.302125
 20
-2641.164093
 30
0.0
 11
2024.356812
 21
-2482.107947999999
 31
0.0
  0
LINE
  5
104
330
2
100
AcDbEntity
  8
8
  6
Continuous
 62
     7
100
AcDbLine
 10
1723.880738
 20
-2641.163925
 30
0.0
 11
1959.890502999999
 21
-2405.154144
 31
0.0
  0
LINE
  5
105
330
2
100
AcDbEntity
  8
8
  6
Continuous
 62
     7
100
AcDbLine
 10
1582.459350999999
 20
-2641.162964
 30
0.0
 11
1818.469116999999
 21
-2405.154101
 31
0.0
  0
LINE
  5
106
330
2
100
AcDbEntity
  8
8
  6
Continuous
 62
     7
100
AcDbLine
 10
1441.037964
 20
-2641.163788
 30
0.0
 11
1677.047729999999
 21
-2405.154058
 31
0.0
  0
LINE
  5
107
330
2
100
AcDbEntity
  8
8
  6
Continuous
 62
     7
100
AcDbLine
 10
1299.616578
 20
-2641.163238
 30
0.0
 11
1535.626587
 21
-2405.154016
 31
0.0
  0
LINE
  5
108
330
2
100
AcDbEntity
  8
8
  6
Continuous
 62
     7
100
AcDbLine
 10
1158.194946999999
 20
-2641.163071
 30
0.0
 11
1394.205201
 21
-2405.153973
 31
0.0
  0
LINE
  5
109
330
2
100
AcDbEntity
  8
8
  6
Continuous
 62
     7
100
AcDbLine
 10
1016.773804
 20
-2641.163955999999
 30
0.0
 11
1252.783814
 21
-2405.15393
 31
0.0
  0
LINE
  5
10A
330
2
100
AcDbEntity
  8
8
  6
Continuous
 62
     7
100
AcDbLine
 10
875.352417
 20
-2641.163589
 30
0.0
 11
1111.362427
 21
-2405.153887
 31
0.0
  0
LINE
  5
10B
330
2
100
AcDbEntity
  8
8
  6
Continuous
 62
     7
100
AcDbLine
 10
733.9310310000001
 20
-2641.164032
 30
0.0
 11
969.941041
 21
-2405.153845
 31
0.0
  0
LINE
  5
10C
330
2
100
AcDbEntity
  8
8
  6
Continuous
 62
     7
100
AcDbLine
 10
592.5096440000002
 20
-2641.163666
 30
0.0
 11
828.5196540000001
 21
-2405.153802
 31
0.0
  0
LINE
  5
10D
330
2
100
AcDbEntity
  8
8
  6
Continuous
 62
     7
100
AcDbLine
 10
451.088135
 20
-2641.163284
 30
0.0
 11
687.0985109999996
 21
-2405.153759
 31
0.0
  0
LINE
  5
10E
330
2
100
AcDbEntity
  8
8
  6
Continuous
 62
     7
100
AcDbLine
 10
309.6666259999999
 20
-2641.164047
 30
0.0
 11
545.6771249999997
 21
-2405.153717
 31
0.0
  0
LINE
  5
10F
330
2
100
AcDbEntity
  8
8
  6
Continuous
 62
     7
100
AcDbLine
 10
168.2453619999998
 20
-2641.163528
 30
0.0
 11
404.255738
 21
-2405.153674
 31
0.0
  0
LINE
  5
110
330
2
100
AcDbEntity
  8
8
  6
Continuous
 62
     7
100
AcDbLine
 10
26.82397500000002
 20
-2641.163452
 30
0.0
 11
262.8343509999999
 21
-2405.153631
 31
0.0
  0
LINE
  5
111
330
2
100
AcDbEntity
  8
8
  6
Continuous
 62
     7
100
AcDbLine
 10
-114.5975339999999
 20
-2641.164093
 30
0.0
 11
121.4129639999998
 21
-2405.153588
 31
0.0
  0
LINE
  5
112
330
2
100
AcDbEntity
  8
8
  6
Continuous
 62
     7
100
AcDbLine
 10
-256.0189199999999
 20
-2641.164093
 30
0.0
 11
-20.00829999999996
 21
-2405.153546
 31
0.0
  0
LINE
  5
113
330
2
100
AcDbEntity
  8
8
  6
Continuous
 62
     7
100
AcDbLine
 10
-397.4401850000001
 20
-2641.163634999999
 30
0.0
 11
-161.429687
 21
-2405.153503
 31
0.0
  0
LINE
  5
114
330
2
100
AcDbEntity
  8
8
  6
Continuous
 62
     7
100
AcDbLine
 10
-538.861572
 20
-2641.163894
 30
0.0
 11
-302.8510739999999
 21
-2405.15346
 31
0.0
  0
LINE
  5
115
330
2
100
AcDbEntity
  8
8
  6
Continuous
 62
     7
100
AcDbLine
 10
-680.2830809999999
 20
-2641.163925
 30
0.0
 11
-444.272338
 21
-2405.153418
 31
0.0
  0
LINE
  5
116
330
2
100
AcDbEntity
  8
8
  6
Continuous
 62
     7
100
AcDbLine
 10
-821.7044669999999
 20
-2641.163879
 30
0.0
 11
-585.6937249999999
 21
-2405.153375
 31
0.0
  0
LINE
  5
117
330
2
100
AcDbEntity
  8
8
  6
Continuous
 62
     7
100
AcDbLine
 10
-963.1259149999999
 20
-2641.163986
 30
0.0
 11
-727.115112
 21
-2405.153332
 31
0.0
  0
LINE
  5
118
330
2
100
AcDbEntity
  8
8
  6
Continuous
 62
     7
100
AcDbLine
 10
-1104.547270999999
 20
-2641.164001
 30
0.0
 11
-868.5364379999999
 21
-2405.15329
 31
0.0
  0
LINE
  5
119
330
2
100
AcDbEntity
  8
8
  6
Continuous
 62
     7
100
AcDbLine
 10
-1245.968688
 20
-2641.164017
 30
0.0
 11
-1009.957763
 21
-2405.153247
 31
0.0
  0
LINE
  5
11A
330
2
100
AcDbEntity
  8
8
  6
Continuous
 62
     7
100
AcDbLine
 10
-1387.390106
 20
-2641.164047
 30
0.0
 11
-1151.37915
 21
-2405.153204
 31
0.0
  0
LINE
  5
11B
330
2
100
AcDbEntity
  8
8
  6
Continuous
 62
     7
100
AcDbLine
 10
-1528.811485
 20
-2641.164062
 30
0.0
 11
-1292.800476
 21
-2405.153161
 31
0.0
  0
LINE
  5
11C
330
2
100
AcDbEntity
  8
8
  6
Continuous
 62
     7
100
AcDbLine
 10
-1575.643186
 20
-2546.574447
 30
0.0
 11
-1434.221832
 21
-2405.153119
 31
0.0
  0
LINE
  5
11D
330
2
100
AcDbEntity
  8
4
  6
Continuous
 62
     7
100
AcDbLine
 10
2952.931152
 20
-2405.153076
 30
0.0
 11
4184.522461
 21
-2405.153076
 31
0.0
  0
LINE
  5
11E
330
2
100
AcDbEntity
  8
4
  6
Continuous
 62
     7
100
AcDbLine
 10
4184.522461
 20
-2405.153076
 30
0.0
 11
4184.522461
 21
-2653.551758
 31
0.0
  0
LINE
  5
11F
330
2
100
AcDbEntity
  8
4
  6
Continuous
 62
     7
100
AcDbLine
 10
4184.522461
 20
-2653.551758
 30
0.0
 11
2952.931152
 21
-2653.551758
 31
0.0
  0
LINE
  5
120
330
2
100
AcDbEntity
  8
4
  6
Continuous
 62
     7
100
AcDbLine
 10
2952.931152
 20
-2653.551758
 30
0.0
 11
2952.931152
 21
-2405.153076
 31
0.0
  0
LINE
  5
121
330
2
100
AcDbEntity
  8
4
  6
Continuous
 62
     7
100
AcDbLine
 10
4118.746338
 20
-2653.55159
 30
0.0
 11
4184.522338999999
 21
-2587.775467
 31
0.0
  0
LINE
  5
122
330
2
100
AcDbEntity
  8
4
  6
Continuous
 62
     7
100
AcDbLine
 10
3977.324829
 20
-2653.551726999999
 30
0.0
 11
4184.522461
 21
-2446.353947
 31
0.0
  0
LINE
  5
123
330
2
100
AcDbEntity
  8
4
  6
Continuous
 62
     7
100
AcDbLine
 10
3835.903442
 20
-2653.551651
 30
0.0
 11
4084.302002
 21
-2405.153418
 31
0.0
  0
LINE
  5
124
330
2
100
AcDbEntity
  8
4
  6
Continuous
 62
     7
100
AcDbLine
 10
3694.482055
 20
-2653.551651
 30
0.0
 11
3942.880614999999
 21
-2405.153375
 31
0.0
  0
LINE
  5
125
330
2
100
AcDbEntity
  8
4
  6
Continuous
 62
     7
100
AcDbLine
 10
3553.060608
 20
-2653.551803
 30
0.0
 11
3801.459228
 21
-2405.153332
 31
0.0
  0
LINE
  5
126
330
2
100
AcDbEntity
  8
4
  6
Continuous
 62
     7
100
AcDbLine
 10
3411.639312
 20
-2653.551726999999
 30
0.0
 11
3660.037902
 21
-2405.15329
 31
0.0
  0
LINE
  5
127
330
2
100
AcDbEntity
  8
4
  6
Continuous
 62
     7
100
AcDbLine
 10
3270.217895
 20
-2653.551773
 30
0.0
 11
3518.616577
 21
-2405.153247
 31
0.0
  0
LINE
  5
128
330
2
100
AcDbEntity
  8
4
  6
Continuous
 62
     7
100
AcDbLine
 10
3128.796569
 20
-2653.551742
 30
0.0
 11
3377.19519
 21
-2405.153204
 31
0.0
  0
LINE
  5
129
330
2
100
AcDbEntity
  8
4
  6
Continuous
 62
     7
100
AcDbLine
 10
2987.375129
 20
-2653.551803
 30
0.0
 11
3235.773864
 21
-2405.153161
 31
0.0
  0
LINE
  5
12A
330
2
100
AcDbEntity
  8
4
  6
Continuous
 62
     7
100
AcDbLine
 10
2952.931154
 20
-2546.574447
 30
0.0
 11
3094.352508
 21
-2405.153119
 31
0.0
  0
LINE
  5
12B
330
2
100
AcDbEntity
  8
50
  6
Continuous
 62
     7
100
AcDbLine
 10
3633.276367
 20
1258.273071
 30
0.0
 11
3633.276367
 21
1258.27301
 31
0.0
  0
LINE
  5
12C
330
2
100
AcDbEntity
  8
50
  6
Continuous
 62
     7
100
AcDbLine
 10
3633.276367
 20
1258.27301
 30
0.0
 11
3983.276367
 21
1258.27301
 31
0.0
  0
LINE
  5
12D
330
2
100
AcDbEntity
  8
50
  6
Continuous
 62
     7
100
AcDbLine
 10
3983.276367
 20
1258.27301
 30
0.0
 11
3983.276367
 21
594.846924
 31
0.0
  0
LINE
  5
12E
330
2
100
AcDbEntity
  8
50
  6
Continuous
 62
     7
100
AcDbLine
 10
3983.276367
 20
594.846924
 30
0.0
 11
3633.276367
 21
594.846924
 31
0.0
  0
LINE
  5
12F
330
2
100
AcDbEntity
  8
50
  6
Continuous
 62
     7
100
AcDbLine
 10
3633.276367
 20
594.846924
 30
0.0
 11
3633.276367
 21
1258.273071
 31
0.0
  0
LINE
  5
130
330
2
100
AcDbEntity
  8
50
  6
Continuous
 62
     7
100
AcDbLine
 10
3959.799621
 20
594.846863
 30
0.0
 11
3983.276336
 21
618.323547
 31
0.0
  0
LINE
  5
131
330
2
100
AcDbEntity
  8
50
  6
Continuous
 62
     7
100
AcDbLine
 10
3818.378235
 20
594.846863
 30
0.0
 11
3983.276336
 21
759.7449029999999
 31
0.0
  0
LINE
  5
132
330
2
100
AcDbEntity
  8
50
  6
Continuous
 62
     7
100
AcDbLine
 10
3676.957149
 20
594.846985
 30
0.0
 11
3983.276245
 21
901.1661980000001
 31
0.0
  0
LINE
  5
133
330
2
100
AcDbEntity
  8
50
  6
Continuous
 62
     7
100
AcDbLine
 10
3633.276374
 20
692.5875849999999
 30
0.0
 11
3983.276306
 21
1042.58757
 31
0.0
  0
LINE
  5
134
330
2
100
AcDbEntity
  8
50
  6
Continuous
 62
     7
100
AcDbLine
 10
3633.276372
 20
834.008941
 30
0.0
 11
3983.276306
 21
1184.008903
 31
0.0
  0
LINE
  5
135
330
2
100
AcDbEntity
  8
50
  6
Continuous
 62
     7
100
AcDbLine
 10
3633.27637
 20
975.430328
 30
0.0
 11
3916.119049
 21
1258.272986
 31
0.0
  0
LINE
  5
136
330
2
100
AcDbEntity
  8
50
  6
Continuous
 62
     7
100
AcDbLine
 10
3633.276369
 20
1116.8517
 30
0.0
 11
3774.697662
 21
1258.273028
 31
0.0
  0
DIMENSION
  5
137
330
2
100
AcDbEntity
  8
4
  6
Continuous
100
AcDbDimension
  2
*D5
 10
-1653.74860952629
 20
594.8469240000001
 30
0.0
 11
-1653.74860952629
 21
752.2807004792903
 31
0.0
 70
   160
  1
{\fArial|b1|i0|c0|p34;E}
 71
     5
 42
274.9999999999999
  3
STANDARD
100
AcDbAlignedDimension
 13
-1550.643188
 23
869.8469240000001
 33
0.0
 14
-1275.643188
 24
594.846924
 34
0.0
 50
90.0
100
AcDbRotatedDimension
1001
ACAD
1000
DSTYLE
1002
{
1070
     3
1000
mm
1070
    41
1040
125.0
1070
    42
1040
50.0
1070
    44
1040
50.0
1070
   140
1040
80.0
1070
   176
1070
     7
1070
   177
1070
     7
1070
   178
1070
     7
1070
   289
1070
     1
1002
}
  0
DIMENSION
  5
145
330
2
100
AcDbEntity
  8
4
  6
Continuous
100
AcDbDimension
  2
*D6
 10
2307.675209762521
 20
172.3469239999999
 30
0.0
 11
2307.675209762521
 21
621.0969240000003
 31
0.0
 70
    32
  1
{\fArial|b1|i0|c0|p34;F}
 71
     5
 42
897.4999999999999
  3
STANDARD
100
AcDbAlignedDimension
 13
1799.357055999999
 23
1069.846923999999
 33
0.0
 14
1987.357055999999
 24
172.346924
 34
0.0
 50
90.0
100
AcDbRotatedDimension
1001
ACAD
1000
DSTYLE
1002
{
1070
     3
1000
mm
1070
    41
1040
125.0
1070
    42
1040
50.0
1070
    44
1040
50.0
1070
   140
1040
80.0
1070
   176
1070
     7
1070
   177
1070
     7
1070
   178
1070
     7
1070
   289
1070
     1
1002
}
  0
DIMENSION
  5
153
330
2
100
AcDbEntity
  8
4
  6
Continuous
100
AcDbDimension
  2
*D7
 10
3053.276123001022
 20
-617.4389534770835
 30
0.0
 11
3328.276245000511
 21
-617.4389534770835
 31
0.0
 70
    32
  1
{\fArial|b1|i0|c0|p34;D}
 71
     5
 42
550.0002439989784
  3
STANDARD
100
AcDbAlignedDimension
 13
3603.276367
 23
685.009766
 33
0.0
 14
3053.276123001022
 24
377.3469276602065
 34
0.0
100
AcDbRotatedDimension
1001
ACAD
1000
DSTYLE
1002
{
1070
     3
1000
mm
1070
    41
1040
125.0
1070
    42
1040
50.0
1070
    44
1040
50.0
1070
   140
1040
80.0
1070
   176
1070
     7
1070
   177
1070
     7
1070
   178
1070
     7
1070
   289
1070
     1
1002
}
  0
MTEXT
  5
161
330
2
100
AcDbEntity
  8
4
  6
Continuous
100
AcDbMText
 10
3679.644892887889
 20
-1515.290844750699
 30
0.0
 40
80.0
 41
813.169
 71
     1
 72
     5
  1
{\fArial|b1|i0|c0|p34;\C7;OUTSIDE}
 73
     1
 44
1.0
  0
MTEXT
  5
162
330
2
100
AcDbEntity
  8
4
  6
Continuous
100
AcDbMText
 10
3052.827347990289
 20
-1515.290844750699
 30
0.0
 40
80.0
 41
813.169
 71
     1
 72
     5
  1
{\fArial|b1|i0|c0|p34;\C7;INSIDE}
 73
     1
 44
1.0
  0
MTEXT
  5
163
330
2
100
AcDbEntity
  8
4
  6
Continuous
100
AcDbMText
 10
-760.1642187071083
 20
-2795.123400737973
 30
0.0
 40
100.0
 41
2909.492
 71
     1
 72
     5
  1
{\fArial|b1|i0|c0|p34;\C7;VIEWED INSIDE LOOKING OUT}
 73
     1
 44
1.0
  0
MTEXT
  5
164
330
2
100
AcDbEntity
  8
4
  6
Continuous
100
AcDbMText
 10
3467.956630747881
 20
-2795.123400737973
 30
0.0
 40
100.0
 41
757.148
 71
     1
 72
     5
  1
{\fArial|b1|i0|c0|p34;\C7;SIDE}
 73
     1
 44
1.0
  0
ENDSEC
  0
SECTION
  2
OBJECTS
  0
DICTIONARY
  5
7
330
0
100
AcDbDictionary
281
     1
  3
ACAD_GROUP
350
17A
  3
ACAD_LAYOUT
350
168
  3
ACAD_MLINESTYLE
350
17B
  3
ACAD_PLOTSETTINGS
350
17C
  3
ACAD_PLOTSTYLENAME
350
6
  3
AcDbVariableDictionary
350
183
  0
DICTIONARY
  5
17A
102
{ACAD_REACTORS
330
7
102
}
330
7
100
AcDbDictionary
281
     1
  0
DICTIONARY
  5
168
102
{ACAD_REACTORS
330
7
102
}
330
7
100
AcDbDictionary
281
     1
  3
Layout1
350
16C
  3
Model
350
167
  0
DICTIONARY
  5
17B
102
{ACAD_REACTORS
330
7
102
}
330
7
100
AcDbDictionary
281
     1
  3
STANDARD
350
17D
  0
DICTIONARY
  5
17C
102
{ACAD_REACTORS
330
7
102
}
330
7
100
AcDbDictionary
281
     1
  0
ACDBDICTIONARYWDFLT
  5
6
102
{ACAD_REACTORS
330
7
102
}
330
7
100
AcDbDictionary
281
     1
  3
Normal
350
5
100
AcDbDictionaryWithDefault
340
5
  0
DICTIONARY
  5
183
102
{ACAD_REACTORS
330
7
102
}
330
7
100
AcDbDictionary
281
     1
  3
DIMASSOC
350
184
  0
LAYOUT
  5
16C
102
{ACAD_REACTORS
330
168
102
}
330
168
100
AcDbPlotSettings
  1

  2
\\MIRAGE-NT1\HP 5N - Accts
  4

  6

 40
0.0
 41
0.0
 42
0.0
 43
0.0
 44
0.0
 45
0.0
 46
0.0
 47
0.0
 48
0.0
 49
0.0
140
0.0
141
0.0
142
1.0
143
1.0
 70
   688
 72
     0
 73
     0
 74
     5
  7

 75
    16
147
1.0
148
0.0
149
0.0
100
AcDbLayout
  1
Layout1
 70
     1
 71
     1
 10
0.0
 20
0.0
 11
12.0
 21
9.0
 12
0.0
 22
0.0
 32
0.0
 14
1.000000000000000E+20
 24
1.000000000000000E+20
 34
1.000000000000000E+20
 15
-1.000000000000000E+20
 25
-1.000000000000000E+20
 35
-1.000000000000000E+20
146
0.0
 13
0.0
 23
0.0
 33
0.0
 16
1.0
 26
0.0
 36
0.0
 17
0.0
 27
1.0
 37
0.0
 76
     0
330
169
  0
LAYOUT
  5
167
102
{ACAD_REACTORS
330
168
102
}
330
168
100
AcDbPlotSettings
  1

  2
\\MIRAGE-NT1\HP 5N - Accts
  4

  6

 40
0.0
 41
0.0
 42
0.0
 43
0.0
 44
0.0
 45
0.0
 46
0.0
 47
0.0
 48
0.0
 49
0.0
140
0.0
141
0.0
142
1.0
143
1.0
 70
  1712
 72
     0
 73
     0
 74
     0
  7

 75
     0
147
1.0
148
0.0
149
0.0
100
AcDbLayout
  1
Model
 70
     1
 71
     0
 10
0.0
 20
0.0
 11
12.0
 21
9.0
 12
0.0
 22
0.0
 32
0.0
 14
0.0
 24
0.0
 34
0.0
 15
0.0
 25
0.0
 35
0.0
146
0.0
 13
0.0
 23
0.0
 33
0.0
 16
1.0
 26
0.0
 36
0.0
 17
0.0
 27
1.0
 37
0.0
 76
     0
330
2
  0
MLINESTYLE
  5
17D
102
{ACAD_REACTORS
330
17B
102
}
330
17B
100
AcDbMlineStyle
  2
STANDARD
 70
     0
  3

 62
     0
 51
90.0
 52
90.0
 71
     2
 49
0.5
 62
   256
  6
BYLAYER
 49
-0.5
 62
   256
  6
BYLAYER
  0
ACDBPLACEHOLDER
  5
5
102
{ACAD_REACTORS
330
6
102
}
330
6
  0
DICTIONARYVAR
  5
184
102
{ACAD_REACTORS
330
183
102
}
330
183
100
DictionaryVariables
280
     0
  1
1
  0
ENDSEC
  0
EOF
