  0
SECTION
  2
HEADER
  9
$ACADVER
  1
AC1015
  9
$ACADMAINTVER
 70
    13
  9
$DWGCODEPAGE
  3
ANSI_1252
  9
$INSBASE
 10
-110.4371395505677
 20
11.10761515611147
 30
0.0
  9
$EXTMIN
 10
-110.4371395996945
 20
11.10761498366523
 30
0.0
  9
$EXTMAX
 10
467.8460596483116
 20
346.6390564743334
 30
0.0
  9
$LIMMIN
 10
0.0
 20
0.0
  9
$LIMMAX
 10
420.0
 20
297.0
  9
$ORTHOMODE
 70
     0
  9
$REGENMODE
 70
     1
  9
$FILLMODE
 70
     1
  9
$QTEXTMODE
 70
     0
  9
$MIRRTEXT
 70
     1
  9
$LTSCALE
 40
1.0
  9
$ATTMODE
 70
     1
  9
$TEXTSIZE
 40
2.5
  9
$TRACEWID
 40
1.0
  9
$TEXTSTYLE
  7
Standard
  9
$CLAYER
  8
0
  9
$CELTYPE
  6
ByLayer
  9
$CECOLOR
 62
   256
  9
$CELTSCALE
 40
1.0
  9
$DISPSILH
 70
     0
  9
$DIMSCALE
 40
1.0
  9
$DIMASZ
 40
5.0
  9
$DIMEXO
 40
0.625
  9
$DIMDLI
 40
3.75
  9
$DIMRND
 40
0.0
  9
$DIMDLE
 40
0.0
  9
$DIMEXE
 40
1.25
  9
$DIMTP
 40
0.0
  9
$DIMTM
 40
0.0
  9
$DIMTXT
 40
5.0
  9
$DIMCEN
 40
2.5
  9
$DIMTSZ
 40
0.0
  9
$DIMTOL
 70
     0
  9
$DIMLIM
 70
     0
  9
$DIMTIH
 70
     0
  9
$DIMTOH
 70
     0
  9
$DIMSE1
 70
     0
  9
$DIMSE2
 70
     0
  9
$DIMTAD
 70
     1
  9
$DIMZIN
 70
     8
  9
$DIMBLK
  1

  9
$DIMASO
 70
     1
  9
$DIMSHO
 70
     1
  9
$DIMPOST
  1

  9
$DIMAPOST
  1

  9
$DIMALT
 70
     0
  9
$DIMALTD
 70
     3
  9
$DIMALTF
 40
0.03937007874016
  9
$DIMLFAC
 40
1.0
  9
$DIMTOFL
 70
     1
  9
$DIMTVP
 40
0.0
  9
$DIMTIX
 70
     0
  9
$DIMSOXD
 70
     0
  9
$DIMSAH
 70
     0
  9
$DIMBLK1
  1

  9
$DIMBLK2
  1

  9
$DIMSTYLE
  2
ISO-25
  9
$DIMCLRD
 70
     0
  9
$DIMCLRE
 70
     0
  9
$DIMCLRT
 70
     0
  9
$DIMTFAC
 40
1.0
  9
$DIMGAP
 40
2.0
  9
$DIMJUST
 70
     0
  9
$DIMSD1
 70
     0
  9
$DIMSD2
 70
     0
  9
$DIMTOLJ
 70
     0
  9
$DIMTZIN
 70
     8
  9
$DIMALTZ
 70
     0
  9
$DIMALTTZ
 70
     0
  9
$DIMUPT
 70
     0
  9
$DIMDEC
 70
     2
  9
$DIMTDEC
 70
     2
  9
$DIMALTU
 70
     2
  9
$DIMALTTD
 70
     3
  9
$DIMTXSTY
  7
Standard
  9
$DIMAUNIT
 70
     0
  9
$DIMADEC
 70
     0
  9
$DIMALTRND
 40
0.0
  9
$DIMAZIN
 70
     0
  9
$DIMDSEP
 70
    44
  9
$DIMATFIT
 70
     3
  9
$DIMFRAC
 70
     0
  9
$DIMLDRBLK
  1

  9
$DIMLUNIT
 70
     2
  9
$DIMLWD
 70
    -2
  9
$DIMLWE
 70
    -2
  9
$DIMTMOVE
 70
     0
  9
$LUNITS
 70
     2
  9
$LUPREC
 70
     4
  9
$SKETCHINC
 40
1.0
  9
$FILLETRAD
 40
10.0
  9
$AUNITS
 70
     0
  9
$AUPREC
 70
     0
  9
$MENU
  1
.
  9
$ELEVATION
 40
0.0
  9
$PELEVATION
 40
0.0
  9
$THICKNESS
 40
0.0
  9
$LIMCHECK
 70
     0
  9
$CHAMFERA
 40
10.0
  9
$CHAMFERB
 40
10.0
  9
$CHAMFERC
 40
20.0
  9
$CHAMFERD
 40
0.0
  9
$SKPOLY
 70
     0
  9
$TDCREATE
 40
2452769.581003009
  9
$TDUCREATE
 40
2452769.164336342
  9
$TDUPDATE
 40
2453647.418422708
  9
$TDUUPDATE
 40
2453647.001756042
  9
$TDINDWG
 40
0.0291567130
  9
$TDUSRTIMER
 40
0.0291567130
  9
$USRTIMER
 70
     1
  9
$ANGBASE
 50
0.0
  9
$ANGDIR
 70
     0
  9
$PDMODE
 70
     0
  9
$PDSIZE
 40
0.0
  9
$PLINEWID
 40
0.0
  9
$SPLFRAME
 70
     0
  9
$SPLINETYPE
 70
     6
  9
$SPLINESEGS
 70
     8
  9
$HANDSEED
  5
11B
  9
$SURFTAB1
 70
     6
  9
$SURFTAB2
 70
     6
  9
$SURFTYPE
 70
     6
  9
$SURFU
 70
     6
  9
$SURFV
 70
     6
  9
$UCSBASE
  2

  9
$UCSNAME
  2

  9
$UCSORG
 10
0.0
 20
0.0
 30
0.0
  9
$UCSXDIR
 10
1.0
 20
0.0
 30
0.0
  9
$UCSYDIR
 10
0.0
 20
1.0
 30
0.0
  9
$UCSORTHOREF
  2

  9
$UCSORTHOVIEW
 70
     0
  9
$UCSORGTOP
 10
0.0
 20
0.0
 30
0.0
  9
$UCSORGBOTTOM
 10
0.0
 20
0.0
 30
0.0
  9
$UCSORGLEFT
 10
0.0
 20
0.0
 30
0.0
  9
$UCSORGRIGHT
 10
0.0
 20
0.0
 30
0.0
  9
$UCSORGFRONT
 10
0.0
 20
0.0
 30
0.0
  9
$UCSORGBACK
 10
0.0
 20
0.0
 30
0.0
  9
$PUCSBASE
  2

  9
$PUCSNAME
  2

  9
$PUCSORG
 10
0.0
 20
0.0
 30
0.0
  9
$PUCSXDIR
 10
1.0
 20
0.0
 30
0.0
  9
$PUCSYDIR
 10
0.0
 20
1.0
 30
0.0
  9
$PUCSORTHOREF
  2

  9
$PUCSORTHOVIEW
 70
     0
  9
$PUCSORGTOP
 10
0.0
 20
0.0
 30
0.0
  9
$PUCSORGBOTTOM
 10
0.0
 20
0.0
 30
0.0
  9
$PUCSORGLEFT
 10
0.0
 20
0.0
 30
0.0
  9
$PUCSORGRIGHT
 10
0.0
 20
0.0
 30
0.0
  9
$PUCSORGFRONT
 10
0.0
 20
0.0
 30
0.0
  9
$PUCSORGBACK
 10
0.0
 20
0.0
 30
0.0
  9
$USERI1
 70
     0
  9
$USERI2
 70
     0
  9
$USERI3
 70
     0
  9
$USERI4
 70
     0
  9
$USERI5
 70
     0
  9
$USERR1
 40
0.0
  9
$USERR2
 40
0.0
  9
$USERR3
 40
0.0
  9
$USERR4
 40
0.0
  9
$USERR5
 40
0.0
  9
$WORLDVIEW
 70
     1
  9
$SHADEDGE
 70
     3
  9
$SHADEDIF
 70
    70
  9
$TILEMODE
 70
     1
  9
$MAXACTVP
 70
    64
  9
$PINSBASE
 10
0.0
 20
0.0
 30
0.0
  9
$PLIMCHECK
 70
     0
  9
$PEXTMIN
 10
-84.0
 20
-0.1575368999165647
 30
0.0
  9
$PEXTMAX
 10
211.0941500469197
 20
282.033201554023
 30
0.0
  9
$PLIMMIN
 10
-6.043083190917968
 20
-6.720414161682128
  9
$PLIMMAX
 10
204.0149154663085
 20
290.2055807113647
  9
$UNITMODE
 70
     0
  9
$VISRETAIN
 70
     1
  9
$PLINEGEN
 70
     0
  9
$PSLTSCALE
 70
     1
  9
$TREEDEPTH
 70
  3020
  9
$CMLSTYLE
  2
Standard
  9
$CMLJUST
 70
     0
  9
$CMLSCALE
 40
20.0
  9
$PROXYGRAPHICS
 70
     1
  9
$MEASUREMENT
 70
     1
  9
$CELWEIGHT
370
    -1
  9
$ENDCAPS
280
     0
  9
$JOINSTYLE
280
     0
  9
$LWDISPLAY
290
     0
  9
$INSUNITS
 70
     4
  9
$HYPERLINKBASE
  1

  9
$STYLESHEET
  1

  9
$XEDIT
290
     1
  9
$CEPSNTYPE
380
     0
  9
$PSTYLEMODE
290
     1
  9
$FINGERPRINTGUID
  2
{1875CFC8-2D85-46E3-AF69-A91F5E8453EC}
  9
$VERSIONGUID
  2
{C3416660-7130-4A71-A854-B232CCD96251}
  9
$EXTNAMES
290
     1
  9
$PSVPSCALE
 40
0.0
  9
$OLESTARTUP
290
     0
  0
ENDSEC
  0
SECTION
  2
CLASSES
  0
CLASS
  1
ACDBDICTIONARYWDFLT
  2
AcDbDictionaryWithDefault
  3
AutoCAD 2000
 90
        0
280
     0
281
     0
  0
CLASS
  1
ACDBPLACEHOLDER
  2
AcDbPlaceHolder
  3
AutoCAD 2000
 90
        0
280
     0
281
     0
  0
CLASS
  1
LAYOUT
  2
AcDbLayout
  3
AutoCAD 2000
 90
        0
280
     0
281
     0
  0
CLASS
  1
DICTIONARYVAR
  2
AcDbDictionaryVar
  3
AutoCAD 2000
 90
        0
280
     0
281
     0
  0
CLASS
  1
DIMASSOC
  2
AcDbDimAssoc
  3
"AcDbDimAssoc|Product Desc:     AcDim ARX App For Dimension|Company:          Autodesk, Inc.|WEB Address:      www.autodesk.com"
 90
        0
280
     0
281
     0
  0
ENDSEC
  0
SECTION
  2
TABLES
  0
TABLE
  2
VPORT
  5
109
330
0
100
AcDbSymbolTable
 70
     4
  0
VPORT
  5
11A
330
109
100
AcDbSymbolTableRecord
100
AcDbViewportTableRecord
  2
*Active
 70
     0
 10
0.0
 20
0.0
 11
1.0
 21
1.0
 12
228.914833562564
 22
143.5230322251372
 13
0.0
 23
0.0
 14
10.0
 24
10.0
 15
10.0
 25
10.0
 16
0.0
 26
0.0
 36
1.0
 17
0.0
 27
0.0
 37
0.0
 40
277.2629675803315
 41
1.786259541984732
 42
50.0
 43
0.0
 44
0.0
 50
0.0
 51
0.0
 71
     0
 72
   100
 73
     1
 74
     3
 75
     0
 76
     0
 77
     0
 78
     0
281
     0
 65
     1
110
0.0
120
0.0
130
0.0
111
1.0
121
0.0
131
0.0
112
0.0
122
1.0
132
0.0
 79
     0
146
0.0
  0
ENDTAB
  0
TABLE
  2
LTYPE
  5
104
330
0
100
AcDbSymbolTable
 70
     2
  0
LTYPE
  5
105
330
104
100
AcDbSymbolTableRecord
100
AcDbLinetypeTableRecord
  2
ByBlock
 70
     0
  3

 72
    65
 73
     0
 40
0.0
  0
LTYPE
  5
106
330
104
100
AcDbSymbolTableRecord
100
AcDbLinetypeTableRecord
  2
ByLayer
 70
     0
  3

 72
    65
 73
     0
 40
0.0
  0
LTYPE
  5
8
330
104
100
AcDbSymbolTableRecord
100
AcDbLinetypeTableRecord
  2
Continuous
 70
     0
  3
Solid line
 72
    65
 73
     0
 40
0.0
  0
LTYPE
  5
B0
330
104
100
AcDbSymbolTableRecord
100
AcDbLinetypeTableRecord
  2
ACAD_ISO03W100
 70
     0
  3
ISO dash space __    __    __    __    __    __
 72
    65
 73
     2
 40
30.0
 49
12.0
 74
     0
 49
-18.0
 74
     0
  0
ENDTAB
  0
TABLE
  2
LAYER
  5
101
330
0
100
AcDbSymbolTable
 70
    68
  0
LAYER
  5
4
330
101
100
AcDbSymbolTableRecord
100
AcDbLayerTableRecord
  2
0
 70
     0
 62
     7
  6
Continuous
370
    -3
390
5
  0
LAYER
  5
8E
330
101
100
AcDbSymbolTableRecord
100
AcDbLayerTableRecord
  2
VM001I1$010
 70
     0
 62
     7
  6
Continuous
370
    -3
390
5
  0
LAYER
  5
8C
330
101
100
AcDbSymbolTableRecord
100
AcDbLayerTableRecord
  2
VE001I1$101
 70
     0
 62
     7
  6
Continuous
370
    -3
390
5
  0
LAYER
  5
3B
330
101
100
AcDbSymbolTableRecord
100
AcDbLayerTableRecord
  2
VM001I2$010
 70
     0
 62
     7
  6
Continuous
370
    -3
390
5
  0
LAYER
  5
39
330
101
100
AcDbSymbolTableRecord
100
AcDbLayerTableRecord
  2
VE001I2$101
 70
     0
 62
     7
  6
Continuous
370
    -3
390
5
  0
LAYER
  5
92
330
101
100
AcDbSymbolTableRecord
100
AcDbLayerTableRecord
  2
VM001I3$010
 70
     0
 62
     7
  6
Continuous
370
    -3
390
5
  0
LAYER
  5
90
330
101
100
AcDbSymbolTableRecord
100
AcDbLayerTableRecord
  2
VE001I3$101
 70
     0
 62
     7
  6
Continuous
370
    -3
390
5
  0
LAYER
  5
8A
330
101
100
AcDbSymbolTableRecord
100
AcDbLayerTableRecord
  2
VM001I4$010
 70
     0
 62
     7
  6
Continuous
370
    -3
390
5
  0
LAYER
  5
88
330
101
100
AcDbSymbolTableRecord
100
AcDbLayerTableRecord
  2
VE001I4$101
 70
     0
 62
     7
  6
Continuous
370
    -3
390
5
  0
LAYER
  5
5A
330
101
100
AcDbSymbolTableRecord
100
AcDbLayerTableRecord
  2
VM001I5$010
 70
     0
 62
     7
  6
Continuous
370
    -3
390
5
  0
LAYER
  5
58
330
101
100
AcDbSymbolTableRecord
100
AcDbLayerTableRecord
  2
VE001I5$101
 70
     0
 62
     7
  6
Continuous
370
    -3
390
5
  0
LAYER
  5
82
330
101
100
AcDbSymbolTableRecord
100
AcDbLayerTableRecord
  2
VM001I6$010
 70
     0
 62
     7
  6
Continuous
370
    -3
390
5
  0
LAYER
  5
80
330
101
100
AcDbSymbolTableRecord
100
AcDbLayerTableRecord
  2
VE001I6$101
 70
     0
 62
     7
  6
Continuous
370
    -3
390
5
  0
LAYER
  5
AE
330
101
100
AcDbSymbolTableRecord
100
AcDbLayerTableRecord
  2
VM001I7$010
 70
     0
 62
     7
  6
Continuous
370
    -3
390
5
  0
LAYER
  5
AC
330
101
100
AcDbSymbolTableRecord
100
AcDbLayerTableRecord
  2
VE001I7$101
 70
     0
 62
     7
  6
Continuous
370
    -3
390
5
  0
LAYER
  5
86
330
101
100
AcDbSymbolTableRecord
100
AcDbLayerTableRecord
  2
VM001I8$010
 70
     0
 62
     7
  6
Continuous
370
    -3
390
5
  0
LAYER
  5
84
330
101
100
AcDbSymbolTableRecord
100
AcDbLayerTableRecord
  2
VE001I8$101
 70
     0
 62
     7
  6
Continuous
370
    -3
390
5
  0
LAYER
  5
C0
330
101
100
AcDbSymbolTableRecord
100
AcDbLayerTableRecord
  2
VM001I9$010
 70
     0
 62
     7
  6
Continuous
370
    -3
390
5
  0
LAYER
  5
BE
330
101
100
AcDbSymbolTableRecord
100
AcDbLayerTableRecord
  2
VE001I9$101
 70
     0
 62
     7
  6
Continuous
370
    -3
390
5
  0
LAYER
  5
9E
330
101
100
AcDbSymbolTableRecord
100
AcDbLayerTableRecord
  2
VM001I10$010
 70
     0
 62
     7
  6
Continuous
370
    -3
390
5
  0
LAYER
  5
9C
330
101
100
AcDbSymbolTableRecord
100
AcDbLayerTableRecord
  2
VE001I10$101
 70
     0
 62
     7
  6
Continuous
370
    -3
390
5
  0
LAYER
  5
AA
330
101
100
AcDbSymbolTableRecord
100
AcDbLayerTableRecord
  2
VM001I11$010
 70
     0
 62
     7
  6
Continuous
370
    -3
390
5
  0
LAYER
  5
A8
330
101
100
AcDbSymbolTableRecord
100
AcDbLayerTableRecord
  2
VE001I11$101
 70
     0
 62
     7
  6
Continuous
370
    -3
390
5
  0
LAYER
  5
D8
330
101
100
AcDbSymbolTableRecord
100
AcDbLayerTableRecord
  2
VM001I12$010
 70
     0
 62
     7
  6
Continuous
370
    -3
390
5
  0
LAYER
  5
D6
330
101
100
AcDbSymbolTableRecord
100
AcDbLayerTableRecord
  2
VE001I12$101
 70
     0
 62
     7
  6
Continuous
370
    -3
390
5
  0
LAYER
  5
96
330
101
100
AcDbSymbolTableRecord
100
AcDbLayerTableRecord
  2
VM001I13$010
 70
     0
 62
     7
  6
Continuous
370
    -3
390
5
  0
LAYER
  5
94
330
101
100
AcDbSymbolTableRecord
100
AcDbLayerTableRecord
  2
VE001I13$101
 70
     0
 62
     7
  6
Continuous
370
    -3
390
5
  0
LAYER
  5
F0
330
101
100
AcDbSymbolTableRecord
100
AcDbLayerTableRecord
  2
VM001I14$010
 70
     0
 62
     7
  6
Continuous
370
    -3
390
5
  0
LAYER
  5
EE
330
101
100
AcDbSymbolTableRecord
100
AcDbLayerTableRecord
  2
VE001I14$101
 70
     0
 62
     7
  6
Continuous
370
    -3
390
5
  0
LAYER
  5
9A
330
101
100
AcDbSymbolTableRecord
100
AcDbLayerTableRecord
  2
VM001I15$010
 70
     0
 62
     7
  6
Continuous
370
    -3
390
5
  0
LAYER
  5
98
330
101
100
AcDbSymbolTableRecord
100
AcDbLayerTableRecord
  2
VE001I15$101
 70
     0
 62
     7
  6
Continuous
370
    -3
390
5
  0
LAYER
  5
E8
330
101
100
AcDbSymbolTableRecord
100
AcDbLayerTableRecord
  2
VM001I16$010
 70
     0
 62
     7
  6
Continuous
370
    -3
390
5
  0
LAYER
  5
E6
330
101
100
AcDbSymbolTableRecord
100
AcDbLayerTableRecord
  2
VE001I16$101
 70
     0
 62
     7
  6
Continuous
370
    -3
390
5
  0
LAYER
  5
37
330
101
100
AcDbSymbolTableRecord
100
AcDbLayerTableRecord
  2
VM001I17$010
 70
     0
 62
     7
  6
Continuous
370
    -3
390
5
  0
LAYER
  5
35
330
101
100
AcDbSymbolTableRecord
100
AcDbLayerTableRecord
  2
VE001I17$101
 70
     0
 62
     7
  6
Continuous
370
    -3
390
5
  0
LAYER
  5
7E
330
101
100
AcDbSymbolTableRecord
100
AcDbLayerTableRecord
  2
VM001I18$010
 70
     0
 62
     7
  6
Continuous
370
    -3
390
5
  0
LAYER
  5
7C
330
101
100
AcDbSymbolTableRecord
100
AcDbLayerTableRecord
  2
VE001I18$101
 70
     0
 62
     7
  6
Continuous
370
    -3
390
5
  0
LAYER
  5
BC
330
101
100
AcDbSymbolTableRecord
100
AcDbLayerTableRecord
  2
VM001I19$010
 70
     0
 62
     7
  6
Continuous
370
    -3
390
5
  0
LAYER
  5
BA
330
101
100
AcDbSymbolTableRecord
100
AcDbLayerTableRecord
  2
VE001I19$101
 70
     0
 62
     7
  6
Continuous
370
    -3
390
5
  0
LAYER
  5
F4
330
101
100
AcDbSymbolTableRecord
100
AcDbLayerTableRecord
  2
VM001I20$010
 70
     0
 62
     7
  6
Continuous
370
    -3
390
5
  0
LAYER
  5
F2
330
101
100
AcDbSymbolTableRecord
100
AcDbLayerTableRecord
  2
VE001I20$101
 70
     0
 62
     7
  6
Continuous
370
    -3
390
5
  0
LAYER
  5
A6
330
101
100
AcDbSymbolTableRecord
100
AcDbLayerTableRecord
  2
VM001I21$010
 70
     0
 62
     7
  6
Continuous
370
    -3
390
5
  0
LAYER
  5
A4
330
101
100
AcDbSymbolTableRecord
100
AcDbLayerTableRecord
  2
VE001I21$101
 70
     0
 62
     7
  6
Continuous
370
    -3
390
5
  0
LAYER
  5
A2
330
101
100
AcDbSymbolTableRecord
100
AcDbLayerTableRecord
  2
VM001I22$010
 70
     0
 62
     7
  6
Continuous
370
    -3
390
5
  0
LAYER
  5
A0
330
101
100
AcDbSymbolTableRecord
100
AcDbLayerTableRecord
  2
VE001I22$101
 70
     0
 62
     7
  6
Continuous
370
    -3
390
5
  0
LAYER
  5
3F
330
101
100
AcDbSymbolTableRecord
100
AcDbLayerTableRecord
  2
VM001I23$010
 70
     0
 62
     7
  6
Continuous
370
    -3
390
5
  0
LAYER
  5
3D
330
101
100
AcDbSymbolTableRecord
100
AcDbLayerTableRecord
  2
VE001I23$101
 70
     0
 62
     7
  6
Continuous
370
    -3
390
5
  0
LAYER
  5
EC
330
101
100
AcDbSymbolTableRecord
100
AcDbLayerTableRecord
  2
VM001I24$010
 70
     0
 62
     7
  6
Continuous
370
    -3
390
5
  0
LAYER
  5
EA
330
101
100
AcDbSymbolTableRecord
100
AcDbLayerTableRecord
  2
VE001I24$101
 70
     0
 62
     7
  6
Continuous
370
    -3
390
5
  0
LAYER
  5
33
330
101
100
AcDbSymbolTableRecord
100
AcDbLayerTableRecord
  2
VM001I25$010
 70
     0
 62
     7
  6
Continuous
370
    -3
390
5
  0
LAYER
  5
31
330
101
100
AcDbSymbolTableRecord
100
AcDbLayerTableRecord
  2
VE001I25$101
 70
     0
 62
     7
  6
Continuous
370
    -3
390
5
  0
LAYER
  5
56
330
101
100
AcDbSymbolTableRecord
100
AcDbLayerTableRecord
  2
VM001I26$010
 70
     0
 62
     7
  6
Continuous
370
    -3
390
5
  0
LAYER
  5
54
330
101
100
AcDbSymbolTableRecord
100
AcDbLayerTableRecord
  2
VE001I26$101
 70
     0
 62
     7
  6
Continuous
370
    -3
390
5
  0
LAYER
  5
B6
330
101
100
AcDbSymbolTableRecord
100
AcDbLayerTableRecord
  2
VM001I27$010
 70
     0
 62
     7
  6
Continuous
370
    -3
390
5
  0
LAYER
  5
B4
330
101
100
AcDbSymbolTableRecord
100
AcDbLayerTableRecord
  2
VE001I27$101
 70
     0
 62
     7
  6
Continuous
370
    -3
390
5
  0
LAYER
  5
DC
330
101
100
AcDbSymbolTableRecord
100
AcDbLayerTableRecord
  2
VM001I28$010
 70
     0
 62
     7
  6
Continuous
370
    -3
390
5
  0
LAYER
  5
DA
330
101
100
AcDbSymbolTableRecord
100
AcDbLayerTableRecord
  2
VE001I28$101
 70
     0
 62
     7
  6
Continuous
370
    -3
390
5
  0
LAYER
  5
76
330
101
100
AcDbSymbolTableRecord
100
AcDbLayerTableRecord
  2
VM001I29$010
 70
     0
 62
     7
  6
Continuous
370
    -3
390
5
  0
LAYER
  5
74
330
101
100
AcDbSymbolTableRecord
100
AcDbLayerTableRecord
  2
VE001I29$101
 70
     0
 62
     7
  6
Continuous
370
    -3
390
5
  0
LAYER
  5
E0
330
101
100
AcDbSymbolTableRecord
100
AcDbLayerTableRecord
  2
VM001I31$010
 70
     0
 62
     7
  6
Continuous
370
    -3
390
5
  0
LAYER
  5
DE
330
101
100
AcDbSymbolTableRecord
100
AcDbLayerTableRecord
  2
VE001I31$101
 70
     0
 62
     7
  6
Continuous
370
    -3
390
5
  0
LAYER
  5
72
330
101
100
AcDbSymbolTableRecord
100
AcDbLayerTableRecord
  2
VM001I32$010
 70
     0
 62
     7
  6
Continuous
370
    -3
390
5
  0
LAYER
  5
70
330
101
100
AcDbSymbolTableRecord
100
AcDbLayerTableRecord
  2
VE001I32$101
 70
     0
 62
     7
  6
Continuous
370
    -3
390
5
  0
LAYER
  5
E4
330
101
100
AcDbSymbolTableRecord
100
AcDbLayerTableRecord
  2
VM001I33$010
 70
     0
 62
     7
  6
Continuous
370
    -3
390
5
  0
LAYER
  5
E2
330
101
100
AcDbSymbolTableRecord
100
AcDbLayerTableRecord
  2
VE001I33$101
 70
     0
 62
     7
  6
Continuous
370
    -3
390
5
  0
LAYER
  5
7A
330
101
100
AcDbSymbolTableRecord
100
AcDbLayerTableRecord
  2
VM001I34$010
 70
     0
 62
     7
  6
Continuous
370
    -3
390
5
  0
LAYER
  5
78
330
101
100
AcDbSymbolTableRecord
100
AcDbLayerTableRecord
  2
VE001I34$101
 70
     0
 62
     7
  6
Continuous
370
    -3
390
5
  0
LAYER
  5
17
330
101
100
AcDbSymbolTableRecord
100
AcDbLayerTableRecord
  2
Defpoints
 70
     0
 62
     7
  6
Continuous
290
     0
370
    -3
390
5
  0
ENDTAB
  0
TABLE
  2
STYLE
  5
102
330
0
100
AcDbSymbolTable
 70
     1
  0
STYLE
  5
A
330
102
100
AcDbSymbolTableRecord
100
AcDbTextStyleTableRecord
  2
Standard
 70
     0
 40
0.0
 41
1.0
 50
0.0
 71
     0
 42
2.5
  3
txt
  4

  0
ENDTAB
  0
TABLE
  2
VIEW
  5
107
330
0
100
AcDbSymbolTable
 70
     0
  0
ENDTAB
  0
TABLE
  2
UCS
  5
108
330
0
100
AcDbSymbolTable
 70
     0
  0
ENDTAB
  0
TABLE
  2
APPID
  5
10B
330
0
100
AcDbSymbolTable
 70
     1
  0
APPID
  5
D
330
10B
100
AcDbSymbolTableRecord
100
AcDbRegAppTableRecord
  2
ACAD
 70
     0
  0
ENDTAB
  0
TABLE
  2
DIMSTYLE
  5
10C
330
0
100
AcDbSymbolTable
 70
     1
100
AcDbDimStyleTable
 71
     1
340
C
  0
DIMSTYLE
105
C
102
{ACAD_REACTORS
330
1C
330
5B
330
C1
330
40
330
E
102
}
330
10C
100
AcDbSymbolTableRecord
100
AcDbDimStyleTableRecord
  2
ISO-25
 70
     0
 41
5.0
 42
0.625
 43
3.75
 44
1.25
 73
     0
 74
     0
 77
     1
 78
     8
140
5.0
141
2.5
143
0.03937007874016
147
2.0
171
     3
172
     1
271
     2
272
     2
274
     3
278
    44
283
     0
284
     8
340
A
  0
ENDTAB
  0
TABLE
  2
BLOCK_RECORD
  5
1
330
0
100
AcDbSymbolTable
 70
     5
  0
BLOCK_RECORD
  5
2
330
1
100
AcDbSymbolTableRecord
100
AcDbBlockTableRecord
  2
*Model_Space
340
FB
  0
BLOCK_RECORD
  5
FD
330
1
100
AcDbSymbolTableRecord
100
AcDbBlockTableRecord
  2
*Paper_Space
340
100
  0
BLOCK_RECORD
  5
1F
330
1
100
AcDbSymbolTableRecord
100
AcDbBlockTableRecord
  2
*D0
340
0
  0
BLOCK_RECORD
  5
5C
330
1
100
AcDbSymbolTableRecord
100
AcDbBlockTableRecord
  2
*D1
340
0
  0
BLOCK_RECORD
  5
C4
330
1
100
AcDbSymbolTableRecord
100
AcDbBlockTableRecord
  2
*D2
340
0
  0
BLOCK_RECORD
  5
43
330
1
100
AcDbSymbolTableRecord
100
AcDbBlockTableRecord
  2
*D3
340
0
  0
BLOCK_RECORD
  5
F
330
1
100
AcDbSymbolTableRecord
100
AcDbBlockTableRecord
  2
*D4
340
0
  0
ENDTAB
  0
ENDSEC
  0
SECTION
  2
BLOCKS
  0
BLOCK
  5
F9
330
2
100
AcDbEntity
  8
0
100
AcDbBlockBegin
  2
*Model_Space
 70
     0
 10
0.0
 20
0.0
 30
0.0
  3
*Model_Space
  1

  0
ENDBLK
  5
FA
330
2
100
AcDbEntity
  8
0
100
AcDbBlockEnd
  0
BLOCK
  5
FE
330
FD
100
AcDbEntity
 67
     1
  8
0
100
AcDbBlockBegin
  2
*Paper_Space
 70
     0
 10
0.0
 20
0.0
 30
0.0
  3
*Paper_Space
  1

  0
ENDBLK
  5
FF
330
FD
100
AcDbEntity
 67
     1
  8
0
100
AcDbBlockEnd
  0
BLOCK
  5
29
330
1F
100
AcDbEntity
  8
0
100
AcDbBlockBegin
  2
*D0
 70
     1
 10
0.0
 20
0.0
 30
0.0
  3
*D0
  1

  0
LINE
  5
20
330
1F
100
AcDbEntity
  8
0
 62
     0
370
    -2
100
AcDbLine
 10
203.4462244784243
 20
138.9607194471864
 30
0.0
 11
203.4462244784243
 21
102.7300265345069
 31
0.0
  0
LINE
  5
21
330
1F
100
AcDbEntity
  8
0
 62
     0
370
    -2
100
AcDbLine
 10
279.2644943093449
 20
138.9607194471864
 30
0.0
 11
279.2644943093449
 21
102.7300265345069
 31
0.0
  0
LINE
  5
22
330
1F
100
AcDbEntity
  8
0
 62
     0
370
    -2
100
AcDbLine
 10
208.4462244784243
 20
103.9800265345069
 30
0.0
 11
274.2644943093448
 21
103.9800265345069
 31
0.0
  0
MTEXT
  5
23
330
1F
100
AcDbEntity
  8
0
 62
     0
100
AcDbMText
 10
-78.71049468441583
 20
320.5643087460798
 30
0.0
 40
5.0
 41
0.0
 71
     5
 72
     1
  1
75,82
 73
     1
 44
1.0
  0
SOLID
  5
24
330
1F
100
AcDbEntity
  8
0
 62
     0
100
AcDbTrace
 10
208.4462244784243
 20
104.8133598678402
 30
0.0
 11
208.4462244784243
 21
103.1466932011736
 31
0.0
 12
203.4462244784243
 22
103.9800265345069
 32
0.0
 13
203.4462244784243
 23
103.9800265345069
 33
0.0
  0
SOLID
  5
25
330
1F
100
AcDbEntity
  8
0
 62
     0
100
AcDbTrace
 10
274.2644943093448
 20
104.8133598678402
 30
0.0
 11
274.2644943093448
 21
103.1466932011736
 31
0.0
 12
279.2644943093449
 22
103.9800265345069
 32
0.0
 13
279.2644943093449
 23
103.9800265345069
 33
0.0
  0
POINT
  5
26
330
1F
100
AcDbEntity
  8
Defpoints
 62
     0
100
AcDbPoint
 10
203.4462244784243
 20
139.5857194471864
 30
0.0
  0
POINT
  5
27
330
1F
100
AcDbEntity
  8
Defpoints
 62
     0
100
AcDbPoint
 10
279.2644943093449
 20
139.5857194471864
 30
0.0
  0
POINT
  5
28
330
1F
100
AcDbEntity
  8
Defpoints
 62
     0
100
AcDbPoint
 10
279.2644943093449
 20
103.9800265345069
 30
0.0
  0
ENDBLK
  5
2A
330
1F
100
AcDbEntity
  8
0
100
AcDbBlockEnd
  0
BLOCK
  5
66
330
5C
100
AcDbEntity
  8
0
100
AcDbBlockBegin
  2
*D1
 70
     1
 10
0.0
 20
0.0
 30
0.0
  3
*D1
  1

  0
LINE
  5
5D
330
5C
100
AcDbEntity
  8
0
 62
     0
370
    -2
100
AcDbLine
 10
218.3603847203037
 20
138.9607194471864
 30
0.0
 11
218.3603847203037
 21
121.1158412546997
 31
0.0
  0
LINE
  5
5E
330
5C
100
AcDbEntity
  8
0
 62
     0
370
    -2
100
AcDbLine
 10
279.2644943093449
 20
153.9607194471864
 30
0.0
 11
279.2644943093449
 21
121.1158412546997
 31
0.0
  0
LINE
  5
5F
330
5C
100
AcDbEntity
  8
0
 62
     0
370
    -2
100
AcDbLine
 10
223.3603847203037
 20
122.3658412546997
 30
0.0
 11
274.2644943093448
 21
122.3658412546997
 31
0.0
  0
SOLID
  5
60
330
5C
100
AcDbEntity
  8
0
 62
     0
100
AcDbTrace
 10
223.3603847203037
 20
123.199174588033
 30
0.0
 11
223.3603847203037
 21
121.5325079213663
 31
0.0
 12
218.3603847203037
 22
122.3658412546997
 32
0.0
 13
218.3603847203037
 23
122.3658412546997
 33
0.0
  0
SOLID
  5
61
330
5C
100
AcDbEntity
  8
0
 62
     0
100
AcDbTrace
 10
274.2644943093448
 20
123.199174588033
 30
0.0
 11
274.2644943093448
 21
121.5325079213663
 31
0.0
 12
279.2644943093449
 22
122.3658412546997
 32
0.0
 13
279.2644943093449
 23
122.3658412546997
 33
0.0
  0
MTEXT
  5
62
330
5C
100
AcDbEntity
  8
0
 62
     0
100
AcDbMText
 10
248.8124395148243
 20
126.8658412546997
 30
0.0
 40
5.0
 41
0.0
 71
     5
 72
     1
  1
58
 73
     1
 44
1.0
  0
POINT
  5
63
330
5C
100
AcDbEntity
  8
Defpoints
 62
     0
100
AcDbPoint
 10
218.3603847203037
 20
139.5857194471864
 30
0.0
  0
POINT
  5
64
330
5C
100
AcDbEntity
  8
Defpoints
 62
     0
100
AcDbPoint
 10
279.2644943093449
 20
154.5857194471864
 30
0.0
  0
POINT
  5
65
330
5C
100
AcDbEntity
  8
Defpoints
 62
     0
100
AcDbPoint
 10
279.2644943093449
 20
122.3658412546997
 30
0.0
  0
ENDBLK
  5
67
330
5C
100
AcDbEntity
  8
0
100
AcDbBlockEnd
  0
BLOCK
  5
CE
330
C4
100
AcDbEntity
  8
0
100
AcDbBlockBegin
  2
*D2
 70
     1
 10
0.0
 20
0.0
 30
0.0
  3
*D2
  1

  0
LINE
  5
C5
330
C4
100
AcDbEntity
  8
0
 62
     0
370
    -2
100
AcDbLine
 10
230.3603847203036
 20
206.2107194471864
 30
0.0
 11
230.3603847203036
 21
220.476803719976
 31
0.0
  0
LINE
  5
C6
330
C4
100
AcDbEntity
  8
0
 62
     0
370
    -2
100
AcDbLine
 10
279.2644943093449
 20
206.2107194471864
 30
0.0
 11
279.2644943093449
 21
220.476803719976
 31
0.0
  0
LINE
  5
C7
330
C4
100
AcDbEntity
  8
0
 62
     0
370
    -2
100
AcDbLine
 10
235.3603847203037
 20
219.226803719976
 30
0.0
 11
274.2644943093448
 21
219.226803719976
 31
0.0
  0
SOLID
  5
C8
330
C4
100
AcDbEntity
  8
0
 62
     0
100
AcDbTrace
 10
235.3603847203037
 20
220.0601370533093
 30
0.0
 11
235.3603847203037
 21
218.3934703866426
 31
0.0
 12
230.3603847203036
 22
219.226803719976
 32
0.0
 13
230.3603847203036
 23
219.226803719976
 33
0.0
  0
SOLID
  5
C9
330
C4
100
AcDbEntity
  8
0
 62
     0
100
AcDbTrace
 10
274.2644943093448
 20
220.0601370533093
 30
0.0
 11
274.2644943093448
 21
218.3934703866426
 31
0.0
 12
279.2644943093449
 22
219.226803719976
 32
0.0
 13
279.2644943093449
 23
219.226803719976
 33
0.0
  0
MTEXT
  5
CA
330
C4
100
AcDbEntity
  8
0
 62
     0
100
AcDbMText
 10
254.8124395148243
 20
223.726803719976
 30
0.0
 40
5.0
 41
0.0
 71
     5
 72
     1
  1
48
 73
     1
 44
1.0
  0
POINT
  5
CB
330
C4
100
AcDbEntity
  8
Defpoints
 62
     0
100
AcDbPoint
 10
230.3603847203036
 20
205.5857194471864
 30
0.0
  0
POINT
  5
CC
330
C4
100
AcDbEntity
  8
Defpoints
 62
     0
100
AcDbPoint
 10
279.2644943093449
 20
205.5857194471864
 30
0.0
  0
POINT
  5
CD
330
C4
100
AcDbEntity
  8
Defpoints
 62
     0
100
AcDbPoint
 10
279.2644943093449
 20
219.226803719976
 30
0.0
  0
ENDBLK
  5
CF
330
C4
100
AcDbEntity
  8
0
100
AcDbBlockEnd
  0
BLOCK
  5
4D
330
43
100
AcDbEntity
  8
0
100
AcDbBlockBegin
  2
*D3
 70
     1
 10
0.0
 20
0.0
 30
0.0
  3
*D3
  1

  0
LINE
  5
44
330
43
100
AcDbEntity
  8
0
 62
     0
370
    -2
100
AcDbLine
 10
279.8894943093449
 20
190.5857194471864
 30
0.0
 11
311.7190809061064
 21
190.5857194471864
 31
0.0
  0
LINE
  5
45
330
43
100
AcDbEntity
  8
0
 62
     0
370
    -2
100
AcDbLine
 10
279.8894943093449
 20
154.5857194471864
 30
0.0
 11
311.7190809061064
 21
154.5857194471864
 31
0.0
  0
LINE
  5
46
330
43
100
AcDbEntity
  8
0
 62
     0
370
    -2
100
AcDbLine
 10
310.4690809061064
 20
185.5857194471864
 30
0.0
 11
310.4690809061064
 21
159.5857194471864
 31
0.0
  0
SOLID
  5
47
330
43
100
AcDbEntity
  8
0
 62
     0
100
AcDbTrace
 10
309.6357475727731
 20
185.5857194471864
 30
0.0
 11
311.3024142394397
 21
185.5857194471864
 31
0.0
 12
310.4690809061064
 22
190.5857194471864
 32
0.0
 13
310.4690809061064
 23
190.5857194471864
 33
0.0
  0
SOLID
  5
48
330
43
100
AcDbEntity
  8
0
 62
     0
100
AcDbTrace
 10
309.6357475727731
 20
159.5857194471864
 30
0.0
 11
311.3024142394397
 21
159.5857194471864
 31
0.0
 12
310.4690809061064
 22
154.5857194471864
 32
0.0
 13
310.4690809061064
 23
154.5857194471864
 33
0.0
  0
MTEXT
  5
49
330
43
100
AcDbEntity
  8
0
 62
     0
100
AcDbMText
 10
305.9690809061064
 20
172.5857194471864
 30
0.0
 40
5.0
 41
0.0
 71
     5
 72
     1
  1
31
 11
0.0000000000000001
 21
1.0
 31
0.0
 73
     1
 44
1.0
  0
POINT
  5
4A
330
43
100
AcDbEntity
  8
Defpoints
 62
     0
100
AcDbPoint
 10
279.2644943093449
 20
190.5857194471864
 30
0.0
  0
POINT
  5
4B
330
43
100
AcDbEntity
  8
Defpoints
 62
     0
100
AcDbPoint
 10
279.2644943093449
 20
154.5857194471864
 30
0.0
  0
POINT
  5
4C
330
43
100
AcDbEntity
  8
Defpoints
 62
     0
100
AcDbPoint
 10
310.4690809061064
 20
154.5857194471864
 30
0.0
  0
ENDBLK
  5
4E
330
43
100
AcDbEntity
  8
0
100
AcDbBlockEnd
  0
BLOCK
  5
1A
330
F
100
AcDbEntity
  8
0
100
AcDbBlockBegin
  2
*D4
 70
     1
 10
0.0
 20
0.0
 30
0.0
  3
*D4
  1

  0
LINE
  5
10
330
F
100
AcDbEntity
  8
0
 62
     0
370
    -2
100
AcDbLine
 10
321.0178560791894
 20
205.5857194471864
 30
0.0
 11
326.9630996186315
 21
205.5857194471864
 31
0.0
  0
LINE
  5
11
330
F
100
AcDbEntity
  8
0
 62
     0
370
    -2
100
AcDbLine
 10
320.5104001033298
 20
139.5857194471864
 30
0.0
 11
326.9630996186315
 21
139.5857194471864
 31
0.0
  0
LINE
  5
12
330
F
100
AcDbEntity
  8
0
 62
     0
370
    -2
100
AcDbLine
 10
325.7130996186315
 20
200.5857194471864
 30
0.0
 11
325.7130996186315
 21
144.5857194471864
 31
0.0
  0
MTEXT
  5
13
330
F
100
AcDbEntity
  8
0
 62
     0
100
AcDbMText
 10
-107.9371395996945
 20
342.4723898076667
 30
0.0
 40
5.0
 41
0.0
 71
     5
 72
     1
  1
66
 11
0.0000000000000001
 21
1.0
 31
0.0
 73
     1
 44
1.0
  0
SOLID
  5
14
330
F
100
AcDbEntity
  8
0
 62
     0
100
AcDbTrace
 10
324.8797662852982
 20
200.5857194471864
 30
0.0
 11
326.5464329519648
 21
200.5857194471864
 31
0.0
 12
325.7130996186315
 22
205.5857194471864
 32
0.0
 13
325.7130996186315
 23
205.5857194471864
 33
0.0
  0
SOLID
  5
15
330
F
100
AcDbEntity
  8
0
 62
     0
100
AcDbTrace
 10
324.8797662852982
 20
144.5857194471864
 30
0.0
 11
326.5464329519648
 21
144.5857194471864
 31
0.0
 12
325.7130996186315
 22
139.5857194471864
 32
0.0
 13
325.7130996186315
 23
139.5857194471864
 33
0.0
  0
POINT
  5
16
330
F
100
AcDbEntity
  8
Defpoints
 62
     0
100
AcDbPoint
 10
320.3928560791894
 20
205.5857194471864
 30
0.0
  0
POINT
  5
18
330
F
100
AcDbEntity
  8
Defpoints
 62
     0
100
AcDbPoint
 10
319.8854001033298
 20
139.5857194471864
 30
0.0
  0
POINT
  5
19
330
F
100
AcDbEntity
  8
Defpoints
 62
     0
100
AcDbPoint
 10
325.7130996186315
 20
139.5857194471864
 30
0.0
  0
ENDBLK
  5
1B
330
F
100
AcDbEntity
  8
0
100
AcDbBlockEnd
  0
ENDSEC
  0
SECTION
  2
ENTITIES
  0
HATCH
  5
3
330
2
100
AcDbEntity
  8
0
100
AcDbHatch
 10
0.0
 20
0.0
 30
0.0
210
0.0
220
0.0
230
1.0
  2
ANSI31
 70
     0
 71
     0
 91
        1
 92
        7
 72
     0
 73
     1
 93
        7
 10
203.4462244784243
 20
205.5857194471864
 10
203.4462244784243
 20
227.5524464964892
 10
169.0760043713478
 20
227.5524464964891
 10
169.0760043713478
 20
117.6189923978836
 10
203.4462244784243
 20
117.6189923978836
 10
203.4462244784243
 20
139.5857194471864
 10
203.4462244784243
 20
172.5857194471864
 97
        0
 75
     0
 76
     1
 52
0.0
 41
2.0
 77
     0
 78
     1
 53
45.0
 43
0.0
 44
0.0
 45
-4.490128060534575
 46
4.490128060534576
 79
     0
 47
0.7021160199991351
 98
        1
 10
178.215999380556
 20
199.467806130385
  0
MTEXT
  5
9
330
2
100
AcDbEntity
  8
0
100
AcDbMText
 10
123.6793929816449
 20
66.19288101367887
 30
0.0
 40
5.0
 41
347.2677465184085
 71
     1
 72
     5
  3
{\fArial|b1|i0|c0|p34;IMPORTANT\P}WHEN USING THIS DETAIL, THE BULKHEAD MUST BE SUFFICIENTLY STRUCTURAL TO SUPPORT THE WEIGHT OF THE MOTORIZED DOOR\P\PWHEN USING THIS DETAIL, THE MOTOR'S MANUAL RELEASE CAN ONLY BE LOCATED IN THE BULKHEAD - IT CANNOT B
  1
E MOUNTED WITHIN THE CAVITY OF THE MIRAGE SUPPORT POST DUE TO INSUFFICIENT SPACE
 73
     1
 44
1.0
  0
LEADER
  5
B
330
2
100
AcDbEntity
  8
0
100
AcDbLeader
  3
ISO-25
 76
     2
 10
222.0912419024714
 20
176.2973866244289
 30
0.0
 10
155.0555605900044
 20
216.3494146900248
 30
0.0
1001
ACAD
1000
DSTYLE
1002
{
1070
   147
1040
2.0
1070
    77
1070
     0
1002
}
  0
DIMENSION
  5
E
330
2
100
AcDbEntity
  8
0
100
AcDbDimension
  2
*D4
 10
325.7130996186315
 20
139.5857194471864
 30
0.0
 11
-107.9371395996945
 21
342.4723898076667
 31
0.0
 70
   128
 71
     5
 42
66.00000000000003
  3
ISO-25
100
AcDbAlignedDimension
 13
320.3928560791894
 23
205.5857194471864
 33
0.0
 14
319.8854001033298
 24
139.5857194471864
 34
0.0
 50
90.0
100
AcDbRotatedDimension
1001
ACAD
1000
DSTYLE
1002
{
1070
   279
1070
     2
1002
}
  0
DIMENSION
  5
1C
102
{ACAD_XDICTIONARY
360
1D
102
}
102
{ACAD_REACTORS
330
1E
102
}
330
2
100
AcDbEntity
  8
0
100
AcDbDimension
  2
*D0
 10
279.2644943093449
 20
103.9800265345069
 30
0.0
 11
-78.71049468441583
 21
320.5643087460798
 31
0.0
 70
   128
 71
     5
 42
75.8182698309206
  3
ISO-25
100
AcDbAlignedDimension
 13
203.4462244784243
 23
139.5857194471864
 33
0.0
 14
279.2644943093449
 24
139.5857194471864
 34
0.0
100
AcDbRotatedDimension
1001
ACAD
1000
DSTYLE
1002
{
1070
    41
1040
5.0
1070
   279
1070
     2
1002
}
  0
MTEXT
  5
2B
330
2
100
AcDbEntity
  8
0
100
AcDbMText
 10
118.3864714884873
 20
226.8218887001946
 30
0.0
 40
5.0
 41
45.83636292103777
 71
     1
 72
     5
  1
REMOVABLE PACKER
 73
     1
 44
1.0
  0
HATCH
  5
2C
330
2
100
AcDbEntity
  8
0
100
AcDbHatch
 10
0.0
 20
0.0
 30
0.0
210
0.0
220
0.0
230
1.0
  2
ANSI31
 70
     0
 71
     1
 91
        1
 92
        7
 72
     0
 73
     1
 93
        4
 10
229.3603847203036
 20
184.5857194471864
 10
219.3603847203037
 20
184.5857194471864
 10
219.3603847203036
 20
160.5857194471864
 10
229.3603847203037
 20
160.5857194471864
 97
        4
330
D3
330
2F
330
6B
330
2D
 75
     0
 76
     1
 52
90.0
 41
0.5
 77
     0
 78
     1
 53
135.0
 43
0.0
 44
0.0
 45
-1.122532015133644
 46
-1.122532015133643
 79
     0
 47
0.2690354720830699
 98
        1
 10
225.9542571392103
 20
169.1021953088718
  0
LINE
  5
2D
102
{ACAD_REACTORS
330
2C
102
}
330
2
100
AcDbEntity
  8
0
100
AcDbLine
 10
229.3603847203037
 20
184.5857194471864
 30
0.0
 11
229.3603847203037
 21
160.5857194471864
 31
0.0
  0
LINE
  5
2E
330
2
100
AcDbEntity
  8
0
100
AcDbLine
 10
218.3603847203037
 20
190.5857194471864
 30
0.0
 11
218.3603847203037
 21
172.5857194471864
 31
0.0
  0
LINE
  5
2F
102
{ACAD_REACTORS
330
2C
102
}
330
2
100
AcDbEntity
  8
0
100
AcDbLine
 10
219.3603847203037
 20
160.5857194471864
 30
0.0
 11
219.3603847203037
 21
184.5857194471864
 31
0.0
  0
LINE
  5
30
330
2
100
AcDbEntity
  8
VE001I25$101
  6
Continuous
100
AcDbLine
 10
232.3124395148244
 20
184.8117468444466
 30
0.0
 11
232.3124395148244
 21
160.3596920499262
 31
0.0
  0
LINE
  5
32
330
2
100
AcDbEntity
  8
VM001I25$010
  6
Continuous
100
AcDbLine
 10
232.3124395148244
 20
184.8117468444466
 30
0.0
 11
232.3124395148244
 21
160.3596920499262
 31
0.0
  0
LINE
  5
34
330
2
100
AcDbEntity
  8
VE001I17$101
  6
Continuous
100
AcDbLine
 10
230.3603847203036
 20
187.5857194471864
 30
0.0
 11
230.3603847203036
 21
173.150787940337
 31
0.0
  0
LINE
  5
36
330
2
100
AcDbEntity
  8
VM001I17$010
  6
Continuous
100
AcDbLine
 10
230.3603847203036
 20
187.5857194471864
 30
0.0
 11
230.3603847203036
 21
173.150787940337
 31
0.0
  0
LINE
  5
38
330
2
100
AcDbEntity
  8
VE001I2$101
  6
Continuous
100
AcDbLine
 10
241.8158641723586
 20
184.8117468444466
 30
0.0
 11
241.8158641723586
 21
160.3596920499262
 31
0.0
  0
LINE
  5
3A
330
2
100
AcDbEntity
  8
VM001I2$010
  6
Continuous
100
AcDbLine
 10
241.8158641723586
 20
184.8117468444466
 30
0.0
 11
241.8158641723586
 21
160.3596920499262
 31
0.0
  0
LINE
  5
3C
330
2
100
AcDbEntity
  8
VE001I23$101
  6
Continuous
100
AcDbLine
 10
243.4083299257833
 20
184.8117468444466
 30
0.0
 11
243.4083299257833
 21
173.150787940337
 31
0.0
  0
LINE
  5
3E
330
2
100
AcDbEntity
  8
VM001I23$010
  6
Continuous
100
AcDbLine
 10
243.4083299257833
 20
184.8117468444466
 30
0.0
 11
243.4083299257833
 21
173.150787940337
 31
0.0
  0
DIMENSION
  5
40
102
{ACAD_XDICTIONARY
360
41
102
}
102
{ACAD_REACTORS
330
42
102
}
330
2
100
AcDbEntity
  8
0
100
AcDbDimension
  2
*D3
 10
310.4690809061064
 20
154.5857194471864
 30
0.0
 11
305.9690809061064
 21
172.5857194471864
 31
0.0
  1
31
 71
     5
 42
36.00000000000003
  3
ISO-25
100
AcDbAlignedDimension
 13
279.2644943093449
 23
190.5857194471864
 33
0.0
 14
279.2644943093449
 24
154.5857194471864
 34
0.0
 50
90.0
100
AcDbRotatedDimension
  0
MTEXT
  5
4F
330
2
100
AcDbEntity
  8
0
100
AcDbMText
 10
336.4932651388419
 20
193.3811890684359
 30
0.0
 40
5.0
 41
122.8199999999999
 71
     1
 72
     5
  1
76mm MINIMUM SLOT IN UNDERSIDE OF BULKHEAD, FOR ENTIRE LENGTH OF ROLLER DOOR, TO ACCOMODATE THE BOTTOM RAIL
 73
     1
 44
1.0
  0
LINE
  5
50
330
2
100
AcDbEntity
  8
0
100
AcDbLine
 10
203.4462244784243
 20
205.5857194471864
 30
0.0
 11
203.4462244784243
 21
172.5857194471864
 31
0.0
  0
MTEXT
  5
51
330
2
100
AcDbEntity
  8
0
100
AcDbMText
 10
333.0022182376774
 20
122.125447139959
 30
0.0
 40
5.0
 41
135.7901999999999
 71
     1
 72
     5
  1
SIDE GUIDE 30WIDE X 48DEEP
 73
     1
 44
1.0
  0
LINE
  5
52
330
2
100
AcDbEntity
  8
0
100
AcDbLine
 10
279.2644943093449
 20
154.5857194471864
 30
0.0
 11
218.3603847203037
 21
154.5857194471864
 31
0.0
  0
LINE
  5
53
330
2
100
AcDbEntity
  8
VE001I26$101
  6
Continuous
100
AcDbLine
 10
244.2302477340024
 20
159.5377742417067
 30
0.0
 11
278.2884669120846
 21
159.5377742417067
 31
0.0
  0
LINE
  5
55
330
2
100
AcDbEntity
  8
VM001I26$010
  6
Continuous
100
AcDbLine
 10
244.2302477340024
 20
159.5377742417067
 30
0.0
 11
278.2884669120846
 21
159.5377742417067
 31
0.0
  0
LINE
  5
57
330
2
100
AcDbEntity
  8
VE001I5$101
  6
Continuous
100
AcDbLine
 10
237.4494258161941
 20
157.5857194471864
 30
0.0
 11
278.2884669120846
 21
157.5857194471864
 31
0.0
  0
LINE
  5
59
330
2
100
AcDbEntity
  8
VM001I5$010
  6
Continuous
100
AcDbLine
 10
237.4494258161941
 20
157.5857194471864
 30
0.0
 11
278.2884669120846
 21
157.5857194471864
 31
0.0
  0
DIMENSION
  5
5B
330
2
100
AcDbEntity
  8
0
100
AcDbDimension
  2
*D1
 10
279.2644943093449
 20
122.3658412546997
 30
0.0
 11
248.8124395148243
 21
126.8658412546997
 31
0.0
  1
58
 71
     5
 42
60.90410958904121
  3
ISO-25
100
AcDbAlignedDimension
 13
218.3603847203037
 23
139.5857194471864
 33
0.0
 14
279.2644943093449
 24
154.5857194471864
 34
0.0
100
AcDbRotatedDimension
1001
ACAD
1000
DSTYLE
1002
{
1070
    41
1040
5.0
1070
   140
1040
5.0
1002
}
  0
LINE
  5
68
102
{ACAD_REACTORS
330
1E
102
}
330
2
100
AcDbEntity
  8
0
100
AcDbLine
 10
279.2644943093449
 20
139.5857194471864
 30
0.0
 11
203.4462244784243
 21
139.5857194471864
 31
0.0
  0
LINE
  5
69
330
2
100
AcDbEntity
  8
0
100
AcDbLine
 10
203.4462244784243
 20
117.6189923978836
 30
0.0
 11
203.4462244784243
 21
139.5857194471864
 31
0.0
  0
MTEXT
  5
6A
330
2
100
AcDbEntity
  8
0
100
AcDbMText
 10
213.5769779599593
 20
98.01794089588112
 30
0.0
 40
5.0
 41
62.11416145481758
 71
     1
 72
     5
  1
MINIMUM 76mm SIDE ROOM EACH GUIDE
 73
     1
 44
1.0
  0
LINE
  5
6B
102
{ACAD_REACTORS
330
2C
102
}
330
2
100
AcDbEntity
  8
0
100
AcDbLine
 10
229.3603847203037
 20
160.5857194471864
 30
0.0
 11
219.3603847203037
 21
160.5857194471864
 31
0.0
  0
LINE
  5
6C
330
2
100
AcDbEntity
  8
0
100
AcDbLine
 10
203.4462244784243
 20
139.5857194471864
 30
0.0
 11
203.4462244784243
 21
172.5857194471864
 31
0.0
  0
LINE
  5
6D
330
2
100
AcDbEntity
  8
0
100
AcDbLine
 10
218.3603847203037
 20
154.5857194471864
 30
0.0
 11
203.4462244784243
 21
139.5857194471864
 31
0.0
  0
LINE
  5
6E
330
2
100
AcDbEntity
  8
0
100
AcDbLine
 10
218.3603847203037
 20
154.5857194471864
 30
0.0
 11
218.3603847203037
 21
172.5857194471864
 31
0.0
  0
ARC
  5
6F
330
2
100
AcDbEntity
  8
VE001I32$101
  6
Continuous
100
AcDbCircle
 10
244.2302477340024
 20
160.3596920499262
 30
0.0
 40
0.8219178082191767
100
AcDbArc
 50
180.0
 51
270.0
  0
ARC
  5
71
330
2
100
AcDbEntity
  8
VM001I32$010
  6
Continuous
100
AcDbCircle
 10
244.2302477340024
 20
160.3596920499262
 30
0.0
 40
0.8219178082191767
100
AcDbArc
 50
180.0
 51
270.0
  0
ARC
  5
73
330
2
100
AcDbEntity
  8
VE001I29$101
  6
Continuous
100
AcDbCircle
 10
240.9939463641391
 20
160.3596920499262
 30
0.0
 40
0.8219178082191767
100
AcDbArc
 50
270.0
 51
0.0
  0
ARC
  5
75
330
2
100
AcDbEntity
  8
VM001I29$010
  6
Continuous
100
AcDbCircle
 10
240.9939463641391
 20
160.3596920499262
 30
0.0
 40
0.8219178082191767
100
AcDbArc
 50
270.0
 51
0.0
  0
ARC
  5
77
330
2
100
AcDbEntity
  8
VE001I34$101
  6
Continuous
100
AcDbCircle
 10
233.1343573230435
 20
160.3596920499262
 30
0.0
 40
0.8219178082191767
100
AcDbArc
 50
180.0
 51
270.0
  0
ARC
  5
79
330
2
100
AcDbEntity
  8
VM001I34$010
  6
Continuous
100
AcDbCircle
 10
233.1343573230435
 20
160.3596920499262
 30
0.0
 40
0.8219178082191767
100
AcDbArc
 50
180.0
 51
270.0
  0
LINE
  5
7B
330
2
100
AcDbEntity
  8
VE001I18$101
  6
Continuous
100
AcDbLine
 10
230.3603847203036
 20
172.0206509540358
 30
0.0
 11
230.3603847203036
 21
157.5857194471864
 31
0.0
  0
LINE
  5
7D
330
2
100
AcDbEntity
  8
VM001I18$010
  6
Continuous
100
AcDbLine
 10
230.3603847203036
 20
172.0206509540358
 30
0.0
 11
230.3603847203036
 21
157.5857194471864
 31
0.0
  0
LINE
  5
7F
330
2
100
AcDbEntity
  8
VE001I6$101
  6
Continuous
100
AcDbLine
 10
230.3603847203036
 20
157.5857194471864
 30
0.0
 11
236.3192888298928
 21
157.5857194471864
 31
0.0
  0
LINE
  5
81
330
2
100
AcDbEntity
  8
VM001I6$010
  6
Continuous
100
AcDbLine
 10
230.3603847203036
 20
157.5857194471864
 30
0.0
 11
236.3192888298928
 21
157.5857194471864
 31
0.0
  0
LINE
  5
83
330
2
100
AcDbEntity
  8
VE001I8$101
  6
Continuous
100
AcDbLine
 10
233.1343573230435
 20
159.5377742417067
 30
0.0
 11
240.9939463641391
 21
159.5377742417067
 31
0.0
  0
LINE
  5
85
330
2
100
AcDbEntity
  8
VM001I8$010
  6
Continuous
100
AcDbLine
 10
233.1343573230435
 20
159.5377742417067
 30
0.0
 11
240.9939463641391
 21
159.5377742417067
 31
0.0
  0
LINE
  5
87
330
2
100
AcDbEntity
  8
VE001I4$101
  6
Continuous
100
AcDbLine
 10
237.1412066381124
 20
157.8939386252686
 30
0.0
 11
237.4494258161941
 21
157.5857194471864
 31
0.0
  0
LINE
  5
89
330
2
100
AcDbEntity
  8
VM001I4$010
  6
Continuous
100
AcDbLine
 10
237.1412066381124
 20
157.8939386252686
 30
0.0
 11
237.4494258161941
 21
157.5857194471864
 31
0.0
  0
LINE
  5
8B
330
2
100
AcDbEntity
  8
VE001I1$101
  6
Continuous
100
AcDbLine
 10
236.6275080079751
 20
157.8939386252686
 30
0.0
 11
236.3192888298928
 21
157.5857194471864
 31
0.0
  0
LINE
  5
8D
330
2
100
AcDbEntity
  8
VM001I1$010
  6
Continuous
100
AcDbLine
 10
236.6275080079751
 20
157.8939386252686
 30
0.0
 11
236.3192888298928
 21
157.5857194471864
 31
0.0
  0
LINE
  5
8F
330
2
100
AcDbEntity
  8
VE001I3$101
  6
Continuous
100
AcDbLine
 10
236.6275080079751
 20
157.8939386252686
 30
0.0
 11
237.1412066381124
 21
157.8939386252686
 31
0.0
  0
LINE
  5
91
330
2
100
AcDbEntity
  8
VM001I3$010
  6
Continuous
100
AcDbLine
 10
236.6275080079751
 20
157.8939386252686
 30
0.0
 11
237.1412066381124
 21
157.8939386252686
 31
0.0
  0
LINE
  5
93
330
2
100
AcDbEntity
  8
VE001I13$101
  6
Continuous
100
AcDbLine
 10
230.6686038983859
 20
172.8425687622548
 30
0.0
 11
230.6686038983859
 21
172.328870132118
 31
0.0
  0
LINE
  5
95
330
2
100
AcDbEntity
  8
VM001I13$010
  6
Continuous
100
AcDbLine
 10
230.6686038983859
 20
172.8425687622548
 30
0.0
 11
230.6686038983859
 21
172.328870132118
 31
0.0
  0
LINE
  5
97
330
2
100
AcDbEntity
  8
VE001I15$101
  6
Continuous
100
AcDbLine
 10
230.6686038983859
 20
172.328870132118
 30
0.0
 11
230.3603847203036
 21
172.0206509540358
 31
0.0
  0
LINE
  5
99
330
2
100
AcDbEntity
  8
VM001I15$010
  6
Continuous
100
AcDbLine
 10
230.6686038983859
 20
172.328870132118
 30
0.0
 11
230.3603847203036
 21
172.0206509540358
 31
0.0
  0
LINE
  5
9B
330
2
100
AcDbEntity
  8
VE001I10$101
  6
Continuous
100
AcDbLine
 10
230.6686038983859
 20
172.8425687622548
 30
0.0
 11
230.3603847203036
 21
173.150787940337
 31
0.0
  0
LINE
  5
9D
330
2
100
AcDbEntity
  8
VM001I10$010
  6
Continuous
100
AcDbLine
 10
230.6686038983859
 20
172.8425687622548
 30
0.0
 11
230.3603847203036
 21
173.150787940337
 31
0.0
  0
LINE
  5
9F
330
2
100
AcDbEntity
  8
VE001I22$101
  6
Continuous
100
AcDbLine
 10
243.4083299257833
 20
172.0206509540358
 30
0.0
 11
243.4083299257833
 21
160.3596920499262
 31
0.0
  0
LINE
  5
A1
330
2
100
AcDbEntity
  8
VM001I22$010
  6
Continuous
100
AcDbLine
 10
243.4083299257833
 20
172.0206509540358
 30
0.0
 11
243.4083299257833
 21
160.3596920499262
 31
0.0
  0
LINE
  5
A3
330
2
100
AcDbEntity
  8
VE001I21$101
  6
Continuous
100
AcDbLine
 10
243.1001107477011
 20
172.8425687622548
 30
0.0
 11
243.1001107477011
 21
172.328870132118
 31
0.0
  0
LINE
  5
A5
330
2
100
AcDbEntity
  8
VM001I21$010
  6
Continuous
100
AcDbLine
 10
243.1001107477011
 20
172.8425687622548
 30
0.0
 11
243.1001107477011
 21
172.328870132118
 31
0.0
  0
LINE
  5
A7
330
2
100
AcDbEntity
  8
VE001I11$101
  6
Continuous
100
AcDbLine
 10
243.1001107477011
 20
172.328870132118
 30
0.0
 11
243.4083299257833
 21
172.0206509540358
 31
0.0
  0
LINE
  5
A9
330
2
100
AcDbEntity
  8
VM001I11$010
  6
Continuous
100
AcDbLine
 10
243.1001107477011
 20
172.328870132118
 30
0.0
 11
243.4083299257833
 21
172.0206509540358
 31
0.0
  0
LINE
  5
AB
330
2
100
AcDbEntity
  8
VE001I7$101
  6
Continuous
100
AcDbLine
 10
243.1001107477011
 20
172.8425687622548
 30
0.0
 11
243.4083299257833
 21
173.150787940337
 31
0.0
  0
LINE
  5
AD
330
2
100
AcDbEntity
  8
VM001I7$010
  6
Continuous
100
AcDbLine
 10
243.1001107477011
 20
172.8425687622548
 30
0.0
 11
243.4083299257833
 21
173.150787940337
 31
0.0
  0
LINE
  5
AF
330
2
100
AcDbEntity
  8
0
  6
ACAD_ISO03W100
 48
0.1
100
AcDbLine
 10
279.2644943093449
 20
139.5857194471864
 30
0.0
 11
325.7130996186315
 21
139.5857194471864
 31
0.0
  0
LEADER
  5
B1
330
2
100
AcDbEntity
  8
0
100
AcDbLeader
  3
ISO-25
 76
     3
 10
278.2884669120846
 20
159.5377742417069
 30
0.0
 10
316.7589575251515
 20
119.6633786046069
 30
0.0
 10
328.8613207737744
 20
119.6633786046069
 30
0.0
1001
ACAD
1000
DSTYLE
1002
{
1070
   147
1040
2.0
1070
    77
1070
     0
1002
}
  0
LINE
  5
B2
330
2
100
AcDbEntity
  8
0
100
AcDbLine
 10
279.2644943093449
 20
154.5857194471864
 30
0.0
 11
279.2644943093449
 21
139.5857194471864
 31
0.0
  0
ARC
  5
B3
330
2
100
AcDbEntity
  8
VE001I27$101
  6
Continuous
100
AcDbCircle
 10
278.2884669120846
 20
158.5617468444466
 30
0.0
 40
0.9760273972602723
100
AcDbArc
 50
270.0
 51
90.0
  0
ARC
  5
B5
330
2
100
AcDbEntity
  8
VM001I27$010
  6
Continuous
100
AcDbCircle
 10
278.2884669120846
 20
158.5617468444466
 30
0.0
 40
0.9760273972602723
100
AcDbArc
 50
270.0
 51
90.0
  0
MTEXT
  5
B7
330
2
100
AcDbEntity
  8
0
100
AcDbMText
 10
335.0075597717331
 20
234.2711265534361
 30
0.0
 40
5.0
 41
135.7902256940235
 71
     1
 72
     5
  1
MIRAGE SQUARE SUPPORT POST - REFER TO TECH SHEET 12
 73
     1
 44
1.0
  0
LINE
  5
B8
102
{ACAD_REACTORS
330
42
102
}
330
2
100
AcDbEntity
  8
0
100
AcDbLine
 10
279.2644943093449
 20
190.5857194471864
 30
0.0
 11
218.3603847203037
 21
190.5857194471864
 31
0.0
  0
LINE
  5
B9
330
2
100
AcDbEntity
  8
VE001I19$101
  6
Continuous
100
AcDbLine
 10
244.2302477340024
 20
185.6336646526656
 30
0.0
 11
278.2884669120846
 21
185.6336646526656
 31
0.0
  0
LINE
  5
BB
330
2
100
AcDbEntity
  8
VM001I19$010
  6
Continuous
100
AcDbLine
 10
244.2302477340024
 20
185.6336646526656
 30
0.0
 11
278.2884669120846
 21
185.6336646526656
 31
0.0
  0
LINE
  5
BD
330
2
100
AcDbEntity
  8
VE001I9$101
  6
Continuous
100
AcDbLine
 10
237.4494258161946
 20
187.5857194471864
 30
0.0
 11
278.2884669120846
 21
187.5857194471864
 31
0.0
  0
LINE
  5
BF
330
2
100
AcDbEntity
  8
VM001I9$010
  6
Continuous
100
AcDbLine
 10
237.4494258161946
 20
187.5857194471864
 30
0.0
 11
278.2884669120846
 21
187.5857194471864
 31
0.0
  0
DIMENSION
  5
C1
102
{ACAD_XDICTIONARY
360
C2
102
}
102
{ACAD_REACTORS
330
C3
102
}
330
2
100
AcDbEntity
  8
0
100
AcDbDimension
  2
*D2
 10
279.2644943093449
 20
219.226803719976
 30
0.0
 11
254.8124395148243
 21
223.726803719976
 31
0.0
  1
48
 71
     5
 42
48.90410958904121
  3
ISO-25
100
AcDbAlignedDimension
 13
230.3603847203036
 23
205.5857194471864
 33
0.0
 14
279.2644943093449
 24
205.5857194471864
 34
0.0
100
AcDbRotatedDimension
1001
ACAD
1000
DSTYLE
1002
{
1070
    41
1040
5.0
1070
   140
1040
5.0
1002
}
  0
LEADER
  5
D0
330
2
100
AcDbEntity
  8
0
100
AcDbLeader
  3
ISO-25
 76
     3
 10
268.6307761492337
 20
198.6230915904727
 30
0.0
 10
317.9048667525917
 20
231.2368864454209
 30
0.0
 10
330.8601498894844
 20
231.2368864454209
 30
0.0
1001
ACAD
1000
DSTYLE
1002
{
1070
   147
1040
2.0
1070
    77
1070
     0
1002
}
  0
LINE
  5
D1
102
{ACAD_REACTORS
330
C3
102
}
330
2
100
AcDbEntity
  8
0
100
AcDbLine
 10
279.2644943093449
 20
205.5857194471864
 30
0.0
 11
203.4462244784243
 21
205.5857194471864
 31
0.0
  0
LINE
  5
D2
330
2
100
AcDbEntity
  8
0
100
AcDbLine
 10
203.4462244784243
 20
205.5857194471864
 30
0.0
 11
203.4462244784243
 21
227.5524464964892
 31
0.0
  0
LINE
  5
D3
102
{ACAD_REACTORS
330
2C
102
}
330
2
100
AcDbEntity
  8
0
100
AcDbLine
 10
219.3603847203037
 20
184.5857194471864
 30
0.0
 11
229.3603847203037
 21
184.5857194471864
 31
0.0
  0
LINE
  5
D4
330
2
100
AcDbEntity
  8
0
100
AcDbLine
 10
203.4462244784243
 20
205.5857194471864
 30
0.0
 11
218.3603847203037
 21
190.5857194471864
 31
0.0
  0
LINE
  5
D5
330
2
100
AcDbEntity
  8
VE001I12$101
  6
Continuous
100
AcDbLine
 10
233.1343573230435
 20
185.6336646526656
 30
0.0
 11
240.9939463641391
 21
185.6336646526656
 31
0.0
  0
LINE
  5
D7
330
2
100
AcDbEntity
  8
VM001I12$010
  6
Continuous
100
AcDbLine
 10
233.1343573230435
 20
185.6336646526656
 30
0.0
 11
240.9939463641391
 21
185.6336646526656
 31
0.0
  0
ARC
  5
D9
330
2
100
AcDbEntity
  8
VE001I28$101
  6
Continuous
100
AcDbCircle
 10
233.1343573230435
 20
184.8117468444466
 30
0.0
 40
0.8219178082191767
100
AcDbArc
 50
90.0
 51
180.0
  0
ARC
  5
DB
330
2
100
AcDbEntity
  8
VM001I28$010
  6
Continuous
100
AcDbCircle
 10
233.1343573230435
 20
184.8117468444466
 30
0.0
 40
0.8219178082191767
100
AcDbArc
 50
90.0
 51
180.0
  0
ARC
  5
DD
330
2
100
AcDbEntity
  8
VE001I31$101
  6
Continuous
100
AcDbCircle
 10
244.2302477340024
 20
184.8117468444466
 30
0.0
 40
0.8219178082191767
100
AcDbArc
 50
90.0
 51
180.0
  0
ARC
  5
DF
330
2
100
AcDbEntity
  8
VM001I31$010
  6
Continuous
100
AcDbCircle
 10
244.2302477340024
 20
184.8117468444466
 30
0.0
 40
0.8219178082191767
100
AcDbArc
 50
90.0
 51
180.0
  0
ARC
  5
E1
330
2
100
AcDbEntity
  8
VE001I33$101
  6
Continuous
100
AcDbCircle
 10
240.9939463641396
 20
184.8117468444466
 30
0.0
 40
0.8219178082191767
100
AcDbArc
 50
0.0
 51
90.0
  0
ARC
  5
E3
330
2
100
AcDbEntity
  8
VM001I33$010
  6
Continuous
100
AcDbCircle
 10
240.9939463641396
 20
184.8117468444466
 30
0.0
 40
0.8219178082191767
100
AcDbArc
 50
0.0
 51
90.0
  0
LINE
  5
E5
330
2
100
AcDbEntity
  8
VE001I16$101
  6
Continuous
100
AcDbLine
 10
230.3603847203036
 20
187.5857194471864
 30
0.0
 11
236.3192888298928
 21
187.5857194471864
 31
0.0
  0
LINE
  5
E7
330
2
100
AcDbEntity
  8
VM001I16$010
  6
Continuous
100
AcDbLine
 10
230.3603847203036
 20
187.5857194471864
 30
0.0
 11
236.3192888298928
 21
187.5857194471864
 31
0.0
  0
LINE
  5
E9
330
2
100
AcDbEntity
  8
VE001I24$101
  6
Continuous
100
AcDbLine
 10
237.1412066381124
 20
187.2775002691041
 30
0.0
 11
237.4494258161946
 21
187.5857194471864
 31
0.0
  0
LINE
  5
EB
330
2
100
AcDbEntity
  8
VM001I24$010
  6
Continuous
100
AcDbLine
 10
237.1412066381124
 20
187.2775002691041
 30
0.0
 11
237.4494258161946
 21
187.5857194471864
 31
0.0
  0
LINE
  5
ED
330
2
100
AcDbEntity
  8
VE001I14$101
  6
Continuous
100
AcDbLine
 10
236.6275080079751
 20
187.2775002691041
 30
0.0
 11
236.3192888298928
 21
187.5857194471864
 31
0.0
  0
LINE
  5
EF
330
2
100
AcDbEntity
  8
VM001I14$010
  6
Continuous
100
AcDbLine
 10
236.6275080079751
 20
187.2775002691041
 30
0.0
 11
236.3192888298928
 21
187.5857194471864
 31
0.0
  0
LINE
  5
F1
330
2
100
AcDbEntity
  8
VE001I20$101
  6
Continuous
100
AcDbLine
 10
236.6275080079751
 20
187.2775002691041
 30
0.0
 11
237.1412066381124
 21
187.2775002691041
 31
0.0
  0
LINE
  5
F3
330
2
100
AcDbEntity
  8
VM001I20$010
  6
Continuous
100
AcDbLine
 10
236.6275080079751
 20
187.2775002691041
 30
0.0
 11
237.1412066381124
 21
187.2775002691041
 31
0.0
  0
LINE
  5
F5
330
2
100
AcDbEntity
  8
0
  6
ACAD_ISO03W100
 48
0.1
100
AcDbLine
 10
279.2644943093449
 20
205.5857194471864
 30
0.0
 11
325.7130996186314
 21
205.5857194471864
 31
0.0
  0
LINE
  5
F6
330
2
100
AcDbEntity
  8
0
100
AcDbLine
 10
279.2644943093449
 20
190.5857194471864
 30
0.0
 11
279.2644943093449
 21
205.5857194471864
 31
0.0
  0
ARC
  5
F7
330
2
100
AcDbEntity
  8
VM001I27$010
  6
Continuous
100
AcDbCircle
 10
278.2884669120846
 20
186.6096920499258
 30
0.0
 40
0.9760273972602723
100
AcDbArc
 50
270.0
 51
90.0
  0
ARC
  5
F8
330
2
100
AcDbEntity
  8
VE001I27$101
  6
Continuous
100
AcDbCircle
 10
278.2884669120846
 20
186.6096920499258
 30
0.0
 40
0.9760273972602723
100
AcDbArc
 50
270.0
 51
90.0
  0
ENDSEC
  0
SECTION
  2
OBJECTS
  0
DICTIONARY
  5
7
330
0
100
AcDbDictionary
281
     1
  3
ACAD_GROUP
350
10E
  3
ACAD_LAYOUT
350
FC
  3
ACAD_MLINESTYLE
350
10F
  3
ACAD_PLOTSETTINGS
350
110
  3
ACAD_PLOTSTYLENAME
350
6
  3
AcDbVariableDictionary
350
117
  0
DICTIONARY
  5
1D
330
1C
100
AcDbDictionary
280
     1
281
     1
  3
ACAD_DIMASSOC
360
1E
  0
DICTIONARY
  5
41
330
40
100
AcDbDictionary
280
     1
281
     1
  3
ACAD_DIMASSOC
360
42
  0
DICTIONARY
  5
C2
330
C1
100
AcDbDictionary
280
     1
281
     1
  3
ACAD_DIMASSOC
360
C3
  0
DICTIONARY
  5
10E
102
{ACAD_REACTORS
330
7
102
}
330
7
100
AcDbDictionary
281
     1
  0
DICTIONARY
  5
FC
102
{ACAD_REACTORS
330
7
102
}
330
7
100
AcDbDictionary
281
     1
  3
MIRAGE
350
100
  3
Model
350
FB
  0
DICTIONARY
  5
10F
102
{ACAD_REACTORS
330
7
102
}
330
7
100
AcDbDictionary
281
     1
  3
Standard
350
111
  0
DICTIONARY
  5
110
102
{ACAD_REACTORS
330
7
102
}
330
7
100
AcDbDictionary
281
     1
  0
ACDBDICTIONARYWDFLT
  5
6
102
{ACAD_REACTORS
330
7
102
}
330
7
100
AcDbDictionary
281
     1
  3
Normal
350
5
100
AcDbDictionaryWithDefault
340
5
  0
DICTIONARY
  5
117
102
{ACAD_REACTORS
330
7
102
}
330
7
100
AcDbDictionary
281
     1
  3
DIMASSOC
350
118
  0
DIMASSOC
  5
1E
102
{ACAD_REACTORS
330
1D
102
}
330
1D
100
AcDbDimAssoc
330
1C
 90
        3
 70
     0
 71
     0
  1
AcDbOsnapPointRef
 72
     1
331
68
 73
     2
 91
        0
 40
1.0
 10
203.4462244784243
 20
139.5857194471864
 30
0.0
 75
     0
  1
AcDbOsnapPointRef
 72
    13
331
68
 73
     2
 91
        0
 40
0.0
 10
279.2644943093449
 20
139.5857194471864
 30
0.0
 75
     0
  0
DIMASSOC
  5
42
102
{ACAD_REACTORS
330
41
102
}
330
41
100
AcDbDimAssoc
330
40
 90
        1
 70
     0
 71
     0
  1
AcDbOsnapPointRef
 72
    13
331
B8
 73
     2
 91
        0
 40
0.0
 10
279.2644943093449
 20
190.5857194471864
 30
0.0
 75
     0
  0
DIMASSOC
  5
C3
102
{ACAD_REACTORS
330
C2
102
}
330
C2
100
AcDbDimAssoc
330
C1
 90
        2
 70
     0
 71
     0
  1
AcDbOsnapPointRef
 72
    13
331
D1
 73
     2
 91
        0
 40
0.0
 10
279.2644943093449
 20
205.5857194471864
 30
0.0
 75
     0
  0
LAYOUT
  5
100
102
{ACAD_REACTORS
330
FC
102
}
330
FC
100
AcDbPlotSettings
  1

  2
HP LaserJet 5N
  4
A4
  6

 40
6.043083190917968
 41
6.720414161682128
 42
7.821090698242187
 43
5.027069091796875
 44
210.0579986572265
 45
296.9259948730469
 46
0.0
 47
0.0
 48
0.0
 49
0.0
140
0.0
141
0.0
142
1.0
143
1.0
 70
   688
 72
     1
 73
     0
 74
     5
  7

 75
    16
147
1.0
148
0.0
149
0.0
100
AcDbLayout
  1
MIRAGE
 70
     1
 71
     1
 10
-6.043083190917968
 20
-6.720414161682128
 11
204.0149154663085
 21
290.2055807113647
 12
0.0
 22
0.0
 32
0.0
 14
-84.0
 24
-0.1575368999165647
 34
0.0
 15
211.0941500469197
 25
282.033201554023
 35
0.0
146
0.0
 13
0.0
 23
0.0
 33
0.0
 16
1.0
 26
0.0
 36
0.0
 17
0.0
 27
1.0
 37
0.0
 76
     0
330
FD
  0
LAYOUT
  5
FB
102
{ACAD_REACTORS
330
FC
102
}
330
FC
100
AcDbPlotSettings
  1

  2
HP LaserJet 5N
  4

  6

 40
0.0
 41
0.0
 42
0.0
 43
0.0
 44
0.0
 45
0.0
 46
0.0
 47
0.0
 48
0.0
 49
0.0
140
0.0
141
0.0
142
1.0
143
1.0
 70
  1712
 72
     0
 73
     0
 74
     0
  7

 75
     0
147
1.0
148
0.0
149
0.0
100
AcDbLayout
  1
Model
 70
     1
 71
     0
 10
0.0
 20
0.0
 11
12.0
 21
9.0
 12
0.0
 22
0.0
 32
0.0
 14
0.0
 24
0.0
 34
0.0
 15
0.0
 25
0.0
 35
0.0
146
0.0
 13
0.0
 23
0.0
 33
0.0
 16
1.0
 26
0.0
 36
0.0
 17
0.0
 27
1.0
 37
0.0
 76
     0
330
2
  0
MLINESTYLE
  5
111
102
{ACAD_REACTORS
330
10F
102
}
330
10F
100
AcDbMlineStyle
  2
STANDARD
 70
     0
  3

 62
   256
 51
90.0
 52
90.0
 71
     2
 49
0.5
 62
   256
  6
BYLAYER
 49
-0.5
 62
   256
  6
BYLAYER
  0
ACDBPLACEHOLDER
  5
5
102
{ACAD_REACTORS
330
6
102
}
330
6
  0
DICTIONARYVAR
  5
118
102
{ACAD_REACTORS
330
117
102
}
330
117
100
DictionaryVariables
280
     0
  1
1
  0
ENDSEC
  0
EOF
