  0
SECTION
  2
HEADER
  9
$ACADVER
  1
AC1015
  9
$ACADMAINTVER
 70
    13
  9
$DWGCODEPAGE
  3
ANSI_1252
  9
$INSBASE
 10
926.9953364134112
 20
784.6943534843896
 30
0.0
  9
$EXTMIN
 10
926.9953360370541
 20
784.6943532120016
 30
0.0
  9
$EXTMAX
 10
2595.948270091147
 20
1900.287408605079
 30
0.0
  9
$LIMMIN
 10
0.0
 20
0.0
  9
$LIMMAX
 10
420.0
 20
297.0
  9
$ORTHOMODE
 70
     0
  9
$REGENMODE
 70
     1
  9
$FILLMODE
 70
     1
  9
$QTEXTMODE
 70
     0
  9
$MIRRTEXT
 70
     1
  9
$LTSCALE
 40
1.0
  9
$ATTMODE
 70
     1
  9
$TEXTSIZE
 40
5.0
  9
$TRACEWID
 40
1.0
  9
$TEXTSTYLE
  7
Standard
  9
$CLAYER
  8
0
  9
$CELTYPE
  6
ByLayer
  9
$CECOLOR
 62
   256
  9
$CELTSCALE
 40
1.0
  9
$DISPSILH
 70
     0
  9
$DIMSCALE
 40
1.0
  9
$DIMASZ
 40
7.5
  9
$DIMEXO
 40
0.625
  9
$DIMDLI
 40
3.75
  9
$DIMRND
 40
0.0
  9
$DIMDLE
 40
0.0
  9
$DIMEXE
 40
1.25
  9
$DIMTP
 40
0.0
  9
$DIMTM
 40
0.0
  9
$DIMTXT
 40
2.5
  9
$DIMCEN
 40
2.5
  9
$DIMTSZ
 40
0.0
  9
$DIMTOL
 70
     0
  9
$DIMLIM
 70
     0
  9
$DIMTIH
 70
     0
  9
$DIMTOH
 70
     0
  9
$DIMSE1
 70
     0
  9
$DIMSE2
 70
     0
  9
$DIMTAD
 70
     1
  9
$DIMZIN
 70
     8
  9
$DIMBLK
  1

  9
$DIMASO
 70
     1
  9
$DIMSHO
 70
     1
  9
$DIMPOST
  1

  9
$DIMAPOST
  1

  9
$DIMALT
 70
     0
  9
$DIMALTD
 70
     3
  9
$DIMALTF
 40
0.03937007874016
  9
$DIMLFAC
 40
1.0
  9
$DIMTOFL
 70
     1
  9
$DIMTVP
 40
0.0
  9
$DIMTIX
 70
     0
  9
$DIMSOXD
 70
     0
  9
$DIMSAH
 70
     0
  9
$DIMBLK1
  1

  9
$DIMBLK2
  1

  9
$DIMSTYLE
  2
ISO-25
  9
$DIMCLRD
 70
     0
  9
$DIMCLRE
 70
     0
  9
$DIMCLRT
 70
     0
  9
$DIMTFAC
 40
1.0
  9
$DIMGAP
 40
0.625
  9
$DIMJUST
 70
     0
  9
$DIMSD1
 70
     0
  9
$DIMSD2
 70
     0
  9
$DIMTOLJ
 70
     0
  9
$DIMTZIN
 70
     8
  9
$DIMALTZ
 70
     0
  9
$DIMALTTZ
 70
     0
  9
$DIMUPT
 70
     0
  9
$DIMDEC
 70
     2
  9
$DIMTDEC
 70
     2
  9
$DIMALTU
 70
     2
  9
$DIMALTTD
 70
     3
  9
$DIMTXSTY
  7
Standard
  9
$DIMAUNIT
 70
     0
  9
$DIMADEC
 70
     0
  9
$DIMALTRND
 40
0.0
  9
$DIMAZIN
 70
     0
  9
$DIMDSEP
 70
    44
  9
$DIMATFIT
 70
     3
  9
$DIMFRAC
 70
     0
  9
$DIMLDRBLK
  1

  9
$DIMLUNIT
 70
     2
  9
$DIMLWD
 70
    -2
  9
$DIMLWE
 70
    -2
  9
$DIMTMOVE
 70
     0
  9
$LUNITS
 70
     2
  9
$LUPREC
 70
     4
  9
$SKETCHINC
 40
1.0
  9
$FILLETRAD
 40
10.0
  9
$AUNITS
 70
     0
  9
$AUPREC
 70
     0
  9
$MENU
  1
.
  9
$ELEVATION
 40
0.0
  9
$PELEVATION
 40
0.0
  9
$THICKNESS
 40
0.0
  9
$LIMCHECK
 70
     0
  9
$CHAMFERA
 40
10.0
  9
$CHAMFERB
 40
10.0
  9
$CHAMFERC
 40
20.0
  9
$CHAMFERD
 40
0.0
  9
$SKPOLY
 70
     0
  9
$TDCREATE
 40
2452723.348062037
  9
$TDUCREATE
 40
2452722.931395370
  9
$TDUPDATE
 40
2453647.417690601
  9
$TDUUPDATE
 40
2453647.001023935
  9
$TDINDWG
 40
0.4648308796
  9
$TDUSRTIMER
 40
0.4648308796
  9
$USRTIMER
 70
     1
  9
$ANGBASE
 50
0.0
  9
$ANGDIR
 70
     0
  9
$PDMODE
 70
     0
  9
$PDSIZE
 40
0.0
  9
$PLINEWID
 40
0.0
  9
$SPLFRAME
 70
     0
  9
$SPLINETYPE
 70
     6
  9
$SPLINESEGS
 70
     8
  9
$HANDSEED
  5
200
  9
$SURFTAB1
 70
     6
  9
$SURFTAB2
 70
     6
  9
$SURFTYPE
 70
     6
  9
$SURFU
 70
     6
  9
$SURFV
 70
     6
  9
$UCSBASE
  2

  9
$UCSNAME
  2

  9
$UCSORG
 10
0.0
 20
0.0
 30
0.0
  9
$UCSXDIR
 10
1.0
 20
0.0
 30
0.0
  9
$UCSYDIR
 10
0.0
 20
1.0
 30
0.0
  9
$UCSORTHOREF
  2

  9
$UCSORTHOVIEW
 70
     0
  9
$UCSORGTOP
 10
0.0
 20
0.0
 30
0.0
  9
$UCSORGBOTTOM
 10
0.0
 20
0.0
 30
0.0
  9
$UCSORGLEFT
 10
0.0
 20
0.0
 30
0.0
  9
$UCSORGRIGHT
 10
0.0
 20
0.0
 30
0.0
  9
$UCSORGFRONT
 10
0.0
 20
0.0
 30
0.0
  9
$UCSORGBACK
 10
0.0
 20
0.0
 30
0.0
  9
$PUCSBASE
  2

  9
$PUCSNAME
  2

  9
$PUCSORG
 10
0.0
 20
0.0
 30
0.0
  9
$PUCSXDIR
 10
1.0
 20
0.0
 30
0.0
  9
$PUCSYDIR
 10
0.0
 20
1.0
 30
0.0
  9
$PUCSORTHOREF
  2

  9
$PUCSORTHOVIEW
 70
     0
  9
$PUCSORGTOP
 10
0.0
 20
0.0
 30
0.0
  9
$PUCSORGBOTTOM
 10
0.0
 20
0.0
 30
0.0
  9
$PUCSORGLEFT
 10
0.0
 20
0.0
 30
0.0
  9
$PUCSORGRIGHT
 10
0.0
 20
0.0
 30
0.0
  9
$PUCSORGFRONT
 10
0.0
 20
0.0
 30
0.0
  9
$PUCSORGBACK
 10
0.0
 20
0.0
 30
0.0
  9
$USERI1
 70
     0
  9
$USERI2
 70
     0
  9
$USERI3
 70
     0
  9
$USERI4
 70
     0
  9
$USERI5
 70
     0
  9
$USERR1
 40
0.0
  9
$USERR2
 40
0.0
  9
$USERR3
 40
0.0
  9
$USERR4
 40
0.0
  9
$USERR5
 40
0.0
  9
$WORLDVIEW
 70
     1
  9
$SHADEDGE
 70
     3
  9
$SHADEDIF
 70
    70
  9
$TILEMODE
 70
     1
  9
$MAXACTVP
 70
    64
  9
$PINSBASE
 10
0.0
 20
0.0
 30
0.0
  9
$PLIMCHECK
 70
     0
  9
$PEXTMIN
 10
-84.0
 20
-0.1575368999165647
 30
0.0
  9
$PEXTMAX
 10
231.0653720154696
 20
282.033201554023
 30
0.0
  9
$PLIMMIN
 10
-6.043083190917968
 20
-6.720414161682128
  9
$PLIMMAX
 10
204.0149154663085
 20
290.2055807113647
  9
$UNITMODE
 70
     0
  9
$VISRETAIN
 70
     1
  9
$PLINEGEN
 70
     0
  9
$PSLTSCALE
 70
     1
  9
$TREEDEPTH
 70
  3020
  9
$CMLSTYLE
  2
Standard
  9
$CMLJUST
 70
     0
  9
$CMLSCALE
 40
20.0
  9
$PROXYGRAPHICS
 70
     1
  9
$MEASUREMENT
 70
     1
  9
$CELWEIGHT
370
    -1
  9
$ENDCAPS
280
     0
  9
$JOINSTYLE
280
     0
  9
$LWDISPLAY
290
     0
  9
$INSUNITS
 70
     4
  9
$HYPERLINKBASE
  1

  9
$STYLESHEET
  1

  9
$XEDIT
290
     1
  9
$CEPSNTYPE
380
     0
  9
$PSTYLEMODE
290
     1
  9
$FINGERPRINTGUID
  2
{EB501956-3997-4F2D-B8E1-A36BFC11541A}
  9
$VERSIONGUID
  2
{2FE675D2-5575-458E-A4DE-86B61435569C}
  9
$EXTNAMES
290
     1
  9
$PSVPSCALE
 40
0.0
  9
$OLESTARTUP
290
     0
  0
ENDSEC
  0
SECTION
  2
CLASSES
  0
CLASS
  1
ACDBDICTIONARYWDFLT
  2
AcDbDictionaryWithDefault
  3
AutoCAD 2000
 90
        0
280
     0
281
     0
  0
CLASS
  1
ACDBPLACEHOLDER
  2
AcDbPlaceHolder
  3
AutoCAD 2000
 90
        0
280
     0
281
     0
  0
CLASS
  1
LAYOUT
  2
AcDbLayout
  3
AutoCAD 2000
 90
        0
280
     0
281
     0
  0
CLASS
  1
DIMASSOC
  2
AcDbDimAssoc
  3
"AcDbDimAssoc|Product Desc:     AcDim ARX App For Dimension|Company:          Autodesk, Inc.|WEB Address:      www.autodesk.com"
 90
        0
280
     0
281
     0
  0
CLASS
  1
DICTIONARYVAR
  2
AcDbDictionaryVar
  3
AutoCAD 2000
 90
        0
280
     0
281
     0
  0
ENDSEC
  0
SECTION
  2
TABLES
  0
TABLE
  2
VPORT
  5
1EE
330
0
100
AcDbSymbolTable
 70
     4
  0
VPORT
  5
1FF
330
1EE
100
AcDbSymbolTableRecord
100
AcDbViewportTableRecord
  2
*Active
 70
     0
 10
0.0
 20
0.0
 11
1.0
 21
1.0
 12
1885.626916803934
 22
1194.225620217117
 13
0.0
 23
0.0
 14
10.0
 24
10.0
 15
10.0
 25
10.0
 16
0.0
 26
0.0
 36
1.0
 17
0.0
 27
0.0
 37
0.0
 40
839.0426168701852
 41
1.786259541984732
 42
50.0
 43
0.0
 44
0.0
 50
0.0
 51
0.0
 71
     0
 72
   100
 73
     1
 74
     3
 75
     0
 76
     0
 77
     0
 78
     0
281
     0
 65
     1
110
0.0
120
0.0
130
0.0
111
1.0
121
0.0
131
0.0
112
0.0
122
1.0
132
0.0
 79
     0
146
0.0
  0
ENDTAB
  0
TABLE
  2
LTYPE
  5
1E9
330
0
100
AcDbSymbolTable
 70
     4
  0
LTYPE
  5
1EA
330
1E9
100
AcDbSymbolTableRecord
100
AcDbLinetypeTableRecord
  2
ByBlock
 70
     0
  3

 72
    65
 73
     0
 40
0.0
  0
LTYPE
  5
1EB
330
1E9
100
AcDbSymbolTableRecord
100
AcDbLinetypeTableRecord
  2
ByLayer
 70
     0
  3

 72
    65
 73
     0
 40
0.0
  0
LTYPE
  5
A
330
1E9
100
AcDbSymbolTableRecord
100
AcDbLinetypeTableRecord
  2
Continuous
 70
     0
  3
Solid line
 72
    65
 73
     0
 40
0.0
  0
LTYPE
  5
39
330
1E9
100
AcDbSymbolTableRecord
100
AcDbLinetypeTableRecord
  2
ACAD_ISO03W100
 70
     0
  3
ISO dash space __    __    __    __    __    __
 72
    65
 73
     2
 40
30.0
 49
12.0
 74
     0
 49
-18.0
 74
     0
  0
LTYPE
  5
3F
330
1E9
100
AcDbSymbolTableRecord
100
AcDbLinetypeTableRecord
  2
DASHED
 70
     0
  3
__ __ __ __ __ __ __ __ __
 72
    65
 73
     2
 40
0.75
 49
0.5
 74
     0
 49
-0.25
 74
     0
  0
LTYPE
  5
BC
330
1E9
100
AcDbSymbolTableRecord
100
AcDbLinetypeTableRecord
  2
CENTER
 70
     0
  3
____ _ ____ _ ____ _ ____
 72
    65
 73
     4
 40
2.0
 49
1.25
 74
     0
 49
-0.25
 74
     0
 49
0.25
 74
     0
 49
-0.25
 74
     0
  0
ENDTAB
  0
TABLE
  2
LAYER
  5
1E6
330
0
100
AcDbSymbolTable
 70
    74
  0
LAYER
  5
6
330
1E6
100
AcDbSymbolTableRecord
100
AcDbLayerTableRecord
  2
0
 70
     0
 62
     7
  6
Continuous
370
    -3
390
7
  0
LAYER
  5
17F
330
1E6
100
AcDbSymbolTableRecord
100
AcDbLayerTableRecord
  2
VM001I1$010
 70
     0
 62
     7
  6
Continuous
370
    -3
390
7
  0
LAYER
  5
181
330
1E6
100
AcDbSymbolTableRecord
100
AcDbLayerTableRecord
  2
VE001I1$101
 70
     0
 62
     7
  6
Continuous
370
    -3
390
7
  0
LAYER
  5
13F
330
1E6
100
AcDbSymbolTableRecord
100
AcDbLayerTableRecord
  2
VM001I2$010
 70
     0
 62
     7
  6
Continuous
370
    -3
390
7
  0
LAYER
  5
141
330
1E6
100
AcDbSymbolTableRecord
100
AcDbLayerTableRecord
  2
VE001I2$101
 70
     0
 62
     7
  6
Continuous
370
    -3
390
7
  0
LAYER
  5
17B
330
1E6
100
AcDbSymbolTableRecord
100
AcDbLayerTableRecord
  2
VM001I3$010
 70
     0
 62
     7
  6
Continuous
370
    -3
390
7
  0
LAYER
  5
17D
330
1E6
100
AcDbSymbolTableRecord
100
AcDbLayerTableRecord
  2
VE001I3$101
 70
     0
 62
     7
  6
Continuous
370
    -3
390
7
  0
LAYER
  5
183
330
1E6
100
AcDbSymbolTableRecord
100
AcDbLayerTableRecord
  2
VM001I4$010
 70
     0
 62
     7
  6
Continuous
370
    -3
390
7
  0
LAYER
  5
185
330
1E6
100
AcDbSymbolTableRecord
100
AcDbLayerTableRecord
  2
VE001I4$101
 70
     0
 62
     7
  6
Continuous
370
    -3
390
7
  0
LAYER
  5
164
330
1E6
100
AcDbSymbolTableRecord
100
AcDbLayerTableRecord
  2
VM001I5$010
 70
     0
 62
     7
  6
Continuous
370
    -3
390
7
  0
LAYER
  5
166
330
1E6
100
AcDbSymbolTableRecord
100
AcDbLayerTableRecord
  2
VE001I5$101
 70
     0
 62
     7
  6
Continuous
370
    -3
390
7
  0
LAYER
  5
128
330
1E6
100
AcDbSymbolTableRecord
100
AcDbLayerTableRecord
  2
VM001I6$010
 70
     0
 62
     7
  6
Continuous
370
    -3
390
7
  0
LAYER
  5
12A
330
1E6
100
AcDbSymbolTableRecord
100
AcDbLayerTableRecord
  2
VE001I6$101
 70
     0
 62
     7
  6
Continuous
370
    -3
390
7
  0
LAYER
  5
16F
330
1E6
100
AcDbSymbolTableRecord
100
AcDbLayerTableRecord
  2
VM001I7$010
 70
     0
 62
     7
  6
Continuous
370
    -3
390
7
  0
LAYER
  5
171
330
1E6
100
AcDbSymbolTableRecord
100
AcDbLayerTableRecord
  2
VE001I7$101
 70
     0
 62
     7
  6
Continuous
370
    -3
390
7
  0
LAYER
  5
124
330
1E6
100
AcDbSymbolTableRecord
100
AcDbLayerTableRecord
  2
VM001I8$010
 70
     0
 62
     7
  6
Continuous
370
    -3
390
7
  0
LAYER
  5
126
330
1E6
100
AcDbSymbolTableRecord
100
AcDbLayerTableRecord
  2
VE001I8$101
 70
     0
 62
     7
  6
Continuous
370
    -3
390
7
  0
LAYER
  5
143
330
1E6
100
AcDbSymbolTableRecord
100
AcDbLayerTableRecord
  2
VM001I9$010
 70
     0
 62
     7
  6
Continuous
370
    -3
390
7
  0
LAYER
  5
145
330
1E6
100
AcDbSymbolTableRecord
100
AcDbLayerTableRecord
  2
VE001I9$101
 70
     0
 62
     7
  6
Continuous
370
    -3
390
7
  0
LAYER
  5
1A9
330
1E6
100
AcDbSymbolTableRecord
100
AcDbLayerTableRecord
  2
VM001I10$010
 70
     0
 62
     7
  6
Continuous
370
    -3
390
7
  0
LAYER
  5
1AB
330
1E6
100
AcDbSymbolTableRecord
100
AcDbLayerTableRecord
  2
VE001I10$101
 70
     0
 62
     7
  6
Continuous
370
    -3
390
7
  0
LAYER
  5
173
330
1E6
100
AcDbSymbolTableRecord
100
AcDbLayerTableRecord
  2
VM001I11$010
 70
     0
 62
     7
  6
Continuous
370
    -3
390
7
  0
LAYER
  5
175
330
1E6
100
AcDbSymbolTableRecord
100
AcDbLayerTableRecord
  2
VE001I11$101
 70
     0
 62
     7
  6
Continuous
370
    -3
390
7
  0
LAYER
  5
11C
330
1E6
100
AcDbSymbolTableRecord
100
AcDbLayerTableRecord
  2
VM001I12$010
 70
     0
 62
     7
  6
Continuous
370
    -3
390
7
  0
LAYER
  5
11E
330
1E6
100
AcDbSymbolTableRecord
100
AcDbLayerTableRecord
  2
VE001I12$101
 70
     0
 62
     7
  6
Continuous
370
    -3
390
7
  0
LAYER
  5
1B9
330
1E6
100
AcDbSymbolTableRecord
100
AcDbLayerTableRecord
  2
VM001I13$010
 70
     0
 62
     7
  6
Continuous
370
    -3
390
7
  0
LAYER
  5
1BB
330
1E6
100
AcDbSymbolTableRecord
100
AcDbLayerTableRecord
  2
VE001I13$101
 70
     0
 62
     7
  6
Continuous
370
    -3
390
7
  0
LAYER
  5
158
330
1E6
100
AcDbSymbolTableRecord
100
AcDbLayerTableRecord
  2
VM001I14$010
 70
     0
 62
     7
  6
Continuous
370
    -3
390
7
  0
LAYER
  5
15A
330
1E6
100
AcDbSymbolTableRecord
100
AcDbLayerTableRecord
  2
VE001I14$101
 70
     0
 62
     7
  6
Continuous
370
    -3
390
7
  0
LAYER
  5
1AD
330
1E6
100
AcDbSymbolTableRecord
100
AcDbLayerTableRecord
  2
VM001I15$010
 70
     0
 62
     7
  6
Continuous
370
    -3
390
7
  0
LAYER
  5
1AF
330
1E6
100
AcDbSymbolTableRecord
100
AcDbLayerTableRecord
  2
VE001I15$101
 70
     0
 62
     7
  6
Continuous
370
    -3
390
7
  0
LAYER
  5
120
330
1E6
100
AcDbSymbolTableRecord
100
AcDbLayerTableRecord
  2
VM001I16$010
 70
     0
 62
     7
  6
Continuous
370
    -3
390
7
  0
LAYER
  5
122
330
1E6
100
AcDbSymbolTableRecord
100
AcDbLayerTableRecord
  2
VE001I16$101
 70
     0
 62
     7
  6
Continuous
370
    -3
390
7
  0
LAYER
  5
199
330
1E6
100
AcDbSymbolTableRecord
100
AcDbLayerTableRecord
  2
VM001I17$010
 70
     0
 62
     7
  6
Continuous
370
    -3
390
7
  0
LAYER
  5
19B
330
1E6
100
AcDbSymbolTableRecord
100
AcDbLayerTableRecord
  2
VE001I17$101
 70
     0
 62
     7
  6
Continuous
370
    -3
390
7
  0
LAYER
  5
1B1
330
1E6
100
AcDbSymbolTableRecord
100
AcDbLayerTableRecord
  2
VM001I18$010
 70
     0
 62
     7
  6
Continuous
370
    -3
390
7
  0
LAYER
  5
1B3
330
1E6
100
AcDbSymbolTableRecord
100
AcDbLayerTableRecord
  2
VE001I18$101
 70
     0
 62
     7
  6
Continuous
370
    -3
390
7
  0
LAYER
  5
147
330
1E6
100
AcDbSymbolTableRecord
100
AcDbLayerTableRecord
  2
VM001I19$010
 70
     0
 62
     7
  6
Continuous
370
    -3
390
7
  0
LAYER
  5
149
330
1E6
100
AcDbSymbolTableRecord
100
AcDbLayerTableRecord
  2
VE001I19$101
 70
     0
 62
     7
  6
Continuous
370
    -3
390
7
  0
LAYER
  5
154
330
1E6
100
AcDbSymbolTableRecord
100
AcDbLayerTableRecord
  2
VM001I20$010
 70
     0
 62
     7
  6
Continuous
370
    -3
390
7
  0
LAYER
  5
156
330
1E6
100
AcDbSymbolTableRecord
100
AcDbLayerTableRecord
  2
VE001I20$101
 70
     0
 62
     7
  6
Continuous
370
    -3
390
7
  0
LAYER
  5
18F
330
1E6
100
AcDbSymbolTableRecord
100
AcDbLayerTableRecord
  2
VM001I21$010
 70
     0
 62
     7
  6
Continuous
370
    -3
390
7
  0
LAYER
  5
191
330
1E6
100
AcDbSymbolTableRecord
100
AcDbLayerTableRecord
  2
VE001I21$101
 70
     0
 62
     7
  6
Continuous
370
    -3
390
7
  0
LAYER
  5
187
330
1E6
100
AcDbSymbolTableRecord
100
AcDbLayerTableRecord
  2
VM001I22$010
 70
     0
 62
     7
  6
Continuous
370
    -3
390
7
  0
LAYER
  5
189
330
1E6
100
AcDbSymbolTableRecord
100
AcDbLayerTableRecord
  2
VE001I22$101
 70
     0
 62
     7
  6
Continuous
370
    -3
390
7
  0
LAYER
  5
13B
330
1E6
100
AcDbSymbolTableRecord
100
AcDbLayerTableRecord
  2
VM001I23$010
 70
     0
 62
     7
  6
Continuous
370
    -3
390
7
  0
LAYER
  5
13D
330
1E6
100
AcDbSymbolTableRecord
100
AcDbLayerTableRecord
  2
VE001I23$101
 70
     0
 62
     7
  6
Continuous
370
    -3
390
7
  0
LAYER
  5
15C
330
1E6
100
AcDbSymbolTableRecord
100
AcDbLayerTableRecord
  2
VM001I24$010
 70
     0
 62
     7
  6
Continuous
370
    -3
390
7
  0
LAYER
  5
15E
330
1E6
100
AcDbSymbolTableRecord
100
AcDbLayerTableRecord
  2
VE001I24$101
 70
     0
 62
     7
  6
Continuous
370
    -3
390
7
  0
LAYER
  5
19D
330
1E6
100
AcDbSymbolTableRecord
100
AcDbLayerTableRecord
  2
VM001I25$010
 70
     0
 62
     7
  6
Continuous
370
    -3
390
7
  0
LAYER
  5
19F
330
1E6
100
AcDbSymbolTableRecord
100
AcDbLayerTableRecord
  2
VE001I25$101
 70
     0
 62
     7
  6
Continuous
370
    -3
390
7
  0
LAYER
  5
168
330
1E6
100
AcDbSymbolTableRecord
100
AcDbLayerTableRecord
  2
VM001I26$010
 70
     0
 62
     7
  6
Continuous
370
    -3
390
7
  0
LAYER
  5
16A
330
1E6
100
AcDbSymbolTableRecord
100
AcDbLayerTableRecord
  2
VE001I26$101
 70
     0
 62
     7
  6
Continuous
370
    -3
390
7
  0
LAYER
  5
14D
330
1E6
100
AcDbSymbolTableRecord
100
AcDbLayerTableRecord
  2
VM001I27$010
 70
     0
 62
     7
  6
Continuous
370
    -3
390
7
  0
LAYER
  5
14B
330
1E6
100
AcDbSymbolTableRecord
100
AcDbLayerTableRecord
  2
VE001I27$101
 70
     0
 62
     7
  6
Continuous
370
    -3
390
7
  0
LAYER
  5
1A3
330
1E6
100
AcDbSymbolTableRecord
100
AcDbLayerTableRecord
  2
VM001I28$010
 70
     0
 62
     7
  6
Continuous
370
    -3
390
7
  0
LAYER
  5
1A5
330
1E6
100
AcDbSymbolTableRecord
100
AcDbLayerTableRecord
  2
VE001I28$101
 70
     0
 62
     7
  6
Continuous
370
    -3
390
7
  0
LAYER
  5
177
330
1E6
100
AcDbSymbolTableRecord
100
AcDbLayerTableRecord
  2
VM001I29$010
 70
     0
 62
     7
  6
Continuous
370
    -3
390
7
  0
LAYER
  5
179
330
1E6
100
AcDbSymbolTableRecord
100
AcDbLayerTableRecord
  2
VE001I29$101
 70
     0
 62
     7
  6
Continuous
370
    -3
390
7
  0
LAYER
  5
160
330
1E6
100
AcDbSymbolTableRecord
100
AcDbLayerTableRecord
  2
VM001I31$010
 70
     0
 62
     7
  6
Continuous
370
    -3
390
7
  0
LAYER
  5
162
330
1E6
100
AcDbSymbolTableRecord
100
AcDbLayerTableRecord
  2
VE001I31$101
 70
     0
 62
     7
  6
Continuous
370
    -3
390
7
  0
LAYER
  5
18B
330
1E6
100
AcDbSymbolTableRecord
100
AcDbLayerTableRecord
  2
VM001I32$010
 70
     0
 62
     7
  6
Continuous
370
    -3
390
7
  0
LAYER
  5
18D
330
1E6
100
AcDbSymbolTableRecord
100
AcDbLayerTableRecord
  2
VE001I32$101
 70
     0
 62
     7
  6
Continuous
370
    -3
390
7
  0
LAYER
  5
150
330
1E6
100
AcDbSymbolTableRecord
100
AcDbLayerTableRecord
  2
VM001I33$010
 70
     0
 62
     7
  6
Continuous
370
    -3
390
7
  0
LAYER
  5
152
330
1E6
100
AcDbSymbolTableRecord
100
AcDbLayerTableRecord
  2
VE001I33$101
 70
     0
 62
     7
  6
Continuous
370
    -3
390
7
  0
LAYER
  5
1B5
330
1E6
100
AcDbSymbolTableRecord
100
AcDbLayerTableRecord
  2
VM001I34$010
 70
     0
 62
     7
  6
Continuous
370
    -3
390
7
  0
LAYER
  5
1B7
330
1E6
100
AcDbSymbolTableRecord
100
AcDbLayerTableRecord
  2
VE001I34$101
 70
     0
 62
     7
  6
Continuous
370
    -3
390
7
  0
LAYER
  5
15
330
1E6
100
AcDbSymbolTableRecord
100
AcDbLayerTableRecord
  2
Defpoints
 70
     0
 62
     7
  6
Continuous
290
     0
370
    -3
390
7
  0
LAYER
  5
BE
330
1E6
100
AcDbSymbolTableRecord
100
AcDbLayerTableRecord
  2
W018
 70
     0
 62
     1
  6
Continuous
370
    -3
390
7
  0
LAYER
  5
A9
330
1E6
100
AcDbSymbolTableRecord
100
AcDbLayerTableRecord
  2
SHAFT
 70
     0
 62
     7
  6
Continuous
370
    -3
390
7
  0
LAYER
  5
89
330
1E6
100
AcDbSymbolTableRecord
100
AcDbLayerTableRecord
  2
CURTAIN
 70
     0
 62
     7
  6
Continuous
370
    -3
390
7
  0
LAYER
  5
87
330
1E6
100
AcDbSymbolTableRecord
100
AcDbLayerTableRecord
  2
DISC-DRUM
 70
     0
 62
     7
  6
Continuous
370
    -3
390
7
  0
LAYER
  5
85
330
1E6
100
AcDbSymbolTableRecord
100
AcDbLayerTableRecord
  2
DRIVE
 70
     0
 62
     7
  6
Continuous
370
    -3
390
7
  0
LAYER
  5
DC
330
1E6
100
AcDbSymbolTableRecord
100
AcDbLayerTableRecord
  2
SLEEVE
 70
     0
 62
     7
  6
Continuous
370
    -3
390
7
  0
ENDTAB
  0
TABLE
  2
STYLE
  5
1E7
330
0
100
AcDbSymbolTable
 70
     2
  0
STYLE
  5
B
330
1E7
100
AcDbSymbolTableRecord
100
AcDbTextStyleTableRecord
  2
Standard
 70
     0
 40
5.0
 41
1.0
 50
0.0
 71
     0
 42
5.0
  3
txt.shx
  4

  0
STYLE
  5
C6
330
1E7
100
AcDbSymbolTableRecord
100
AcDbTextStyleTableRecord
  2
ATTR
 70
     0
 40
0.684582934343954
 41
0.8
 50
0.0
 71
     0
 42
0.684582934343954
  3
romans.shx
  4

  0
ENDTAB
  0
TABLE
  2
VIEW
  5
1EC
330
0
100
AcDbSymbolTable
 70
     0
  0
ENDTAB
  0
TABLE
  2
UCS
  5
1ED
330
0
100
AcDbSymbolTable
 70
     0
  0
ENDTAB
  0
TABLE
  2
APPID
  5
1F0
330
0
100
AcDbSymbolTable
 70
     1
  0
APPID
  5
1A
330
1F0
100
AcDbSymbolTableRecord
100
AcDbRegAppTableRecord
  2
ACAD
 70
     0
  0
ENDTAB
  0
TABLE
  2
DIMSTYLE
  5
1F1
330
0
100
AcDbSymbolTable
 70
     1
100
AcDbDimStyleTable
 71
     1
340
C
  0
DIMSTYLE
105
C
102
{ACAD_REACTORS
330
103
330
12B
330
106
330
70
330
1B
330
3
330
1CF
102
}
330
1F1
100
AcDbSymbolTableRecord
100
AcDbDimStyleTableRecord
  2
ISO-25
 70
     0
 41
7.5
 42
0.625
 43
3.75
 44
1.25
 73
     0
 74
     0
 77
     1
 78
     8
140
2.5
141
2.5
143
0.03937007874016
147
0.625
171
     3
172
     1
271
     2
272
     2
274
     3
278
    44
283
     0
284
     8
340
B
  0
ENDTAB
  0
TABLE
  2
BLOCK_RECORD
  5
1
330
0
100
AcDbSymbolTable
 70
     7
  0
BLOCK_RECORD
  5
2
330
1
100
AcDbSymbolTableRecord
100
AcDbBlockTableRecord
  2
*Model_Space
340
1E0
  0
BLOCK_RECORD
  5
1E2
330
1
100
AcDbSymbolTableRecord
100
AcDbBlockTableRecord
  2
*Paper_Space
340
1E5
  0
BLOCK_RECORD
  5
C7
330
1
100
AcDbSymbolTableRecord
100
AcDbBlockTableRecord
  2
HN8S
340
0
102
{BLKREFS
331
C4
102
}
  0
BLOCK_RECORD
  5
12E
330
1
100
AcDbSymbolTableRecord
100
AcDbBlockTableRecord
  2
*D1
340
0
  0
BLOCK_RECORD
  5
109
330
1
100
AcDbSymbolTableRecord
100
AcDbBlockTableRecord
  2
*D2
340
0
  0
BLOCK_RECORD
  5
71
330
1
100
AcDbSymbolTableRecord
100
AcDbBlockTableRecord
  2
*D3
340
0
  0
BLOCK_RECORD
  5
1E
330
1
100
AcDbSymbolTableRecord
100
AcDbBlockTableRecord
  2
*D4
340
0
  0
BLOCK_RECORD
  5
D
330
1
100
AcDbSymbolTableRecord
100
AcDbBlockTableRecord
  2
*D5
340
0
  0
BLOCK_RECORD
  5
1D2
330
1
100
AcDbSymbolTableRecord
100
AcDbBlockTableRecord
  2
*D6
340
0
  0
ENDTAB
  0
ENDSEC
  0
SECTION
  2
BLOCKS
  0
BLOCK
  5
1DE
330
2
100
AcDbEntity
  8
0
100
AcDbBlockBegin
  2
*Model_Space
 70
     0
 10
0.0
 20
0.0
 30
0.0
  3
*Model_Space
  1

  0
ENDBLK
  5
1DF
330
2
100
AcDbEntity
  8
0
100
AcDbBlockEnd
  0
BLOCK
  5
1E3
330
1E2
100
AcDbEntity
 67
     1
  8
0
100
AcDbBlockBegin
  2
*Paper_Space
 70
     0
 10
0.0
 20
0.0
 30
0.0
  3
*Paper_Space
  1

  0
ENDBLK
  5
1E4
330
1E2
100
AcDbEntity
 67
     1
  8
0
100
AcDbBlockEnd
  0
BLOCK
  5
D5
330
C7
100
AcDbEntity
  8
0
100
AcDbBlockBegin
  2
HN8S
 70
     2
 10
0.0
 20
0.0
 30
0.0
  3
HN8S
  1

  0
ATTDEF
  5
C8
330
C7
100
AcDbEntity
  8
0
100
AcDbText
 10
0.0
 20
0.0
 30
0.0
 40
0.328970833333334
  1

 41
0.8
  7
ATTR
100
AcDbAttributeDefinition
  3

  2
ESTCODE
 70
     9
  0
ARC
  5
C9
330
C7
100
AcDbEntity
  8
0
  6
Continuous
 62
     0
100
AcDbCircle
 10
-3.978864384775
 20
-5.540505749675001
 30
0.0
 40
3.403010615225
100
AcDbArc
 50
147.13278
 51
212.86722
  0
ARC
  5
CA
330
C7
100
AcDbEntity
  8
0
  6
Continuous
 62
     0
100
AcDbCircle
 10
-3.403010615225
 20
-5.540505749675001
 30
0.0
 40
3.403010615225
100
AcDbArc
 50
327.13278
 51
32.86722000000003
  0
LINE
  5
CB
330
C7
100
AcDbEntity
  8
0
  6
Continuous
 62
     0
100
AcDbLine
 10
-0.5448204654749903
 20
-7.387340786312498
 30
0.0
 11
-6.837054534525009
 21
-7.387340786312505
 31
0.0
  0
ARC
  5
CC
330
C7
100
AcDbEntity
  8
0
  6
Continuous
 62
     0
100
AcDbCircle
 10
-3.978864384775
 20
5.540505749674994
 30
0.0
 40
3.403010615225
100
AcDbArc
 50
147.13278
 51
212.86722
  0
LINE
  5
CD
330
C7
100
AcDbEntity
  8
0
  6
Continuous
 62
     0
100
AcDbLine
 10
-7.381874999999999
 20
-5.540505749675001
 30
0.0
 11
-7.381874999999999
 21
5.540505749674994
 31
0.0
  0
ARC
  5
CE
330
C7
100
AcDbEntity
  8
0
  6
Continuous
 62
     0
100
AcDbCircle
 10
-3.403010615225
 20
5.540505749674994
 30
0.0
 40
3.403010615225
100
AcDbArc
 50
327.13278
 51
32.86722000000003
  0
LINE
  5
CF
330
C7
100
AcDbEntity
  8
0
  6
Continuous
 62
     0
100
AcDbLine
 10
0.0
 20
-5.540505749675001
 30
0.0
 11
0.0
 21
5.540505749674994
 31
0.0
  0
ARC
  5
D0
330
C7
100
AcDbEntity
  8
0
  6
Continuous
 62
     0
100
AcDbCircle
 10
5.413375
 20
0.0
 30
0.0
 40
12.79525
100
AcDbArc
 50
163.22135
 51
196.77865
  0
ARC
  5
D1
330
C7
100
AcDbEntity
  8
0
  6
Continuous
 62
     0
100
AcDbCircle
 10
-12.79525
 20
0.0
 30
0.0
 40
12.79525
100
AcDbArc
 50
343.2213500000001
 51
16.77865000000007
  0
LINE
  5
D2
330
C7
100
AcDbEntity
  8
0
  6
Continuous
 62
     0
100
AcDbLine
 10
-0.5448204654749903
 20
-3.693670073274994
 30
0.0
 11
-6.837054534525009
 21
-3.693670073275007
 31
0.0
  0
LINE
  5
D3
330
C7
100
AcDbEntity
  8
0
  6
Continuous
 62
     0
100
AcDbLine
 10
-0.5448204654749903
 20
3.693670073274994
 30
0.0
 11
-6.837054534525009
 21
3.693670073274994
 31
0.0
  0
LINE
  5
D4
330
C7
100
AcDbEntity
  8
0
  6
Continuous
 62
     0
100
AcDbLine
 10
-0.5448204654749903
 20
7.387340786312505
 30
0.0
 11
-6.837054534525009
 21
7.387340786312492
 31
0.0
  0
ENDBLK
  5
D6
330
C7
100
AcDbEntity
  8
0
100
AcDbBlockEnd
  0
BLOCK
  5
138
330
12E
100
AcDbEntity
  8
0
100
AcDbBlockBegin
  2
*D1
 70
     1
 10
0.0
 20
0.0
 30
0.0
  3
*D1
  1

  0
LINE
  5
12F
330
12E
100
AcDbEntity
  8
0
 62
     0
370
    -2
100
AcDbLine
 10
2163.975652393928
 20
1349.493034744531
 30
0.0
 11
2132.567970511792
 21
1349.493034744531
 31
0.0
  0
LINE
  5
130
330
12E
100
AcDbEntity
  8
0
 62
     0
370
    -2
100
AcDbLine
 10
2163.975652393928
 20
1313.103007455821
 30
0.0
 11
2132.567970511792
 21
1313.103007455821
 31
0.0
  0
LINE
  5
131
330
12E
100
AcDbEntity
  8
0
 62
     0
370
    -2
100
AcDbLine
 10
2133.817970511792
 20
1341.993034744531
 30
0.0
 11
2133.817970511792
 21
1320.603007455821
 31
0.0
  0
MTEXT
  5
132
330
12E
100
AcDbEntity
  8
0
 62
     0
100
AcDbMText
 10
2128.632203676849
 20
1332.253684661049
 30
0.0
 40
5.0
 41
0.0
 71
     5
 72
     1
  1
31
 11
0.0000000000000001
 21
1.0
 31
0.0
 73
     1
 44
1.0
  0
SOLID
  5
133
330
12E
100
AcDbEntity
  8
0
 62
     0
100
AcDbTrace
 10
2132.567970511792
 20
1341.993034744531
 30
0.0
 11
2135.067970511792
 21
1341.993034744531
 31
0.0
 12
2133.817970511792
 22
1349.493034744531
 32
0.0
 13
2133.817970511792
 23
1349.493034744531
 33
0.0
  0
SOLID
  5
134
330
12E
100
AcDbEntity
  8
0
 62
     0
100
AcDbTrace
 10
2132.567970511792
 20
1320.603007455821
 30
0.0
 11
2135.067970511792
 21
1320.603007455821
 31
0.0
 12
2133.817970511792
 22
1313.103007455821
 32
0.0
 13
2133.817970511792
 23
1313.103007455821
 33
0.0
  0
POINT
  5
135
330
12E
100
AcDbEntity
  8
Defpoints
 62
     0
100
AcDbPoint
 10
2164.600652393928
 20
1349.493034744531
 30
0.0
  0
POINT
  5
136
330
12E
100
AcDbEntity
  8
Defpoints
 62
     0
100
AcDbPoint
 10
2164.600652393928
 20
1313.103007455821
 30
0.0
  0
POINT
  5
137
330
12E
100
AcDbEntity
  8
Defpoints
 62
     0
100
AcDbPoint
 10
2133.817970511792
 20
1313.103007455821
 30
0.0
  0
ENDBLK
  5
139
330
12E
100
AcDbEntity
  8
0
100
AcDbBlockEnd
  0
BLOCK
  5
113
330
109
100
AcDbEntity
  8
0
100
AcDbBlockBegin
  2
*D2
 70
     1
 10
0.0
 20
0.0
 30
0.0
  3
*D2
  1

  0
LINE
  5
10A
330
109
100
AcDbEntity
  8
0
 62
     0
370
    -2
100
AcDbLine
 10
2164.600652393928
 20
1263.755790503684
 30
0.0
 11
2164.600652393928
 21
1250.153117279134
 31
0.0
  0
LINE
  5
10B
330
109
100
AcDbEntity
  8
0
 62
     0
370
    -2
100
AcDbLine
 10
2216.563409400696
 20
1291.456725411543
 30
0.0
 11
2216.563409400696
 21
1250.153117279134
 31
0.0
  0
LINE
  5
10C
330
109
100
AcDbEntity
  8
0
 62
     0
370
    -2
100
AcDbLine
 10
2172.100652393928
 20
1251.403117279134
 30
0.0
 11
2209.063409400696
 21
1251.403117279134
 31
0.0
  0
MTEXT
  5
10D
330
109
100
AcDbEntity
  8
0
 62
     0
100
AcDbMText
 10
2191.230389159082
 20
1255.750566200711
 30
0.0
 40
5.0
 41
0.0
 71
     5
 72
     1
  1
48
 73
     1
 44
1.0
  0
SOLID
  5
10E
330
109
100
AcDbEntity
  8
0
 62
     0
100
AcDbTrace
 10
2172.100652393928
 20
1252.653117279134
 30
0.0
 11
2172.100652393928
 21
1250.153117279134
 31
0.0
 12
2164.600652393928
 22
1251.403117279134
 32
0.0
 13
2164.600652393928
 23
1251.403117279134
 33
0.0
  0
SOLID
  5
10F
330
109
100
AcDbEntity
  8
0
 62
     0
100
AcDbTrace
 10
2209.063409400696
 20
1252.653117279134
 30
0.0
 11
2209.063409400696
 21
1250.153117279134
 31
0.0
 12
2216.563409400696
 22
1251.403117279134
 32
0.0
 13
2216.563409400696
 23
1251.403117279134
 33
0.0
  0
POINT
  5
110
330
109
100
AcDbEntity
  8
Defpoints
 62
     0
100
AcDbPoint
 10
2164.600652393928
 20
1264.380790503684
 30
0.0
  0
POINT
  5
111
330
109
100
AcDbEntity
  8
Defpoints
 62
     0
100
AcDbPoint
 10
2216.563409400696
 20
1292.081725411543
 30
0.0
  0
POINT
  5
112
330
109
100
AcDbEntity
  8
Defpoints
 62
     0
100
AcDbPoint
 10
2216.563409400696
 20
1251.403117279134
 30
0.0
  0
ENDBLK
  5
114
330
109
100
AcDbEntity
  8
0
100
AcDbBlockEnd
  0
BLOCK
  5
7B
330
71
100
AcDbEntity
  8
0
100
AcDbBlockBegin
  2
*D3
 70
     1
 10
0.0
 20
0.0
 30
0.0
  3
*D3
  1

  0
LINE
  5
72
330
71
100
AcDbEntity
  8
0
 62
     0
370
    -2
100
AcDbLine
 10
2164.600652393928
 20
1263.130790503684
 30
0.0
 11
2164.600652393928
 21
1230.469739273812
 31
0.0
  0
LINE
  5
73
330
71
100
AcDbEntity
  8
0
 62
     0
370
    -2
100
AcDbLine
 10
2234.563409400696
 20
1291.861542071218
 30
0.0
 11
2234.563409400696
 21
1230.469739273812
 31
0.0
  0
LINE
  5
74
330
71
100
AcDbEntity
  8
0
 62
     0
370
    -2
100
AcDbLine
 10
2172.100652393928
 20
1231.719739273811
 30
0.0
 11
2227.063409400697
 21
1231.719739273811
 31
0.0
  0
MTEXT
  5
75
330
71
100
AcDbEntity
  8
0
 62
     0
100
AcDbMText
 10
2200.548365473572
 20
1236.10616408602
 30
0.0
 40
5.0
 41
0.0
 71
     5
 72
     1
  1
66
 73
     1
 44
1.0
  0
SOLID
  5
76
330
71
100
AcDbEntity
  8
0
 62
     0
100
AcDbTrace
 10
2172.100652393928
 20
1232.969739273811
 30
0.0
 11
2172.100652393928
 21
1230.469739273812
 31
0.0
 12
2164.600652393928
 22
1231.719739273811
 32
0.0
 13
2164.600652393928
 23
1231.719739273811
 33
0.0
  0
SOLID
  5
77
330
71
100
AcDbEntity
  8
0
 62
     0
100
AcDbTrace
 10
2227.063409400697
 20
1232.969739273811
 30
0.0
 11
2227.063409400697
 21
1230.469739273812
 31
0.0
 12
2234.563409400696
 22
1231.719739273811
 32
0.0
 13
2234.563409400696
 23
1231.719739273811
 33
0.0
  0
POINT
  5
78
330
71
100
AcDbEntity
  8
Defpoints
 62
     0
100
AcDbPoint
 10
2164.600652393928
 20
1263.755790503684
 30
0.0
  0
POINT
  5
79
330
71
100
AcDbEntity
  8
Defpoints
 62
     0
100
AcDbPoint
 10
2234.563409400696
 20
1292.486542071218
 30
0.0
  0
POINT
  5
7A
330
71
100
AcDbEntity
  8
Defpoints
 62
     0
100
AcDbPoint
 10
2234.563409400696
 20
1231.719739273811
 30
0.0
  0
ENDBLK
  5
7C
330
71
100
AcDbEntity
  8
0
100
AcDbBlockEnd
  0
BLOCK
  5
28
330
1E
100
AcDbEntity
  8
0
100
AcDbBlockBegin
  2
*D4
 70
     1
 10
0.0
 20
0.0
 30
0.0
  3
*D4
  1

  0
LINE
  5
1F
330
1E
100
AcDbEntity
  8
0
 62
     0
370
    -2
100
AcDbLine
 10
2101.941610467581
 20
1369.298021100176
 30
0.0
 11
2100.404578577762
 21
1369.298021100176
 31
0.0
  0
LINE
  5
20
330
1E
100
AcDbEntity
  8
0
 62
     0
370
    -2
100
AcDbLine
 10
2101.941610467581
 20
1293.298021100176
 30
0.0
 11
2100.404578577762
 21
1293.298021100176
 31
0.0
  0
LINE
  5
21
330
1E
100
AcDbEntity
  8
0
 62
     0
370
    -2
100
AcDbLine
 10
2101.654578577762
 20
1361.798021100176
 30
0.0
 11
2101.654578577762
 21
1300.798021100176
 31
0.0
  0
MTEXT
  5
22
330
1E
100
AcDbEntity
  8
0
 62
     0
100
AcDbMText
 10
929.4953360370541
 20
1574.054508619052
 30
0.0
 40
5.0
 41
0.0
 71
     5
 72
     1
  1
76
 11
0.0000000000000001
 21
1.0
 31
0.0
 73
     1
 44
1.0
  0
SOLID
  5
23
330
1E
100
AcDbEntity
  8
0
 62
     0
100
AcDbTrace
 10
2100.404578577762
 20
1361.798021100176
 30
0.0
 11
2102.904578577762
 21
1361.798021100176
 31
0.0
 12
2101.654578577762
 22
1369.298021100176
 32
0.0
 13
2101.654578577762
 23
1369.298021100176
 33
0.0
  0
SOLID
  5
24
330
1E
100
AcDbEntity
  8
0
 62
     0
100
AcDbTrace
 10
2100.404578577762
 20
1300.798021100176
 30
0.0
 11
2102.904578577762
 21
1300.798021100176
 31
0.0
 12
2101.654578577762
 22
1293.298021100176
 32
0.0
 13
2101.654578577762
 23
1293.298021100176
 33
0.0
  0
POINT
  5
25
330
1E
100
AcDbEntity
  8
Defpoints
 62
     0
100
AcDbPoint
 10
2102.566610467582
 20
1369.298021100176
 30
0.0
  0
POINT
  5
26
330
1E
100
AcDbEntity
  8
Defpoints
 62
     0
100
AcDbPoint
 10
2102.566610467582
 20
1293.298021100176
 30
0.0
  0
POINT
  5
27
330
1E
100
AcDbEntity
  8
Defpoints
 62
     0
100
AcDbPoint
 10
2101.654578577762
 20
1293.298021100176
 30
0.0
  0
ENDBLK
  5
29
330
1E
100
AcDbEntity
  8
0
100
AcDbBlockEnd
  0
BLOCK
  5
18
330
D
100
AcDbEntity
  8
0
100
AcDbBlockBegin
  2
*D5
 70
     1
 10
0.0
 20
0.0
 30
0.0
  3
*D5
  1

  0
LINE
  5
E
330
D
100
AcDbEntity
  8
0
 62
     0
370
    -2
100
AcDbLine
 10
2164.600652393928
 20
1211.454884106736
 30
0.0
 11
2164.600652393928
 21
1193.508555216474
 31
0.0
  0
LINE
  5
F
330
D
100
AcDbEntity
  8
0
 62
     0
370
    -2
100
AcDbLine
 10
2313.041275295268
 20
1311.134995132674
 30
0.0
 11
2313.041275295268
 21
1193.508555216474
 31
0.0
  0
LINE
  5
10
330
D
100
AcDbEntity
  8
0
 62
     0
370
    -2
100
AcDbLine
 10
2172.100652393928
 20
1194.758555216474
 30
0.0
 11
2305.541275295268
 21
1194.758555216474
 31
0.0
  0
MTEXT
  5
11
330
D
100
AcDbEntity
  8
0
 62
     0
100
AcDbMText
 10
1127.272402529149
 20
1897.370741938412
 30
0.0
 40
5.0
 41
0.0
 71
     5
 72
     1
  1
148,44
 73
     1
 44
1.0
  0
SOLID
  5
12
330
D
100
AcDbEntity
  8
0
 62
     0
100
AcDbTrace
 10
2172.100652393928
 20
1196.008555216474
 30
0.0
 11
2172.100652393928
 21
1193.508555216474
 31
0.0
 12
2164.600652393928
 22
1194.758555216474
 32
0.0
 13
2164.600652393928
 23
1194.758555216474
 33
0.0
  0
SOLID
  5
13
330
D
100
AcDbEntity
  8
0
 62
     0
100
AcDbTrace
 10
2305.541275295268
 20
1196.008555216474
 30
0.0
 11
2305.541275295268
 21
1193.508555216474
 31
0.0
 12
2313.041275295268
 22
1194.758555216474
 32
0.0
 13
2313.041275295268
 23
1194.758555216474
 33
0.0
  0
POINT
  5
14
330
D
100
AcDbEntity
  8
Defpoints
 62
     0
100
AcDbPoint
 10
2164.600652393928
 20
1212.079884106737
 30
0.0
  0
POINT
  5
16
330
D
100
AcDbEntity
  8
Defpoints
 62
     0
100
AcDbPoint
 10
2313.041275295268
 20
1311.759995132674
 30
0.0
  0
POINT
  5
17
330
D
100
AcDbEntity
  8
Defpoints
 62
     0
100
AcDbPoint
 10
2313.041275295268
 20
1194.758555216474
 30
0.0
  0
ENDBLK
  5
19
330
D
100
AcDbEntity
  8
0
100
AcDbBlockEnd
  0
BLOCK
  5
1DC
330
1D2
100
AcDbEntity
  8
0
100
AcDbBlockBegin
  2
*D6
 70
     1
 10
0.0
 20
0.0
 30
0.0
  3
*D6
  1

  0
LINE
  5
1D3
330
1D2
100
AcDbEntity
  8
0
 62
     0
370
    -2
100
AcDbLine
 10
2313.041275295268
 20
1316.184995132674
 30
0.0
 11
2313.041275295268
 21
1326.47557051637
 31
0.0
  0
LINE
  5
1D4
330
1D2
100
AcDbEntity
  8
0
 62
     0
370
    -2
100
AcDbLine
 10
2412.966534195462
 20
1222.704884106736
 30
0.0
 11
2412.966534195462
 21
1326.47557051637
 31
0.0
  0
LINE
  5
1D5
330
1D2
100
AcDbEntity
  8
0
 62
     0
370
    -2
100
AcDbLine
 10
2320.541275295269
 20
1325.22557051637
 30
0.0
 11
2405.466534195463
 21
1325.22557051637
 31
0.0
  0
SOLID
  5
1D6
330
1D2
100
AcDbEntity
  8
0
 62
     0
100
AcDbTrace
 10
2320.541275295269
 20
1326.47557051637
 30
0.0
 11
2320.541275295269
 21
1323.97557051637
 31
0.0
 12
2313.041275295268
 22
1325.22557051637
 32
0.0
 13
2313.041275295268
 23
1325.22557051637
 33
0.0
  0
SOLID
  5
1D7
330
1D2
100
AcDbEntity
  8
0
 62
     0
100
AcDbTrace
 10
2405.466534195463
 20
1326.47557051637
 30
0.0
 11
2405.466534195463
 21
1323.97557051637
 31
0.0
 12
2412.966534195462
 22
1325.22557051637
 32
0.0
 13
2412.966534195462
 23
1325.22557051637
 33
0.0
  0
MTEXT
  5
1D8
330
1D2
100
AcDbEntity
  8
0
 62
     0
100
AcDbMText
 10
2363.003904745365
 20
1336.683903849703
 30
0.0
 40
5.0
 41
0.0
 71
     5
 72
     1
  1
RECOMMENDED\PMINIMUM OF\P100MM
 73
     1
 44
1.0
  0
POINT
  5
1D9
330
1D2
100
AcDbEntity
  8
Defpoints
 62
     0
100
AcDbPoint
 10
2313.041275295268
 20
1315.559995132674
 30
0.0
  0
POINT
  5
1DA
330
1D2
100
AcDbEntity
  8
Defpoints
 62
     0
100
AcDbPoint
 10
2412.966534195462
 20
1222.079884106736
 30
0.0
  0
POINT
  5
1DB
330
1D2
100
AcDbEntity
  8
Defpoints
 62
     0
100
AcDbPoint
 10
2412.966534195462
 20
1325.22557051637
 30
0.0
  0
ENDBLK
  5
1DD
330
1D2
100
AcDbEntity
  8
0
100
AcDbBlockEnd
  0
ENDSEC
  0
SECTION
  2
ENTITIES
  0
DIMENSION
  5
3
102
{ACAD_XDICTIONARY
360
4
102
}
102
{ACAD_REACTORS
330
5
102
}
330
2
100
AcDbEntity
  8
0
100
AcDbDimension
  2
*D5
 10
2313.041275295268
 20
1194.758555216474
 30
0.0
 11
1127.272402529149
 21
1897.370741938412
 31
0.0
 70
   128
 71
     5
 42
148.4406229013407
  3
ISO-25
100
AcDbAlignedDimension
 13
2164.600652393928
 23
1212.079884106737
 33
0.0
 14
2313.041275295268
 24
1311.759995132674
 34
0.0
100
AcDbRotatedDimension
1001
ACAD
1000
DSTYLE
1002
{
1070
   279
1070
     2
1002
}
  0
DIMENSION
  5
1B
102
{ACAD_XDICTIONARY
360
1C
102
}
102
{ACAD_REACTORS
330
1D
102
}
330
2
100
AcDbEntity
  8
0
100
AcDbDimension
  2
*D4
 10
2101.654578577762
 20
1293.298021100176
 30
0.0
 11
929.4953360370541
 21
1574.054508619052
 31
0.0
 70
   128
 71
     5
 42
76.0
  3
ISO-25
100
AcDbAlignedDimension
 13
2102.566610467582
 23
1369.298021100176
 33
0.0
 14
2102.566610467582
 24
1293.298021100176
 34
0.0
 50
90.0
100
AcDbRotatedDimension
1001
ACAD
1000
DSTYLE
1002
{
1070
   279
1070
     2
1002
}
  0
LEADER
  5
2A
330
2
100
AcDbEntity
  8
0
100
AcDbLeader
  3
ISO-25
 76
     2
 10
2308.59354381328
 20
1009.324177164605
 30
0.0
 10
2308.59354381328
 20
940.2817553718429
 30
0.0
1001
ACAD
1000
DSTYLE
1002
{
1070
   147
1040
0.625
1070
    77
1070
     0
1002
}
  0
LINE
  5
2B
330
2
100
AcDbEntity
  8
0
100
AcDbLine
 10
2441.17103952158
 20
989.8853389002642
 30
0.0
 11
2441.17103952158
 21
897.4567620493319
 31
0.0
  0
LINE
  5
2C
330
2
100
AcDbEntity
  8
0
100
AcDbLine
 10
2440.148209515952
 20
989.7802144239408
 30
0.0
 11
2440.148209515952
 21
897.4567620493319
 31
0.0
  0
LINE
  5
2D
330
2
100
AcDbEntity
  8
0
100
AcDbLine
 10
2184.209056646642
 20
984.5015426936452
 30
0.0
 11
2184.209056646642
 21
852.085409061007
 31
0.0
  0
LINE
  5
2E
330
2
100
AcDbEntity
  8
0
100
AcDbLine
 10
2468.40398363013
 20
1036.101542693645
 30
0.0
 11
2468.40398363013
 21
852.085409061007
 31
0.0
  0
LINE
  5
2F
330
2
100
AcDbEntity
  8
0
100
AcDbLine
 10
2416.730807269823
 20
984.501542693645
 30
0.0
 11
2416.730807269823
 21
852.085409061007
 31
0.0
  0
MTEXT
  5
30
330
2
100
AcDbEntity
  8
0
100
AcDbMText
 10
2014.800860561589
 20
1018.362092205812
 30
0.0
 40
5.0
 41
93.46603002709443
 71
     1
 72
     5
  3
REMOVABLE SOFFIT ACCESS PANELS, DIVIDED INTO MANAGEABLE SECTIONS OVER ENTIRE LENGTH OF THE OPENING. THIS IS TO PROVIDE FUTURE ACCESS FOR SERVICING AND ADJUSTMENT OF MOTOR LIMITS.\P\PPLEASE NOTE: THE ENTIRE SOFFIT AND REAR OF THE COLUMN MUST BE LEFT C
  1
LEAR UNTIL THE DOOR HAS BEEN INSTALLED
 73
     1
 44
1.0
  0
LINE
  5
31
330
2
100
AcDbEntity
  8
0
100
AcDbLine
 10
2132.535880286335
 20
1036.101542693645
 30
0.0
 11
2132.535880286334
 21
852.085409061007
 31
0.0
  0
MTEXT
  5
32
330
2
100
AcDbEntity
  8
0
100
AcDbMText
 10
2291.591452790685
 20
811.3610198786693
 30
0.0
 40
10.0
 41
496.2817
 71
     2
 72
     5
  1
ELEVATION OF DOOR OPENING WITH \PCUTAWAY SECTION OF CMU DRUM INSTALLED IN BULKHEAD
 73
     1
 44
1.0
  0
MTEXT
  5
33
330
2
100
AcDbEntity
  8
0
100
AcDbMText
 10
2505.917657610471
 20
885.3739467180876
 30
0.0
 40
5.0
 41
88.21339999999999
 71
     1
 72
     5
  1
HINGED ACCESS DOOR TO MANUAL RELEASE CABLE
 73
     1
 44
1.0
  0
MTEXT
  5
34
330
2
100
AcDbEntity
  8
0
100
AcDbMText
 10
2237.858997064617
 20
934.0305244489989
 30
0.0
 40
5.0
 41
138.2718396020535
 71
     1
 72
     5
  1
CMU DRUM INSTALLED IN BULKHEAD.\PACCESS ESSENTIAL FOR LIMIT ADJUSTMENT AND SERVICE
 73
     1
 44
1.0
  0
LEADER
  5
35
330
2
100
AcDbEntity
  8
0
100
AcDbLeader
  3
ISO-25
 76
     2
 10
2165.30296471604
 20
874.2490719554709
 30
0.0
 10
2213.023411949245
 20
874.2490719554709
 30
0.0
1001
ACAD
1000
DSTYLE
1002
{
1070
   147
1040
0.625
1070
    77
1070
     0
1002
}
  0
LINE
  5
36
330
2
100
AcDbEntity
  8
0
100
AcDbLine
 10
2184.209056646642
 20
852.085409061007
 30
0.0
 11
2132.535880286334
 21
852.085409061007
 31
0.0
  0
MTEXT
  5
37
330
2
100
AcDbEntity
  8
0
100
AcDbMText
 10
2213.949044934712
 20
875.4024982481485
 30
0.0
 40
5.0
 41
88.21339999999999
 71
     1
 72
     5
  1
COLUMN
 73
     1
 44
1.0
  0
LINE
  5
38
330
2
100
AcDbEntity
  8
0
  6
ACAD_ISO03W100
 48
0.5
100
AcDbLine
 10
2396.734217252214
 20
926.1974128000032
 30
0.0
 11
2485.860306489667
 21
926.1974128000032
 31
0.0
  0
LEADER
  5
3A
330
2
100
AcDbEntity
  8
0
100
AcDbLeader
  3
ISO-25
 76
     2
 10
2436.036749881714
 20
885.0733983650128
 30
0.0
 10
2378.269839044769
 20
885.0733983650128
 30
0.0
1001
ACAD
1000
DSTYLE
1002
{
1070
   147
1040
0.625
1070
    77
1070
     0
1002
}
  0
MTEXT
  5
3B
330
2
100
AcDbEntity
  8
0
100
AcDbMText
 10
2338.964601161245
 20
893.7258825220553
 30
0.0
 40
5.0
 41
88.21343297334337
 71
     1
 72
     5
  1
MANUAL RELEASE CABLE
 73
     1
 44
1.0
  0
MTEXT
  5
3C
330
2
100
AcDbEntity
  8
0
100
AcDbMText
 10
2401.519474922359
 20
949.2286112986688
 30
0.0
 40
5.0
 41
6.456332465491769
 71
     1
 72
     5
  1
A
 73
     1
 44
1.0
  0
LEADER
  5
3D
330
2
100
AcDbEntity
  8
0
  6
ACAD_ISO03W100
100
AcDbLeader
  3
ISO-25
 76
     2
 10
2403.056696008192
 20
926.1974128000032
 30
0.0
 10
2403.056696008192
 20
941.6189046386273
 30
0.0
1001
ACAD
1000
DSTYLE
1002
{
1070
   147
1040
0.625
1070
    77
1070
     0
1002
}
  0
LWPOLYLINE
  5
3E
330
2
100
AcDbEntity
  8
0
  6
DASHED
 48
8.0
100
AcDbPolyline
 90
        4
 70
     1
 43
0.0
 10
2425.882836433278
 20
905.1064341249102
 10
2458.154941501235
 20
905.1064341249102
 10
2458.154941501235
 20
863.5492562796311
 10
2425.882836433278
 20
863.5492562796311
  0
LEADER
  5
40
330
2
100
AcDbEntity
  8
0
100
AcDbLeader
  3
ISO-25
 76
     2
 10
2451.498425548856
 20
871.033418601506
 30
0.0
 10
2499.965554916979
 20
871.033418601506
 30
0.0
1001
ACAD
1000
DSTYLE
1002
{
1070
   147
1040
0.625
1070
    77
1070
     0
1002
}
  0
LINE
  5
41
330
2
100
AcDbEntity
  8
0
100
AcDbLine
 10
2416.730807269823
 20
852.085409061007
 30
0.0
 11
2468.40398363013
 21
852.085409061007
 31
0.0
  0
LINE
  5
42
330
2
100
AcDbEntity
  8
0
100
AcDbLine
 10
2443.310909575666
 20
881.4967969091078
 30
0.0
 11
2438.192463072306
 21
881.4967969091078
 31
0.0
  0
ARC
  5
43
330
2
100
AcDbEntity
  8
0
100
AcDbCircle
 10
2437.850276037576
 20
892.4025066712108
 30
0.0
 40
0.996111038006931
100
AcDbArc
 50
271.4637394111845
 51
354.5747172776512
  0
LINE
  5
44
330
2
100
AcDbEntity
  8
0
100
AcDbLine
 10
2443.100501592322
 20
894.2156684204903
 30
0.0
 11
2438.192463072306
 21
894.2156684204903
 31
0.0
  0
LINE
  5
45
330
2
100
AcDbEntity
  8
0
100
AcDbLine
 10
2438.192463072306
 20
897.4567620493319
 30
0.0
 11
2443.100501592322
 21
897.4567620493319
 31
0.0
  0
ARC
  5
46
330
2
100
AcDbEntity
  8
0
100
AcDbCircle
 10
2438.192463072306
 20
894.5324105026941
 30
0.0
 40
0.3167420822037064
100
AcDbArc
 50
180.0
 51
270.0
  0
ARC
  5
47
330
2
100
AcDbEntity
  8
0
100
AcDbCircle
 10
2438.192463072306
 20
897.1400199671283
 30
0.0
 40
0.3167420822037064
100
AcDbArc
 50
90.00000000000003
 51
180.0
  0
LINE
  5
48
330
2
100
AcDbEntity
  8
0
100
AcDbLine
 10
2437.875720990103
 20
897.1400199671283
 30
0.0
 11
2437.875720990103
 21
894.5324105026941
 31
0.0
  0
ARC
  5
49
330
2
100
AcDbEntity
  8
0
100
AcDbCircle
 10
2438.192463072306
 20
881.8135389913114
 30
0.0
 40
0.3167420822037064
100
AcDbArc
 50
180.0
 51
270.0
  0
LINE
  5
4A
330
2
100
AcDbEntity
  8
0
100
AcDbLine
 10
2437.875720990103
 20
885.3566792580259
 30
0.0
 11
2437.875720990103
 21
891.406720672901
 31
0.0
  0
LINE
  5
4B
330
2
100
AcDbEntity
  8
0
100
AcDbLine
 10
2437.875720990103
 20
883.4120231191647
 30
0.0
 11
2437.875720990103
 21
881.8135389913114
 31
0.0
  0
LINE
  5
4C
330
2
100
AcDbEntity
  8
0
100
AcDbLine
 10
2437.875720990103
 20
885.3566792580259
 30
0.0
 11
2437.875720990103
 21
883.4120231191647
 31
0.0
  0
LINE
  5
4D
330
2
100
AcDbEntity
  8
0
100
AcDbLine
 10
2440.217303558759
 20
893.3427932476901
 30
0.0
 11
2441.484271887574
 21
893.3427932476901
 31
0.0
  0
LINE
  5
4E
330
2
100
AcDbEntity
  8
0
100
AcDbLine
 10
2440.217303558759
 20
893.1438877619811
 30
0.0
 11
2441.484271887574
 21
893.1438877619811
 31
0.0
  0
LINE
  5
4F
330
2
100
AcDbEntity
  8
0
100
AcDbLine
 10
2440.217303558759
 20
892.7866275424779
 30
0.0
 11
2441.484271887574
 21
892.7866275424779
 31
0.0
  0
LINE
  5
50
330
2
100
AcDbEntity
  8
0
100
AcDbLine
 10
2440.217303558759
 20
892.9855330281869
 30
0.0
 11
2441.484271887574
 21
892.9855330281869
 31
0.0
  0
LINE
  5
51
330
2
100
AcDbEntity
  8
0
100
AcDbLine
 10
2440.217303558759
 20
893.7000534671931
 30
0.0
 11
2441.484271887574
 21
893.7000534671931
 31
0.0
  0
LINE
  5
52
330
2
100
AcDbEntity
  8
0
100
AcDbLine
 10
2440.217303558759
 20
893.5011479814841
 30
0.0
 11
2441.484271887574
 21
893.5011479814841
 31
0.0
  0
LINE
  5
53
330
2
100
AcDbEntity
  8
0
100
AcDbLine
 10
2440.217303558759
 20
893.8584082009873
 30
0.0
 11
2441.484271887574
 21
893.8584082009873
 31
0.0
  0
LINE
  5
54
330
2
100
AcDbEntity
  8
0
100
AcDbLine
 10
2440.217303558759
 20
894.0573136866962
 30
0.0
 11
2441.484271887574
 21
894.0573136866962
 31
0.0
  0
ARC
  5
55
330
2
100
AcDbEntity
  8
0
100
AcDbCircle
 10
2443.100501592322
 20
894.5324105026941
 30
0.0
 40
0.3167420822037064
100
AcDbArc
 50
270.0
 51
0.0000000000000636
  0
ARC
  5
56
330
2
100
AcDbEntity
  8
0
100
AcDbCircle
 10
2443.100501592322
 20
897.1400199671283
 30
0.0
 40
0.3167420822037064
100
AcDbArc
 50
0.0
 51
90.0
  0
LINE
  5
57
330
2
100
AcDbEntity
  8
0
100
AcDbLine
 10
2443.417243674526
 20
897.1400199671283
 30
0.0
 11
2443.417243674526
 21
894.5324105026941
 31
0.0
  0
ARC
  5
58
330
2
100
AcDbEntity
  8
0
100
AcDbCircle
 10
2439.15724802324
 20
892.2783795430877
 30
0.0
 40
0.3167420822037064
100
AcDbArc
 50
90.0
 51
174.5747172776515
  0
ARC
  5
59
330
2
100
AcDbEntity
  8
0
100
AcDbCircle
 10
2443.310909575666
 20
881.8135389913114
 30
0.0
 40
0.3167420822037064
100
AcDbArc
 50
270.0
 51
33.11387721780994
  0
ARC
  5
5A
330
2
100
AcDbEntity
  8
0
100
AcDbCircle
 10
2443.143897198751
 20
892.2783795430877
 30
0.0
 40
0.3167420822037064
100
AcDbArc
 50
329.6544150514823
 51
90.00000000000063
  0
LINE
  5
5B
330
2
100
AcDbEntity
  8
0
100
AcDbLine
 10
2441.484271887574
 20
892.5951216252915
 30
0.0
 11
2441.484271887574
 21
894.2156684204903
 31
0.0
  0
LINE
  5
5C
330
2
100
AcDbEntity
  8
0
100
AcDbLine
 10
2440.217303558759
 20
892.5951216252915
 30
0.0
 11
2440.217303558759
 21
894.2156684204903
 31
0.0
  0
LINE
  5
5D
330
2
100
AcDbEntity
  8
0
100
AcDbLine
 10
2443.143897198751
 20
892.5951216252915
 30
0.0
 11
2439.15724802324
 21
892.5951216252915
 31
0.0
  0
ARC
  5
5E
330
2
100
AcDbEntity
  8
0
100
AcDbCircle
 10
2444.93947769151
 20
891.2272097379092
 30
0.0
 40
1.763898988546859
100
AcDbArc
 50
149.6544150514821
 51
235.4845777692781
  0
ARC
  5
5F
330
2
100
AcDbEntity
  8
0
100
AcDbCircle
 10
2444.93947769151
 20
885.7715215483038
 30
0.0
 40
1.763898988546859
100
AcDbArc
 50
129.149190680978
 51
235.4845777692781
  0
ARC
  5
60
330
2
100
AcDbEntity
  8
0
100
AcDbCircle
 10
2445.053626290659
 20
882.9502032850147
 30
0.0
 40
1.763898988546859
100
AcDbArc
 50
129.149190680978
 51
213.1138772178101
  0
ARC
  5
61
330
2
100
AcDbEntity
  8
0
100
AcDbCircle
 10
2445.053626290659
 20
888.4058914746201
 30
0.0
 40
1.763898988546859
100
AcDbArc
 50
129.1491906809798
 51
225.8886023490148
  0
LEADER
  5
62
330
2
100
AcDbEntity
  8
0
  6
ACAD_ISO03W100
100
AcDbLeader
  3
ISO-25
 76
     2
 10
2480.14155619642
 20
926.1974128000032
 30
0.0
 10
2480.14155619642
 20
941.6189046386273
 30
0.0
1001
ACAD
1000
DSTYLE
1002
{
1070
   147
1040
0.625
1070
    77
1070
     0
1002
}
  0
MTEXT
  5
63
330
2
100
AcDbEntity
  8
0
100
AcDbMText
 10
2478.227057036318
 20
948.7065515820752
 30
0.0
 40
5.0
 41
88.21339999999999
 71
     1
 72
     5
  1
A
 73
     1
 44
1.0
  0
LINE
  5
64
330
2
100
AcDbEntity
  8
0
100
AcDbLine
 10
2409.845468040817
 20
964.3857527949117
 30
0.0
 11
2106.794521370204
 21
964.3857527949117
 31
0.0
  0
LINE
  5
65
330
2
100
AcDbEntity
  8
0
  6
ACAD_ISO03W100
 48
0.5
100
AcDbLine
 10
2045.856187099562
 20
1293.298021100176
 30
0.0
 11
2164.600652393928
 21
1293.298021100176
 31
0.0
  0
LINE
  5
66
102
{ACAD_REACTORS
330
1D
102
}
330
2
100
AcDbEntity
  8
0
  6
ACAD_ISO03W100
 48
0.5
100
AcDbLine
 10
2045.066774402474
 20
1369.298021100176
 30
0.0
 11
2164.600652393928
 21
1369.298021100176
 31
0.0
  0
MTEXT
  5
67
330
2
100
AcDbEntity
  8
0
100
AcDbMText
 10
2103.531370084323
 20
1064.052047945321
 30
0.0
 40
5.0
 41
87.57519999999999
 71
     1
 72
     5
  1
ALTERNATIVE END ACCESS PANEL
 73
     1
 44
1.0
  0
MTEXT
  5
68
330
2
100
AcDbEntity
  8
0
100
AcDbMText
 10
2078.400708730334
 20
1415.130963292939
 30
0.0
 40
5.0
 41
59.4505
 71
     1
 72
     5
  1
SIDE GUIDE\P30WIDE X 48DEEP
 73
     1
 44
1.0
  0
MTEXT
  5
69
330
2
100
AcDbEntity
  8
0
100
AcDbMText
 10
2108.177753688583
 20
1451.003012049475
 30
0.0
 40
5.0
 41
53.82589970465279
 71
     1
 72
     5
  1
{\LOUTSIDE}
 73
     1
 44
1.0
  0
MTEXT
  5
6A
330
2
100
AcDbEntity
  8
0
100
AcDbMText
 10
2106.74732065639
 20
1219.130959884071
 30
0.0
 40
5.0
 41
52.59109660093374
 71
     1
 72
     5
  1
{\LINSIDE}
 73
     1
 44
1.0
  0
MTEXT
  5
6B
330
2
100
AcDbEntity
  8
0
100
AcDbMText
 10
1987.081298456458
 20
1349.459826815507
 30
0.0
 40
5.0
 41
116.9449134660868
 71
     1
 72
     5
  1
76mm MINIMUM SLOT IN UNDERSIDE OF BULKHEAD, FOR ENTIRE LENGTH OF ROLLER DOOR, TO ACCOMODATE BOTTOM RAIL
 73
     1
 44
1.0
  0
MTEXT
  5
6C
330
2
100
AcDbEntity
  8
0
100
AcDbMText
 10
2474.281603424482
 20
999.9567931885824
 30
0.0
 40
5.0
 41
137.3218
 71
     1
 72
     5
  1
TO 4-PIN SOCKET \P(WITHIN 1M OF BRACKET END)\P(SEE 4-PIN PLUG ASSEMBLY TECH 7D)
 73
     1
 44
1.0
  0
MTEXT
  5
6D
330
2
100
AcDbEntity
  8
0
100
AcDbMText
 10
2446.743519802909
 20
1063.367629464214
 30
0.0
 40
5.0
 41
87.88055990339703
 71
     1
 72
     5
  1
ALTERNATIVE END ACCESS PANEL
 73
     1
 44
1.0
  0
MTEXT
  5
6E
330
2
100
AcDbEntity
  8
0
100
AcDbMText
 10
2444.535999118006
 20
1390.077193218813
 30
0.0
 40
5.0
 41
106.8025999999999
 71
     1
 72
     5
  1
75X75X4 RHS STEEL POST FIXED BETWEEN THE FLOOR AND THE BUILDING STRUCTURE ABOVE THE ROLLER SHUTTER DRUM, TO SUPPORT THE ROLLER SHUTTER. (SUPPLIED BY OTHERS)
 73
     1
 44
1.0
  0
MTEXT
  5
6F
330
2
100
AcDbEntity
  8
0
100
AcDbMText
 10
2384.565739962455
 20
1492.575958864345
 30
0.0
 40
5.0
 41
139.1135301868773
 71
     1
 72
     5
  1
OUTSIDE HINGED ACCESS DOOR IF REQUIRED TO ENABLE ACCESS TO THE MANUAL RELEASE CABLE
 73
     1
 44
1.0
  0
DIMENSION
  5
70
330
2
100
AcDbEntity
  8
0
100
AcDbDimension
  2
*D3
 10
2234.563409400696
 20
1231.719739273811
 30
0.0
 11
2200.548365473572
 21
1236.10616408602
 31
0.0
 70
   128
  1
66
 71
     5
 42
69.9627570067687
  3
ISO-25
100
AcDbAlignedDimension
 13
2164.600652393928
 23
1263.755790503684
 33
0.0
 14
2234.563409400696
 24
1292.486542071218
 34
0.0
100
AcDbRotatedDimension
1001
ACAD
1000
DSTYLE
1002
{
1070
   279
1070
     2
1002
}
  0
LINE
  5
7D
102
{ACAD_REACTORS
330
12D
330
108
102
}
330
2
100
AcDbEntity
  8
0
100
AcDbLine
 10
2164.600652393928
 20
1313.103007455821
 30
0.0
 11
2164.600652393928
 21
1217.079884106737
 31
0.0
  0
LINE
  5
7E
330
2
100
AcDbEntity
  8
0
100
AcDbLine
 10
2174.600652393928
 20
1313.103007455821
 30
0.0
 11
2174.600652393928
 21
1222.079884106737
 31
0.0
  0
LINE
  5
7F
330
2
100
AcDbEntity
  8
0
100
AcDbLine
 10
2422.966534195463
 20
1212.079884106736
 30
0.0
 11
2422.966534195463
 21
1331.298021100176
 31
0.0
  0
LINE
  5
80
102
{ACAD_REACTORS
330
1D1
102
}
330
2
100
AcDbEntity
  8
0
100
AcDbLine
 10
2412.966534195462
 20
1222.079884106736
 30
0.0
 11
2412.966534195462
 21
1331.298021100176
 31
0.0
  0
LWPOLYLINE
  5
81
330
2
100
AcDbEntity
  8
0
  6
DASHED
 48
8.0
100
AcDbPolyline
 90
        4
 70
     1
 43
0.0
 10
2287.741418994239
 20
1030.272382756167
 10
2329.548009912625
 20
1030.272382756167
 10
2329.548009912625
 20
987.8384912256235
 10
2287.741418994239
 20
987.8384912256235
  0
LINE
  5
82
330
2
100
AcDbEntity
  8
0
100
AcDbLine
 10
2189.377224507092
 20
984.5015426936452
 30
0.0
 11
2416.730807269823
 21
984.501542693645
 31
0.0
  0
SPLINE
  5
83
330
2
100
AcDbEntity
  8
0
100
AcDbSpline
210
0.0
220
0.0
230
1.0
 70
     8
 71
     3
 72
    10
 73
     6
 74
     0
 42
0.0000000001
 43
0.0000000001
 40
226.5056284575514
 40
226.5056284575514
 40
226.5056284575514
 40
226.5056284575514
 40
312.1597413692262
 40
471.4300207386655
 40
623.7084402032909
 40
623.7084402032909
 40
623.7084402032909
 40
623.7084402032909
 10
2306.69832262217
 20
1036.101542693645
 30
0.0
 10
2309.081077995101
 20
1031.257830049698
 30
0.0
 10
2333.495862606214
 20
1017.270048689543
 30
0.0
 10
2272.324396515466
 20
1004.791125240138
 30
0.0
 10
2306.992070259611
 20
990.6702819493178
 30
0.0
 10
2318.249847702786
 20
984.5015426936452
 30
0.0
  0
LWPOLYLINE
  5
84
330
2
100
AcDbEntity
  8
DRIVE
 62
     7
100
AcDbPolyline
 90
        4
 70
     0
 43
0.0
 10
2294.038288346754
 20
998.888322243706
 10
2325.965373859656
 20
998.888322243706
 10
2325.965373859656
 20
1021.714763143584
 10
2318.638137016758
 20
1021.714763143584
  0
LWPOLYLINE
  5
86
330
2
100
AcDbEntity
  8
DISC-DRUM
100
AcDbPolyline
 90
        4
 70
     0
 43
0.0
 10
2294.615783537811
 20
998.271391408574
 10
2428.532959698694
 20
998.271391408574
 10
2428.532959698694
 20
998.8883222437058
 10
2294.038288346754
 20
998.888322243706
  0
LWPOLYLINE
  5
88
330
2
100
AcDbEntity
  8
CURTAIN
 48
10.0
100
AcDbPolyline
 90
        4
 70
     0
 43
0.0
 10
2299.01027444904
 20
994.8782718153488
 10
2433.674049991459
 20
994.8782718153488
 10
2433.674049991459
 20
1025.724813571941
 10
2316.4158289338
 20
1025.724813571941
  0
MTEXT
  5
8A
330
2
100
AcDbEntity
  8
0
100
AcDbMText
 10
2281.573266578339
 20
1064.052047945321
 30
0.0
 40
5.0
 41
88.21339999999999
 71
     1
 72
     5
  1
ALTERNATIVE MOTOR ACCESS PANEL
 73
     1
 44
1.0
  0
MTEXT
  5
8B
330
2
100
AcDbEntity
  8
0
100
AcDbMText
 10
2235.494006243589
 20
1145.236913530753
 30
0.0
 40
10.0
 41
131.9512040933987
 71
     1
 72
     5
  1
SECTION A-A
 73
     1
 44
1.0
  0
LINE
  5
8C
330
2
100
AcDbEntity
  8
0
100
AcDbLine
 10
2416.730807269823
 20
1036.101542693645
 30
0.0
 11
2189.377224507092
 21
1036.101542693645
 31
0.0
  0
LINE
  5
8D
330
2
100
AcDbEntity
  8
0
100
AcDbLine
 10
2284.09329241379
 20
1155.419514711529
 30
0.0
 11
2388.493625348206
 21
1212.079884106737
 31
0.0
  0
LINE
  5
8E
330
2
100
AcDbEntity
  8
0
100
AcDbLine
 10
2279.398203412906
 20
1164.038427262386
 30
0.0
 11
2383.723623388592
 21
1220.86891598205
 31
0.0
  0
MTEXT
  5
8F
330
2
100
AcDbEntity
  8
0
100
AcDbMText
 10
2198.27959393896
 20
1065.16204789184
 30
0.0
 40
5.0
 41
88.21339999999999
 71
     1
 72
     5
  1
BULKHEAD
 73
     1
 44
1.0
  0
LEADER
  5
90
330
2
100
AcDbEntity
  8
0
100
AcDbLeader
  3
ISO-25
 76
     3
 10
2169.175216676078
 20
1020.964116108173
 30
0.0
 10
2155.468137686443
 20
1046.971987362755
 30
0.0
 10
2150.670675511162
 20
1046.971987362755
 30
0.0
1001
ACAD
1000
DSTYLE
1002
{
1070
   147
1040
0.625
1070
    77
1070
     0
1002
}
  0
LWPOLYLINE
  5
91
330
2
100
AcDbEntity
  8
0
  6
DASHED
 48
8.0
100
AcDbPolyline
 90
        4
 70
     1
 43
0.0
 10
2145.873182393701
 20
1030.272382756167
 10
2187.679773312087
 20
1030.272382756167
 10
2187.679773312087
 20
987.8384912256235
 10
2145.873182393701
 20
987.8384912256235
  0
LINE
  5
92
330
2
100
AcDbEntity
  8
0
100
AcDbLine
 10
2132.535880286335
 20
1036.101542693645
 30
0.0
 11
2132.535880286335
 21
984.5015426936452
 31
0.0
  0
LINE
  5
93
330
2
100
AcDbEntity
  8
0
100
AcDbLine
 10
2184.209056646642
 20
984.5015426936452
 30
0.0
 11
2189.377224507092
 21
984.5015426936452
 31
0.0
  0
LEADER
  5
94
330
2
100
AcDbEntity
  8
0
100
AcDbLeader
  3
ISO-25
 76
     2
 10
2189.845468040817
 20
984.501542693645
 30
0.0
 10
2189.845468040817
 20
964.3857527949117
 30
0.0
1001
ACAD
1000
DSTYLE
1002
{
1070
   147
1040
0.625
1070
    77
1070
     0
1002
}
  0
LINE
  5
95
330
2
100
AcDbEntity
  8
0
100
AcDbLine
 10
2189.377224507092
 20
1036.101542693645
 30
0.0
 11
2146.628770523928
 21
1036.101542693645
 31
0.0
  0
LINE
  5
96
330
2
100
AcDbEntity
  8
0
100
AcDbLine
 10
2184.209056646642
 20
1036.101542693645
 30
0.0
 11
2132.535880286335
 21
1036.101542693645
 31
0.0
  0
LEADER
  5
97
330
2
100
AcDbEntity
  8
0
100
AcDbLeader
  3
ISO-25
 76
     2
 10
2230.551695818579
 20
1019.600699328302
 30
0.0
 10
2216.114175660644
 20
1054.3730329659
 30
0.0
1001
ACAD
1000
DSTYLE
1002
{
1070
   147
1040
0.625
1070
    77
1070
     0
1002
}
  0
LEADER
  5
98
330
2
100
AcDbEntity
  8
0
100
AcDbLeader
  3
ISO-25
 76
     2
 10
2294.594973960145
 20
1022.332953070384
 30
0.0
 10
2294.594973960145
 20
1046.28756888165
 30
0.0
1001
ACAD
1000
DSTYLE
1002
{
1070
   147
1040
0.625
1070
    77
1070
     0
1002
}
  0
LEADER
  5
99
330
2
100
AcDbEntity
  8
0
100
AcDbLeader
  3
ISO-25
 76
     2
 10
2226.512134707483
 20
984.501542693645
 30
0.0
 10
2226.512134707483
 20
964.3857527949117
 30
0.0
1001
ACAD
1000
DSTYLE
1002
{
1070
   147
1040
0.625
1070
    77
1070
     0
1002
}
  0
LEADER
  5
9A
330
2
100
AcDbEntity
  8
0
100
AcDbLeader
  3
ISO-25
 76
     2
 10
2263.17880137415
 20
984.501542693645
 30
0.0
 10
2263.17880137415
 20
964.3857527949117
 30
0.0
1001
ACAD
1000
DSTYLE
1002
{
1070
   147
1040
0.625
1070
    77
1070
     0
1002
}
  0
LEADER
  5
9B
330
2
100
AcDbEntity
  8
0
100
AcDbLeader
  3
ISO-25
 76
     2
 10
2299.845468040817
 20
984.501542693645
 30
0.0
 10
2299.845468040817
 20
964.3857527949117
 30
0.0
1001
ACAD
1000
DSTYLE
1002
{
1070
   147
1040
0.625
1070
    77
1070
     0
1002
}
  0
LINE
  5
9C
330
2
100
AcDbEntity
  8
0
100
AcDbLine
 10
2238.820963844598
 20
1194.758555216474
 30
0.0
 11
2164.619752832646
 21
1174.555073407764
 31
0.0
  0
LINE
  5
9D
330
2
100
AcDbEntity
  8
0
100
AcDbLine
 10
2174.600652393928
 20
1222.079884106737
 30
0.0
 11
2269.708977085188
 21
1222.079884106737
 31
0.0
  0
LINE
  5
9E
102
{ACAD_REACTORS
330
5
102
}
330
2
100
AcDbEntity
  8
0
100
AcDbLine
 10
2164.600652393928
 20
1212.079884106737
 30
0.0
 11
2269.708977085188
 21
1212.079884106737
 31
0.0
  0
MTEXT
  5
9F
330
2
100
AcDbEntity
  8
0
100
AcDbMText
 10
2122.044040022835
 20
1167.309806477654
 30
0.0
 40
5.0
 41
86.85445645396915
 71
     1
 72
     5
  1
RECOMMENDED 140mm SIDEROOM REQUIRED EACH SIDE
 73
     1
 44
1.0
  0
LINE
  5
A0
330
2
100
AcDbEntity
  8
0
100
AcDbLine
 10
2164.600652393928
 20
1217.079884106737
 30
0.0
 11
2164.600652393928
 21
1212.079884106737
 31
0.0
  0
LINE
  5
A1
330
2
100
AcDbEntity
  8
0
100
AcDbLine
 10
2284.181905704612
 20
1155.2568446952
 30
0.0
 11
2279.398203412906
 21
1164.038427262386
 31
0.0
  0
HATCH
  5
A2
330
2
100
AcDbEntity
  8
0
100
AcDbHatch
 10
0.0
 20
0.0
 30
0.0
210
0.0
220
0.0
230
1.0
  2
SOLID
 70
     1
 71
     1
 91
        1
 92
        7
 72
     1
 73
     1
 93
        2
 10
2240.614947574508
 20
1194.758555216474
 42
1.0
 10
2237.026980114689
 20
1194.758555216474
 42
1.0
 97
        1
330
A3
 75
     0
 76
     1
 47
0.0497956514238579
 98
        1
 10
2239.158922644259
 20
1193.541153871697
  0
CIRCLE
  5
A3
102
{ACAD_REACTORS
330
A2
102
}
330
2
100
AcDbEntity
  8
0
100
AcDbCircle
 10
2238.820963844598
 20
1194.758555216474
 30
0.0
 40
1.793983729909086
  0
LINE
  5
A4
330
2
100
AcDbEntity
  8
0
100
AcDbLine
 10
2269.708977085188
 20
1212.079884106737
 30
0.0
 11
2269.708977085188
 21
1222.079884106737
 31
0.0
  0
LWPOLYLINE
  5
A5
330
2
100
AcDbEntity
  8
0
  6
DASHED
 48
8.0
100
AcDbPolyline
 90
        4
 70
     1
 43
0.0
 10
2412.475822328818
 20
1030.272382756167
 10
2454.282413247205
 20
1030.272382756167
 10
2454.282413247205
 20
987.8384912256235
 10
2412.475822328818
 20
987.8384912256235
  0
LWPOLYLINE
  5
A6
330
2
100
AcDbEntity
  8
DISC-DRUM
100
AcDbPolyline
 90
        2
 70
     0
 43
0.0
 10
2318.537329685989
 20
1022.331693978716
 10
2428.532959698694
 20
1022.331693978716
  0
LWPOLYLINE
  5
A7
330
2
100
AcDbEntity
  8
DISC-DRUM
100
AcDbPolyline
 90
        3
 70
     0
 43
0.0
 10
2428.532959698694
 20
1022.331693978716
 10
2428.532959698694
 20
1021.714763143584
 10
2318.638137016758
 20
1021.714763143584
  0
LWPOLYLINE
  5
A8
330
2
100
AcDbEntity
  8
SHAFT
100
AcDbPolyline
 90
        2
 70
     0
 43
0.0
 10
2325.965373859656
 20
1007.201465247107
 10
2441.385685430607
 20
1007.201465247107
  0
LWPOLYLINE
  5
AA
330
2
100
AcDbEntity
  8
SHAFT
100
AcDbPolyline
 90
        3
 70
     0
 43
0.0
 10
2441.385685430607
 20
1007.201465247107
 10
2441.385685430607
 20
1013.401620140182
 10
2325.965373859656
 20
1013.401620140182
  0
LINE
  5
AB
330
2
100
AcDbEntity
  8
SHAFT
 48
10.0
100
AcDbLine
 10
2441.385685430607
 20
1007.664163373456
 30
0.0
 11
2325.965373859656
 21
1007.664163373456
 31
0.0
  0
LINE
  5
AC
330
2
100
AcDbEntity
  8
SHAFT
 48
10.0
100
AcDbLine
 10
2441.385685430607
 20
1012.938922013833
 30
0.0
 11
2325.965373859656
 21
1012.938922013833
 31
0.0
  0
LEADER
  5
AD
330
2
100
AcDbEntity
  8
0
100
AcDbLeader
  3
ISO-25
 76
     2
 10
2336.512134707483
 20
984.501542693645
 30
0.0
 10
2336.512134707483
 20
964.3857527949117
 30
0.0
1001
ACAD
1000
DSTYLE
1002
{
1070
   147
1040
0.625
1070
    77
1070
     0
1002
}
  0
LEADER
  5
AE
330
2
100
AcDbEntity
  8
0
100
AcDbLeader
  3
ISO-25
 76
     2
 10
2373.17880137415
 20
984.501542693645
 30
0.0
 10
2373.17880137415
 20
964.3857527949117
 30
0.0
1001
ACAD
1000
DSTYLE
1002
{
1070
   147
1040
0.625
1070
    77
1070
     0
1002
}
  0
LEADER
  5
AF
330
2
100
AcDbEntity
  8
0
100
AcDbLeader
  3
ISO-25
 76
     2
 10
2409.845468040817
 20
984.501542693645
 30
0.0
 10
2409.845468040817
 20
964.3857527949117
 30
0.0
1001
ACAD
1000
DSTYLE
1002
{
1070
   147
1040
0.625
1070
    77
1070
     0
1002
}
  0
LEADER
  5
B0
330
2
100
AcDbEntity
  8
0
100
AcDbLeader
  3
ISO-25
 76
     3
 10
2440.575349728668
 20
1020.964116108173
 30
0.0
 10
2454.282428718303
 20
1046.971987362755
 30
0.0
 10
2459.079890893583
 20
1046.971987362755
 30
0.0
211
-1.0
221
0.0
231
0.0
210
0.0
220
0.0
230
-1.0
1001
ACAD
1000
DSTYLE
1002
{
1070
   147
1040
0.625
1070
    77
1070
     0
1002
}
  0
LINE
  5
B1
330
2
100
AcDbEntity
  8
0
100
AcDbLine
 10
2468.40398363013
 20
1036.101542693645
 30
0.0
 11
2468.40398363013
 21
984.501542693645
 31
0.0
  0
LEADER
  5
B2
330
2
100
AcDbEntity
  8
0
100
AcDbLeader
  3
ISO-25
 76
     3
 10
2462.159953446517
 20
954.1532013859116
 30
0.0
 10
2484.633092978416
 20
965.374417455888
 30
0.0
 10
2492.124134332021
 20
965.374417455888
 30
0.0
1001
ACAD
1000
DSTYLE
1002
{
1070
   147
1040
0.625
1070
    77
1070
     0
1002
}
  0
ARC
  5
B3
330
2
100
AcDbEntity
  8
0
100
AcDbCircle
 10
2473.166103180983
 20
989.7347954257888
 30
0.0
 40
27.92136690156429
100
AcDbArc
 50
170.6972248662278
 51
207.1826716844106
  0
ARC
  5
B4
330
2
100
AcDbEntity
  8
0
100
AcDbCircle
 10
2471.506252279719
 20
989.8711317679801
 30
0.0
 40
27.92136690156429
100
AcDbArc
 50
170.6972248662278
 51
207.1826716844106
  0
LINE
  5
B5
330
2
100
AcDbEntity
  8
0
100
AcDbLine
 10
2460.338178493251
 20
965.4873573602138
 30
0.0
 11
2451.984591717845
 21
958.1563550388256
 31
0.0
  0
LINE
  5
B6
330
2
100
AcDbEntity
  8
0
100
AcDbLine
 10
2459.578761821769
 20
966.7513232609534
 30
0.0
 11
2451.478313614086
 21
959.1675276137699
 31
0.0
  0
ARC
  5
B7
330
2
100
AcDbEntity
  8
0
100
AcDbCircle
 10
2390.093936025254
 20
935.402130444498
 30
0.0
 40
70.06856991329822
100
AcDbArc
 50
16.69430707461618
 51
23.15939257708579
  0
ARC
  5
B8
330
2
100
AcDbEntity
  8
0
100
AcDbCircle
 10
2430.136345787632
 20
948.0446274687899
 30
0.0
 40
29.94976053276023
100
AcDbArc
 50
17.24580854887599
 51
27.11584202123891
  0
LINE
  5
B9
330
2
100
AcDbEntity
  8
0
100
AcDbLine
 10
2448.328523497947
 20
976.9795076932204
 30
0.0
 11
2456.794232735248
 21
961.6954596579949
 31
0.0
  0
LINE
  5
BA
330
2
100
AcDbEntity
  8
0
100
AcDbLine
 10
2446.668672596683
 20
977.1158440354117
 30
0.0
 11
2454.515981752487
 21
962.9594255587347
 31
0.0
  0
LINE
  5
BB
330
2
100
AcDbEntity
  8
SHAFT
  6
CENTER
 62
     7
 48
10.0
100
AcDbLine
 10
2446.526775723373
 20
1010.301542693645
 30
0.0
 11
2433.674049991459
 21
1010.301542693645
 31
0.0
  0
SPLINE
  5
BD
330
2
100
AcDbEntity
  8
W018
 62
     7
 48
20.0
100
AcDbSpline
210
0.0
220
0.0
230
1.0
 70
     8
 71
     3
 72
   174
 73
   170
 74
     0
 42
0.0000000001
 43
0.0000000001
 40
1646.424139384831
 40
1646.424139384831
 40
1646.424139384831
 40
1646.424139384831
 40
1662.662411741897
 40
1662.662411741897
 40
1667.649076675413
 40
1667.649076675413
 40
1672.63574160893
 40
1672.63574160893
 40
1677.622406542447
 40
1677.622406542447
 40
1680.115739009205
 40
1680.115739009205
 40
1682.609071475963
 40
1682.609071475963
 40
1685.102403942721
 40
1685.102403942721
 40
1687.59573640948
 40
1687.59573640948
 40
1690.089068876238
 40
1690.089068876238
 40
1692.582401342996
 40
1692.582401342996
 40
1697.569066276513
 40
1697.569066276513
 40
1702.555731210029
 40
1702.555731210029
 40
1705.049063676787
 40
1705.049063676787
 40
1707.542396143546
 40
1707.542396143546
 40
1712.529061077062
 40
1712.529061077062
 40
1717.515726010578
 40
1717.515726010578
 40
1720.009058477337
 40
1720.009058477337
 40
1722.502390944095
 40
1722.502390944095
 40
1732.475720811128
 40
1732.475720811128
 40
1734.969053277886
 40
1734.969053277886
 40
1737.462385744644
 40
1737.462385744644
 40
1739.955718211403
 40
1739.955718211403
 40
1741.202384444782
 40
1741.202384444782
 40
1742.449050678161
 40
1742.449050678161
 40
1743.69571691154
 40
1743.69571691154
 40
1744.942383144919
 40
1744.942383144919
 40
1746.189049378298
 40
1746.189049378298
 40
1747.435715611677
 40
1747.435715611677
 40
1748.682381845057
 40
1748.682381845057
 40
1749.929048078436
 40
1749.929048078436
 40
1751.175714311815
 40
1751.175714311815
 40
1752.422380545194
 40
1752.422380545194
 40
1754.915713011952
 40
1754.915713011952
 40
1756.162379245331
 40
1756.162379245331
 40
1757.40904547871
 40
1757.40904547871
 40
1758.65571171209
 40
1758.65571171209
 40
1759.902377945469
 40
1759.902377945469
 40
1760.525711062158
 40
1760.525711062158
 40
1761.149044178848
 40
1761.149044178848
 40
1761.772377295538
 40
1761.772377295538
 40
1762.395710412227
 40
1762.395710412227
 40
1763.019043528917
 40
1763.019043528917
 40
1763.642376645606
 40
1763.642376645606
 40
1764.265709762296
 40
1764.265709762296
 40
1764.889042878985
 40
1764.889042878985
 40
1766.135709112364
 40
1766.135709112364
 40
1767.382375345743
 40
1767.382375345743
 40
1768.629041579123
 40
1768.629041579123
 40
1769.875707812502
 40
1769.875707812502
 40
1772.36904027926
 40
1772.36904027926
 40
1773.615706512639
 40
1773.615706512639
 40
1774.862372746018
 40
1774.862372746018
 40
1777.355705212777
 40
1777.355705212777
 40
1779.849037679535
 40
1779.849037679535
 40
1782.342370146293
 40
1782.342370146293
 40
1784.835702613051
 40
1784.835702613051
 40
1787.32903507981
 40
1787.32903507981
 40
1789.822367546568
 40
1789.822367546568
 40
1792.315700013326
 40
1792.315700013326
 40
1802.289029880359
 40
1802.289029880359
 40
1807.275694813875
 40
1807.275694813875
 40
1812.262359747392
 40
1812.262359747392
 40
1817.249024680908
 40
1817.249024680908
 40
1822.235689614425
 40
1822.235689614425
 40
1827.222354547941
 40
1827.222354547941
 40
1832.209019481458
 40
1832.209019481458
 40
1834.702351948216
 40
1834.702351948216
 40
1837.195684414974
 40
1837.195684414974
 40
1839.689016881733
 40
1839.689016881733
 40
1842.182349348491
 40
1842.182349348491
 40
1844.675681815249
 40
1844.675681815249
 40
1847.169014282007
 40
1847.169014282007
 40
1849.662346748766
 40
1849.662346748766
 40
1852.155679215524
 40
1852.155679215524
 40
1857.14234414904
 40
1857.14234414904
 40
1862.129009082557
 40
1862.129009082557
 40
1867.115674016073
 40
1867.115674016073
 40
1872.10233894959
 40
1872.10233894959
 40
1877.089003883106
 40
1877.089003883106
 40
1882.075668816623
 40
1882.075668816623
 40
1887.062333750139
 40
1887.062333750139
 40
1892.048998683656
 40
1892.048998683656
 40
1902.022328550689
 40
1902.022328550689
 40
1921.968988284755
 40
1921.968988284755
 40
1921.968988284755
 40
1921.968988284755
 10
2433.674049991459
 20
1010.479508834716
 30
0.0
 10
2434.222324193505
 20
1010.50902889986
 30
0.0
 10
2434.800445265718
 20
1010.541008106205
 30
0.0
 10
2435.513701034112
 20
1010.581617814329
 30
0.0
 10
2435.685615904951
 20
1010.591581875982
 30
0.0
 10
2436.034848866188
 20
1010.611416860227
 30
0.0
 10
2436.212174178722
 20
1010.621160418142
 30
0.0
 10
2436.553347491705
 20
1010.637927667476
 30
0.0
 10
2436.740109999345
 20
1010.645990580704
 30
0.0
 10
2437.001446045256
 20
1010.654601812628
 30
0.0
 10
2437.095651177582
 20
1010.657222788628
 30
0.0
 10
2437.271124691954
 20
1010.661019552015
 30
0.0
 10
2437.352389156493
 20
1010.662374283745
 30
0.0
 10
2437.556723608121
 20
1010.664043191068
 30
0.0
 10
2437.638647936019
 20
1010.664016760894
 30
0.0
 10
2437.816931108295
 20
1010.662684772577
 30
0.0
 10
2437.913288238612
 20
1010.661158902268
 30
0.0
 10
2438.092776564327
 20
1010.656618780224
 30
0.0
 10
2438.186403085654
 20
1010.653401723498
 30
0.0
 10
2438.374039947125
 20
1010.644897595775
 30
0.0
 10
2438.468050293873
 20
1010.639610670471
 30
0.0
 10
2438.74174206478
 20
1010.621115760147
 30
0.0
 10
2438.931224085332
 20
1010.604080967547
 30
0.0
 10
2439.314011626668
 20
1010.558580916572
 30
0.0
 10
2439.507299938474
 20
1010.529970997332
 30
0.0
 10
2439.784375842368
 20
1010.480262037271
 30
0.0
 10
2439.882294338622
 20
1010.461158936101
 30
0.0
 10
2440.074789029948
 20
1010.420112110795
 30
0.0
 10
2440.169390502049
 20
1010.398287016349
 30
0.0
 10
2440.459140679299
 20
1010.325995450699
 30
0.0
 10
2440.649510271
 20
1010.271350895521
 30
0.0
 10
2441.035317431897
 20
1010.144228974591
 30
0.0
 10
2441.228561718904
 20
1010.072217298431
 30
0.0
 10
2441.513740044727
 20
1009.952499600473
 30
0.0
 10
2441.610098903855
 20
1009.909760666086
 30
0.0
 10
2441.798841521046
 20
1009.821489416956
 30
0.0
 10
2441.891276097769
 20
1009.776065804042
 30
0.0
 10
2442.367922566391
 20
1009.5296524224
 30
0.0
 10
2442.728720194926
 20
1009.304162610614
 30
0.0
 10
2443.140648582032
 20
1008.995190060691
 30
0.0
 10
2443.224673964479
 20
1008.929255439534
 30
0.0
 10
2443.388314957223
 20
1008.794211556641
 30
0.0
 10
2443.467961349918
 20
1008.725139600161
 30
0.0
 10
2443.621047247365
 20
1008.585480142687
 30
0.0
 10
2443.698674319449
 20
1008.510897185714
 30
0.0
 10
2443.807152261845
 20
1008.400720103558
 30
0.0
 10
2443.844387674057
 20
1008.361829528833
 30
0.0
 10
2443.914566429297
 20
1008.286357342336
 30
0.0
 10
2443.947609175078
 20
1008.249868222524
 30
0.0
 10
2444.021454068382
 20
1008.165535914071
 30
0.0
 10
2444.053285465188
 20
1008.127933239573
 30
0.0
 10
2444.118607940962
 20
1008.048443318481
 30
0.0
 10
2444.151992950784
 20
1008.006468966634
 30
0.0
 10
2444.214995345193
 20
1007.92444668189
 30
0.0
 10
2444.246191888719
 20
1007.882416208601
 30
0.0
 10
2444.307655687126
 20
1007.79639776459
 30
0.0
 10
2444.337893306471
 20
1007.752388621886
 30
0.0
 10
2444.394024922163
 20
1007.667461240589
 30
0.0
 10
2444.42276215318
 20
1007.622238727764
 30
0.0
 10
2444.47782299317
 20
1007.531556036035
 30
0.0
 10
2444.504186056558
 20
1007.486119818992
 30
0.0
 10
2444.554975311372
 20
1007.394304120891
 30
0.0
 10
2444.580112065271
 20
1007.346530596091
 30
0.0
 10
2444.626734167381
 20
1007.253066859684
 30
0.0
 10
2444.64835154769
 20
1007.207442567316
 30
0.0
 10
2444.716005094645
 20
1007.055647302259
 30
0.0
 10
2444.752961555458
 20
1006.960784760926
 30
0.0
 10
2444.802004451378
 20
1006.818704276099
 30
0.0
 10
2444.818449495937
 20
1006.76756367321
 30
0.0
 10
2444.847474161573
 20
1006.67005678799
 30
0.0
 10
2444.860271634635
 20
1006.6237554857
 30
0.0
 10
2444.887000258253
 20
1006.517650743139
 30
0.0
 10
2444.897843022135
 20
1006.469888030442
 30
0.0
 10
2444.917736758631
 20
1006.374171095825
 30
0.0
 10
2444.926778262107
 20
1006.326214906091
 30
0.0
 10
2444.939966172361
 20
1006.246484937085
 30
0.0
 10
2444.943655865932
 20
1006.222505819721
 30
0.0
 10
2444.950593913532
 20
1006.174587342844
 30
0.0
 10
2444.953842269232
 20
1006.150647983574
 30
0.0
 10
2444.960468327325
 20
1006.097452208746
 30
0.0
 10
2444.962904833504
 20
1006.07617663976
 30
0.0
 10
2444.968470912611
 20
1006.023022084703
 30
0.0
 10
2444.97139475801
 20
1005.991121757076
 30
0.0
 10
2444.974105990903
 20
1005.959317724113
 30
0.0
 10
2444.976617228826
 20
1005.927455783962
 30
0.0
 10
2444.980126151442
 20
1005.874413545631
 30
0.0
 10
2444.981325770422
 20
1005.853246799143
 30
0.0
 10
2444.983837524658
 20
1005.800284405539
 30
0.0
 10
2444.984720290699
 20
1005.776496008174
 30
0.0
 10
2444.986101369272
 20
1005.728968073009
 30
0.0
 10
2444.986599009977
 20
1005.70522851569
 30
0.0
 10
2444.98747317681
 20
1005.626097454123
 30
0.0
 10
2444.987056130149
 20
1005.578788203339
 30
0.0
 10
2444.984798324628
 20
1005.484431490821
 30
0.0
 10
2444.98295284117
 20
1005.437384142199
 30
0.0
 10
2444.976940803604
 20
1005.332901589611
 30
0.0
 10
2444.973509854105
 20
1005.287464675495
 30
0.0
 10
2444.964897074195
 20
1005.191584706063
 30
0.0
 10
2444.959548014907
 20
1005.141156746225
 30
0.0
 10
2444.942746038172
 20
1005.002099162188
 30
0.0
 10
2444.929075232489
 20
1004.90984665189
 30
0.0
 10
2444.901754229956
 20
1004.757294433157
 30
0.0
 10
2444.893071999901
 20
1004.712627700531
 30
0.0
 10
2444.873907682082
 20
1004.619787526467
 30
0.0
 10
2444.863326738974
 20
1004.571634518454
 30
0.0
 10
2444.830909479223
 20
1004.432259577576
 30
0.0
 10
2444.805699012912
 20
1004.334894346881
 30
0.0
 10
2444.755479278082
 20
1004.156524710127
 30
0.0
 10
2444.726134227224
 20
1004.060124937594
 30
0.0
 10
2444.666978671055
 20
1003.8787631516
 30
0.0
 10
2444.637559922906
 20
1003.793673590998
 30
0.0
 10
2444.565956635768
 20
1003.59838486096
 30
0.0
 10
2444.533066290122
 20
1003.513579415498
 30
0.0
 10
2444.461731864014
 20
1003.336638510059
 30
0.0
 10
2444.423041398
 20
1003.244602481132
 30
0.0
 10
2444.346115019413
 20
1003.068095762987
 30
0.0
 10
2444.305965024176
 20
1002.979062750309
 30
0.0
 10
2444.222662492001
 20
1002.799843533148
 30
0.0
 10
2444.179477822297
 20
1002.709672265985
 30
0.0
 10
2443.969902438192
 20
1002.282158344986
 30
0.0
 10
2443.785916624666
 20
1001.938386445607
 30
0.0
 10
2443.48231380041
 20
1001.394441879328
 30
0.0
 10
2443.38750797215
 20
1001.227893213602
 30
0.0
 10
2443.192821280439
 20
1000.888109063895
 30
0.0
 10
2443.092850123273
 20
1000.714925323621
 30
0.0
 10
2442.896691144502
 20
1000.374145771217
 30
0.0
 10
2442.800511029849
 20
1000.206586543157
 30
0.0
 10
2442.607274359358
 20
999.8653928299138
 30
0.0
 10
2442.510347673773
 20
999.6916848084197
 30
0.0
 10
2442.337773664484
 20
999.3752183621573
 30
0.0
 10
2442.247049982361
 20
999.2049085516748
 30
0.0
 10
2442.076436251533
 20
998.8720108741601
 30
0.0
 10
2441.99646104529
 20
998.7094666581823
 30
0.0
 10
2441.886671794522
 20
998.4747894397587
 30
0.0
 10
2441.850100045926
 20
998.3945033136228
 30
0.0
 10
2441.779655180298
 20
998.2347532708329
 30
0.0
 10
2441.74580678424
 20
998.1552784541298
 30
0.0
 10
2441.683245516344
 20
998.0032296265109
 30
0.0
 10
2441.65048222193
 20
997.9206228247088
 30
0.0
 10
2441.592456890822
 20
997.768796387948
 30
0.0
 10
2441.56686018479
 20
997.6997048690408
 30
0.0
 10
2441.503726084863
 20
997.5212194374256
 30
0.0
 10
2441.48045164913
 20
997.4521495508739
 30
0.0
 10
2441.43106432683
 20
997.3006911368051
 30
0.0
 10
2441.405286277033
 20
997.2181936309024
 30
0.0
 10
2441.359978182858
 20
997.0667925075481
 30
0.0
 10
2441.33731266388
 20
996.9877138847669
 30
0.0
 10
2441.294069047213
 20
996.8294671525354
 30
0.0
 10
2441.273490799952
 20
996.7502990839584
 30
0.0
 10
2441.217164756658
 20
996.5232773737923
 30
0.0
 10
2441.181584127682
 20
996.364751447003
 30
0.0
 10
2441.118054237993
 20
996.0475943240503
 30
0.0
 10
2441.090076920621
 20
995.8889687485749
 30
0.0
 10
2441.042540972645
 20
995.5840576539598
 30
0.0
 10
2441.020768987094
 20
995.4230527009761
 30
0.0
 10
2440.98446770144
 20
995.107154986001
 30
0.0
 10
2440.969668833191
 20
994.9522932596183
 30
0.0
 10
2440.944782134486
 20
994.6306906639913
 30
0.0
 10
2440.935563156228
 20
994.4752994535853
 30
0.0
 10
2440.921696765458
 20
994.1553290632109
 30
0.0
 10
2440.917309677923
 20
993.9907386547215
 30
0.0
 10
2440.913355585417
 20
993.6818418795498
 30
0.0
 10
2440.913513611637
 20
993.5165938148672
 30
0.0
 10
2440.918125255399
 20
993.1918282497813
 30
0.0
 10
2440.922399210098
 20
993.0323082230334
 30
0.0
 10
2440.940850360135
 20
992.5421597114743
 30
0.0
 10
2440.95990377263
 20
992.2203054541228
 30
0.0
 10
2441.033393299072
 20
991.2243915784696
 30
0.0
 10
2441.101433766001
 20
990.5625822774526
 30
0.0
 10
2441.17103952158
 20
989.8853389002642
 30
0.0
  0
SPLINE
  5
BF
330
2
100
AcDbEntity
  8
W018
 62
     7
100
AcDbSpline
210
0.0
220
0.0
230
1.0
 70
     8
 71
     3
 72
    12
 73
     8
 74
     0
 42
0.0000000001
 43
0.0000000001
 40
1645.802868434262
 40
1645.802868434262
 40
1645.802868434262
 40
1645.802868434262
 40
1665.116722236283
 40
1717.106950946751
 40
1750.938374294063
 40
1836.047911555692
 40
1921.968988284755
 40
1921.968988284755
 40
1921.968988284755
 40
1921.968988284755
 10
2433.674049991459
 20
1009.449796583726
 30
0.0
 10
2434.332779017209
 20
1009.485168489787
 30
0.0
 10
2436.77343186262
 20
1009.620712957596
 30
0.0
 10
2440.421469588461
 20
1009.848296056732
 30
0.0
 10
2445.96330633994
 20
1005.733947252809
 30
0.0
 10
2439.251552290217
 20
998.504423545534
 30
0.0
 10
2439.848379792799
 20
992.6974687889037
 30
0.0
 10
2440.148209515952
 20
989.7802144239406
 30
0.0
  0
SPLINE
  5
C0
330
2
100
AcDbEntity
  8
W018
 62
     7
100
AcDbSpline
210
0.0
220
0.0
230
1.0
 70
     8
 71
     3
 72
    54
 73
    50
 74
     0
 42
0.0000000001
 43
0.0000000001
 40
0.0
 40
0.0
 40
0.0
 40
0.0
 40
12.75398906370922
 40
12.75398906370922
 40
25.50797812741845
 40
25.50797812741845
 40
38.26196719112768
 40
38.26196719112768
 40
44.63896172298229
 40
44.63896172298229
 40
51.01595625483691
 40
51.01595625483691
 40
57.39295078669152
 40
57.39295078669152
 40
63.76994531854613
 40
63.76994531854613
 40
70.14693985040074
 40
70.14693985040074
 40
73.33543711632805
 40
73.33543711632805
 40
76.52393438225536
 40
76.52393438225536
 40
79.71243164818267
 40
79.71243164818267
 40
82.90092891410997
 40
82.90092891410997
 40
89.27792344596459
 40
89.27792344596459
 40
102.0319125096738
 40
102.0319125096738
 40
108.4089070415284
 40
108.4089070415284
 40
114.785901573383
 40
114.785901573383
 40
121.1628961052376
 40
121.1628961052376
 40
127.5398906370922
 40
127.5398906370922
 40
140.2938797008014
 40
140.2938797008014
 40
153.0478687645107
 40
153.0478687645107
 40
178.5558468919291
 40
178.5558468919291
 40
204.0638250193476
 40
204.0638250193476
 40
229.571803146766
 40
229.571803146766
 40
230.6857665996901
 40
230.6857665996901
 40
230.6857665996901
 40
230.6857665996901
 10
2436.362616954074
 20
1010.615319404062
 30
0.0
 10
2439.874240454432
 20
1011.75329507545
 30
0.0
 10
2440.339896979115
 20
1011.838083769716
 30
0.0
 10
2441.298044372605
 20
1011.987606732748
 30
0.0
 10
2441.790533821199
 20
1012.052350102133
 30
0.0
 10
2442.774672193605
 20
1012.146812038982
 30
0.0
 10
2443.267125232424
 20
1012.176682792721
 30
0.0
 10
2443.987688193036
 20
1012.182927443094
 30
0.0
 10
2444.224895549999
 20
1012.178571263161
 30
0.0
 10
2444.690943438323
 20
1012.154466359471
 30
0.0
 10
2444.919784701447
 20
1012.134731785817
 30
0.0
 10
2445.36701231519
 20
1012.076688246497
 30
0.0
 10
2445.585075628182
 20
1012.038485879695
 30
0.0
 10
2446.010382881969
 20
1011.938706123727
 30
0.0
 10
2446.217579793005
 20
1011.876928378195
 30
0.0
 10
2446.612658554623
 20
1011.725861358731
 30
0.0
 10
2446.800554833432
 20
1011.636851198629
 30
0.0
 10
2447.066182756993
 20
1011.482682247928
 30
0.0
 10
2447.151220069486
 20
1011.428364190583
 30
0.0
 10
2447.316265487855
 20
1011.312612049421
 30
0.0
 10
2447.396209339295
 20
1011.251086375326
 30
0.0
 10
2447.546926764873
 20
1011.124284240425
 30
0.0
 10
2447.620390109287
 20
1011.056747831177
 30
0.0
 10
2447.759606591887
 20
1010.916831653687
 30
0.0
 10
2447.825431995871
 20
1010.844523808432
 30
0.0
 10
2448.013599858094
 20
1010.618957428024
 30
0.0
 10
2448.124406507946
 20
1010.459656670589
 30
0.0
 10
2448.417673639773
 20
1009.956711505135
 30
0.0
 10
2448.557403765606
 20
1009.594270007113
 30
0.0
 10
2448.702294872132
 20
1009.023910896398
 30
0.0
 10
2448.739796251088
 20
1008.829298809855
 30
0.0
 10
2448.796143262016
 20
1008.431977429466
 30
0.0
 10
2448.81498876966
 20
1008.22926811799
 30
0.0
 10
2448.836479812931
 20
1007.816092513788
 30
0.0
 10
2448.839120878113
 20
1007.605576234778
 30
0.0
 10
2448.830201047263
 20
1007.177113289279
 30
0.0
 10
2448.818645658148
 20
1006.959166508164
 30
0.0
 10
2448.765092903152
 20
1006.293408986591
 30
0.0
 10
2448.704403111675
 20
1005.835291112205
 30
0.0
 10
2448.544014094201
 20
1004.891848744271
 30
0.0
 10
2448.444240309468
 20
1004.406536927527
 30
0.0
 10
2448.100739659676
 20
1002.91692618205
 30
0.0
 10
2447.812793389987
 20
1001.878325582343
 30
0.0
 10
2447.191220620866
 20
999.7552008494329
 30
0.0
 10
2446.857478051539
 20
998.670710698944
 30
0.0
 10
2446.215155572124
 20
996.5084739537282
 30
0.0
 10
2445.906602872126
 20
995.4307003899927
 30
0.0
 10
2445.634459874525
 20
994.3394641759747
 30
0.0
 10
2445.623163543669
 20
994.2938646207844
 30
0.0
 10
2445.611961225988
 20
994.2483296037634
 30
0.0
  0
SOLID
  5
C1
330
2
100
AcDbEntity
  8
DISC-DRUM
 62
     7
100
AcDbTrace
 10
2427.442280721384
 20
1021.714763143584
 30
0.0
 11
2428.018850669417
 21
1021.714763143584
 31
0.0
 12
2428.018850669417
 22
1021.088768201581
 32
0.0
 13
2427.442280721384
 23
1021.714763143584
 33
0.0
  0
LINE
  5
C2
330
2
100
AcDbEntity
  8
DISC-DRUM
  6
Continuous
 62
     7
100
AcDbLine
 10
2429.766821368957
 20
1004.464442471609
 30
0.0
 11
2429.766821368957
 21
1005.054452244478
 31
0.0
  0
LINE
  5
C3
330
2
100
AcDbEntity
  8
DISC-DRUM
  6
Continuous
 62
     7
100
AcDbLine
 10
2429.627668120639
 20
1004.325289223291
 30
0.0
 11
2429.627668120639
 21
1005.193605492796
 31
0.0
  0
INSERT
  5
C4
330
2
100
AcDbEntity
  8
DISC-DRUM
 62
     7
100
AcDbBlockReference
 66
     1
  2
HN8S
 10
2428.532959698694
 20
1004.759447358043
 30
0.0
 41
0.1028218058553088
 42
0.1028218058553088
 43
0.1028218058553088
 50
180.0
  0
ATTRIB
  5
C5
330
C4
100
AcDbEntity
  8
0
100
AcDbText
 10
2428.532959698694
 20
1004.759447358043
 30
0.0
 40
0.0338253751570592
  1

 50
180.0
 41
0.8000000000000001
  7
ATTR
100
AcDbAttribute
  2
ESTCODE
 70
     9
  0
SEQEND
  5
D7
330
C4
100
AcDbEntity
  8
DISC-DRUM
 62
     7
  0
LINE
  5
D8
330
2
100
AcDbEntity
  8
DISC-DRUM
  6
DASHED
 62
     7
100
AcDbLine
 10
2429.627668120639
 20
1004.464442471609
 30
0.0
 11
2429.291977416792
 21
1004.464442471609
 31
0.0
  0
LINE
  5
D9
330
2
100
AcDbEntity
  8
DISC-DRUM
  6
Continuous
 62
     7
100
AcDbLine
 10
2429.627668120639
 20
1004.325289223291
 30
0.0
 11
2429.291977416792
 21
1004.325289223291
 31
0.0
  0
LINE
  5
DA
330
2
100
AcDbEntity
  8
DISC-DRUM
  6
Continuous
 62
     7
100
AcDbLine
 10
2429.766821368957
 20
1004.464442471609
 30
0.0
 11
2429.627668120639
 21
1004.325289223291
 31
0.0
  0
LWPOLYLINE
  5
DB
330
2
100
AcDbEntity
  8
SLEEVE
 62
     7
100
AcDbPolyline
 90
        6
 70
     1
 43
0.0
 10
2428.532959698694
 20
1007.180900885936
 10
2425.962414552311
 20
1007.180900885936
 10
2425.962414552311
 20
1006.962404548493
 10
2428.018850669417
 20
1006.962404548493
 10
2428.018850669417
 20
1006.651368585781
 10
2428.532959698694
 20
1006.651368585781
  0
LWPOLYLINE
  5
DD
330
2
100
AcDbEntity
  8
DISC-DRUM
 62
     7
100
AcDbPolyline
 90
        2
 70
     0
 43
0.0
 10
2428.018850669417
 20
1007.201465247107
 10
2428.018850669417
 20
1007.180900885936
  0
LINE
  5
DE
330
2
100
AcDbEntity
  8
DISC-DRUM
  6
DASHED
 62
     7
100
AcDbLine
 10
2429.627668120639
 20
1005.054452244478
 30
0.0
 11
2429.291977416792
 21
1005.054452244478
 31
0.0
  0
LINE
  5
DF
330
2
100
AcDbEntity
  8
DISC-DRUM
  6
Continuous
 62
     7
100
AcDbLine
 10
2429.627668120639
 20
1005.193605492796
 30
0.0
 11
2429.291977416792
 21
1005.193605492796
 31
0.0
  0
LINE
  5
E0
330
2
100
AcDbEntity
  8
DISC-DRUM
 62
     7
100
AcDbLine
 10
2428.532959698694
 20
1006.188670459432
 30
0.0
 11
2428.018850669417
 21
1006.188670459432
 31
0.0
  0
LWPOLYLINE
  5
E1
330
2
100
AcDbEntity
  8
DISC-DRUM
 62
     7
100
AcDbPolyline
 90
        2
 70
     0
 43
0.0
 10
2426.168058164021
 20
1007.180900885936
 10
2426.168058164021
 20
1007.201465247107
  0
LINE
  5
E2
330
2
100
AcDbEntity
  8
DISC-DRUM
  6
Continuous
 62
     7
100
AcDbLine
 10
2429.766821368957
 20
1005.054452244478
 30
0.0
 11
2429.627668120639
 21
1005.193605492796
 31
0.0
  0
LWPOLYLINE
  5
E3
330
2
100
AcDbEntity
  8
DISC-DRUM
 62
     7
100
AcDbPolyline
 90
        4
 70
     1
 43
0.0
 10
2428.532959698694
 20
1013.422184501353
 10
2428.532959698694
 20
1017.946343958987
 10
2428.84142511626
 20
1017.946343958987
 10
2428.84142511626
 20
1013.422184501353
  0
LWPOLYLINE
  5
E4
330
2
100
AcDbEntity
  8
SLEEVE
 62
     7
100
AcDbPolyline
 90
        6
 70
     1
 43
0.0
 10
2428.532959698694
 20
1013.422184501353
 10
2425.962414552311
 20
1013.422184501353
 10
2425.962414552311
 20
1013.640680838796
 10
2428.018850669417
 20
1013.640680838796
 10
2428.018850669417
 20
1013.951716801508
 10
2428.532959698694
 20
1013.951716801508
  0
LWPOLYLINE
  5
E5
330
2
100
AcDbEntity
  8
DISC-DRUM
 62
     7
100
AcDbPolyline
 90
        2
 70
     0
 43
0.0
 10
2428.018850669417
 20
1013.422184501353
 10
2428.018850669417
 20
1013.401620140182
  0
LINE
  5
E6
330
2
100
AcDbEntity
  8
DISC-DRUM
 62
     7
100
AcDbLine
 10
2428.532959698694
 20
1014.414414927857
 30
0.0
 11
2428.018850669417
 21
1014.414414927857
 31
0.0
  0
LWPOLYLINE
  5
E7
330
2
100
AcDbEntity
  8
DISC-DRUM
 62
     7
100
AcDbPolyline
 90
        2
 70
     0
 43
0.0
 10
2426.168058164021
 20
1013.401620140182
 10
2426.168058164021
 20
1013.422184501353
  0
SOLID
  5
E8
330
2
100
AcDbEntity
  8
DISC-DRUM
 62
     7
100
AcDbTrace
 10
2428.84142511626
 20
1017.946343958987
 30
0.0
 11
2428.532959698694
 21
1017.946343958987
 31
0.0
 12
2428.532959698694
 22
1018.238825652411
 32
0.0
 13
2428.84142511626
 23
1017.946343958987
 33
0.0
  0
LWPOLYLINE
  5
E9
330
2
100
AcDbEntity
  8
DISC-DRUM
 62
     7
100
AcDbPolyline
 90
        2
 70
     0
 43
0.0
 10
2428.018850669417
 20
1021.714763143584
 10
2428.018850669417
 20
1013.640680838796
  0
LWPOLYLINE
  5
EA
330
2
100
AcDbEntity
  8
DISC-DRUM
 62
     7
100
AcDbPolyline
 90
        3
 70
     0
 43
0.0
 10
2428.532959698694
 20
1013.401620140182
 10
2428.532959698694
 20
1022.331693978716
 10
2428.018850669417
 20
1022.331693978716
  0
SOLID
  5
EB
330
2
100
AcDbEntity
  8
DISC-DRUM
 62
     7
100
AcDbTrace
 10
2427.442280721384
 20
998.8883222437058
 30
0.0
 11
2428.018850669417
 21
998.8883222437058
 31
0.0
 12
2428.018850669417
 22
999.5143171857085
 32
0.0
 13
2427.442280721384
 23
998.8883222437058
 33
0.0
  0
LWPOLYLINE
  5
EC
330
2
100
AcDbEntity
  8
DISC-DRUM
 62
     7
100
AcDbPolyline
 90
        2
 70
     0
 43
0.0
 10
2428.018850669417
 20
998.271391408574
 10
2428.532959698694
 20
998.271391408574
  0
LWPOLYLINE
  5
ED
330
2
100
AcDbEntity
  8
DISC-DRUM
 62
     7
100
AcDbPolyline
 90
        2
 70
     0
 43
0.0
 10
2428.018850669417
 20
1006.962404548493
 10
2428.018850669417
 20
998.8883222437058
  0
LWPOLYLINE
  5
EE
330
2
100
AcDbEntity
  8
DISC-DRUM
 62
     7
100
AcDbPolyline
 90
        2
 70
     0
 43
0.0
 10
2428.532959698694
 20
998.271391408574
 10
2428.532959698694
 20
1007.201465247107
  0
SPLINE
  5
EF
330
2
100
AcDbEntity
  8
W018
 62
     7
100
AcDbSpline
210
0.0
220
0.0
230
1.0
 70
     8
 71
     3
 72
    56
 73
    52
 74
     0
 42
0.0000000001
 43
0.0000000001
 40
9.757414059411349
 40
9.757414059411349
 40
9.757414059411349
 40
9.757414059411349
 40
12.75398906370922
 40
12.75398906370922
 40
25.50797812741845
 40
25.50797812741845
 40
38.26196719112768
 40
38.26196719112768
 40
44.63896172298229
 40
44.63896172298229
 40
51.01595625483691
 40
51.01595625483691
 40
57.39295078669152
 40
57.39295078669152
 40
63.76994531854613
 40
63.76994531854613
 40
70.14693985040074
 40
70.14693985040074
 40
73.33543711632805
 40
73.33543711632805
 40
76.52393438225536
 40
76.52393438225536
 40
79.71243164818267
 40
79.71243164818267
 40
82.90092891410997
 40
82.90092891410997
 40
89.27792344596459
 40
89.27792344596459
 40
95.6549179778192
 40
95.6549179778192
 40
102.0319125096738
 40
102.0319125096738
 40
108.4089070415284
 40
108.4089070415284
 40
114.785901573383
 40
114.785901573383
 40
121.1628961052376
 40
121.1628961052376
 40
127.5398906370922
 40
127.5398906370922
 40
140.2938797008014
 40
140.2938797008014
 40
153.0478687645107
 40
153.0478687645107
 40
178.5558468919291
 40
178.5558468919291
 40
204.0638250193476
 40
204.0638250193476
 40
229.571803146766
 40
229.571803146766
 40
232.7053971899484
 40
232.7053971899484
 40
232.7053971899484
 40
232.7053971899484
 10
2440.755584217829
 20
1010.236051921699
 30
0.0
 10
2440.860646152751
 20
1010.253654788816
 30
0.0
 10
2440.96639706845
 20
1010.270791273952
 30
0.0
 10
2441.524793211526
 20
1010.357931359523
 30
0.0
 10
2441.985741057568
 20
1010.418377050571
 30
0.0
 10
2442.893837397671
 20
1010.505540138137
 30
0.0
 10
2443.340180705793
 20
1010.532105244496
 30
0.0
 10
2443.972545805948
 20
1010.537585541394
 30
0.0
 10
2444.177103405036
 20
1010.533695223929
 30
0.0
 10
2444.568782153418
 20
1010.513436836875
 30
0.0
 10
2444.755902570812
 20
1010.497054619124
 30
0.0
 10
2445.107414087567
 20
1010.451433615597
 30
0.0
 10
2445.272161774246
 20
1010.422080358518
 30
0.0
 10
2445.571777039162
 20
1010.351788733461
 30
0.0
 10
2445.706672699371
 20
1010.310970117588
 30
0.0
 10
2445.948426180525
 20
1010.218530377995
 30
0.0
 10
2446.055921303836
 20
1010.166869049938
 30
0.0
 10
2446.199768312052
 20
1010.083381056579
 30
0.0
 10
2446.2459847106
 20
1010.053816995445
 30
0.0
 10
2446.332225985624
 20
1009.993332964206
 30
0.0
 10
2446.372343802849
 20
1009.962545622265
 30
0.0
 10
2446.452545504106
 20
1009.895070034069
 30
0.0
 10
2446.488676806627
 20
1009.861703195724
 30
0.0
 10
2446.558903334798
 20
1009.79112371263
 30
0.0
 10
2446.592892328687
 20
1009.753805446854
 30
0.0
 10
2446.688783094305
 20
1009.638856312293
 30
0.0
 10
2446.74786444242
 20
1009.554392602879
 30
0.0
 10
2446.854081097864
 20
1009.372233923816
 30
0.0
 10
2446.902707974527
 20
1009.272099726241
 30
0.0
 10
2446.989219751393
 20
1009.054100728685
 30
0.0
 10
2447.027159060064
 20
1008.936257524353
 30
0.0
 10
2447.091829452963
 20
1008.681684633941
 30
0.0
 10
2447.118489115125
 20
1008.545108208398
 30
0.0
 10
2447.159749172195
 20
1008.254169921514
 30
0.0
 10
2447.174349688138
 20
1008.099808077338
 30
0.0
 10
2447.191263026978
 20
1007.774641034218
 30
0.0
 10
2447.193580326199
 20
1007.603885652453
 30
0.0
 10
2447.186156584037
 20
1007.247287137686
 30
0.0
 10
2447.176410047515
 20
1007.061444119104
 30
0.0
 10
2447.130007542971
 20
1006.484577132086
 30
0.0
 10
2447.075994649581
 20
1006.072606822405
 30
0.0
 10
2446.928665412537
 20
1005.20598486504
 30
0.0
 10
2446.835423601693
 20
1004.751320548125
 30
0.0
 10
2446.509136488106
 20
1003.336357313545
 30
0.0
 10
2446.229569563216
 20
1002.325714192291
 30
0.0
 10
2445.616690917045
 20
1000.23228623566
 30
0.0
 10
2445.283495266595
 20
999.1494674207636
 30
0.0
 10
2444.635067294044
 20
996.9666778815398
 30
0.0
 10
2444.319807762843
 20
995.8667341300547
 30
0.0
 10
2444.016393865499
 20
994.6501081814302
 30
0.0
 10
2443.983877854298
 20
994.5172443491443
 30
0.0
 10
2443.952110324725
 20
994.3846659459648
 30
0.0
  0
LINE
  5
F0
330
2
100
AcDbEntity
  8
0
100
AcDbLine
 10
2416.730807269823
 20
1036.101542693645
 30
0.0
 11
2468.40398363013
 21
1036.101542693645
 31
0.0
  0
MTEXT
  5
F1
330
2
100
AcDbEntity
  8
0
100
AcDbMText
 10
2386.665075145811
 20
1186.629770583298
 30
0.0
 40
5.0
 41
127.023864642644
 71
     1
 72
     5
  1
INSIDE HINGED ACCESS DOOR TO ENABLE ACCESS TO THE MANUAL RELEASE CABLE
 73
     1
 44
1.0
  0
LINE
  5
F2
330
2
100
AcDbEntity
  8
0
100
AcDbLine
 10
2412.966534195462
 20
1212.079884106736
 30
0.0
 11
2422.966534195463
 21
1212.079884106736
 31
0.0
  0
LEADER
  5
F3
330
2
100
AcDbEntity
  8
0
100
AcDbLeader
  3
ISO-25
 76
     2
 10
2336.293458880998
 20
1175.922573492296
 30
0.0
 10
2381.802556032227
 20
1175.922573492296
 30
0.0
1001
ACAD
1000
DSTYLE
1002
{
1070
   147
1040
0.625
1070
    77
1070
     0
1002
}
  0
HATCH
  5
F4
330
2
100
AcDbEntity
  8
0
100
AcDbHatch
 10
0.0
 20
0.0
 30
0.0
210
0.0
220
0.0
230
1.0
  2
SOLID
 70
     1
 71
     0
 91
        2
 92
        7
 72
     1
 73
     1
 93
        4
 10
2388.493625348206
 20
1212.079884106737
 42
0.0
 10
2385.60306793225
 20
1213.86867343636
 42
1.0
 10
2391.384182764162
 20
1210.291094777113
 42
0.4142135623730928
 10
2390.28241467783
 20
1214.970441522693
 42
0.0
 97
        0
 92
        7
 72
     1
 73
     1
 93
        3
 10
2388.493625348206
 20
1212.079884106737
 42
0.0
 10
2390.28241467783
 20
1214.970441522693
 42
0.4142135623730978
 10
2385.60306793225
 20
1213.86867343636
 42
0.0
 97
        0
 75
     0
 76
     1
 47
0.2191668823042354
 98
        2
 10
2388.551076992428
 20
1210.789136381958
 10
2388.096081358767
 20
1213.390355991258
  0
CIRCLE
  5
F5
330
2
100
AcDbEntity
  8
0
100
AcDbCircle
 10
2388.493625348206
 20
1212.079884106737
 30
0.0
 40
3.399277782222979
  0
CIRCLE
  5
F6
330
2
100
AcDbEntity
  8
0
100
AcDbCircle
 10
2388.493625348206
 20
1212.079884106737
 30
0.0
 40
3.399277782222979
  0
HATCH
  5
F7
330
2
100
AcDbEntity
  8
0
100
AcDbHatch
 10
0.0
 20
0.0
 30
0.0
210
0.0
220
0.0
230
1.0
  2
SOLID
 70
     1
 71
     0
 91
        2
 92
        7
 72
     1
 73
     1
 93
        4
 10
2388.493625348206
 20
1212.079884106737
 42
0.0
 10
2387.196287897546
 20
1208.937909412403
 42
0.5759519681006696
 10
2391.865172475435
 20
1212.513196245486
 42
0.7689955468081196
 10
2385.351650653873
 20
1213.377221557397
 42
0.0
 97
        0
 92
        7
 72
     1
 73
     1
 93
        4
 10
2388.493625348206
 20
1212.079884106737
 42
0.0
 10
2385.351650653873
 20
1213.377221557397
 42
0.1305850959368933
 10
2385.122078220977
 20
1211.646571967987
 42
0.2690742106882815
 10
2387.196287897546
 20
1208.937909412403
 42
0.0
 97
        0
 75
     0
 76
     1
 47
0.2191668823042354
 98
        2
 10
2389.758053905136
 20
1212.345498121546
 10
2387.264779937091
 20
1211.475469729638
  0
LINE
  5
F8
330
2
100
AcDbEntity
  8
0
100
AcDbLine
 10
2383.723623388592
 20
1220.86891598205
 30
0.0
 11
2388.493625348206
 21
1212.079884106736
 31
0.0
  0
LINE
  5
F9
330
2
100
AcDbEntity
  8
0
100
AcDbLine
 10
2388.493625348206
 20
1222.079884106737
 30
0.0
 11
2388.493625348206
 21
1212.079884106737
 31
0.0
  0
LINE
  5
FA
330
2
100
AcDbEntity
  8
0
100
AcDbLine
 10
2388.493625348206
 20
1222.079884106736
 30
0.0
 11
2388.493625348206
 21
1212.079884106736
 31
0.0
  0
LINE
  5
FB
330
2
100
AcDbEntity
  8
0
100
AcDbLine
 10
2388.493625348206
 20
1212.079884106736
 30
0.0
 11
2412.966534195462
 21
1212.079884106736
 31
0.0
  0
LINE
  5
FC
330
2
100
AcDbEntity
  8
0
100
AcDbLine
 10
2388.493625348206
 20
1222.079884106736
 30
0.0
 11
2412.966534195462
 21
1222.079884106736
 31
0.0
  0
LINE
  5
FD
102
{ACAD_REACTORS
330
1D1
102
}
330
2
100
AcDbEntity
  8
0
100
AcDbLine
 10
2313.041275295268
 20
1315.559995132674
 30
0.0
 11
2238.041275295269
 21
1315.559995132674
 31
0.0
  0
LINE
  5
FE
330
2
100
AcDbEntity
  8
0
100
AcDbLine
 10
2238.041275295269
 20
1390.559995132674
 30
0.0
 11
2313.041275295268
 21
1390.559995132674
 31
0.0
  0
LINE
  5
FF
330
2
100
AcDbEntity
  8
0
100
AcDbLine
 10
2278.473624039063
 20
1496.400708597081
 30
0.0
 11
2383.897564119316
 21
1441.634929508544
 31
0.0
  0
MTEXT
  5
100
330
2
100
AcDbEntity
  8
0
100
AcDbMText
 10
2262.064244243422
 20
1424.858432748457
 30
0.0
 40
5.0
 41
92.81870000000001
 71
     1
 72
     5
  1
REMOVABLE 18MM DEEP PACKER
 73
     1
 44
1.0
  0
LINE
  5
101
330
2
100
AcDbEntity
  8
0
100
AcDbLine
 10
2282.998135708163
 20
1505.110376124703
 30
0.0
 11
2388.493625348206
 21
1450.516158093616
 31
0.0
  0
LEADER
  5
102
330
2
100
AcDbEntity
  8
0
100
AcDbLeader
  3
ISO-25
 76
     2
 10
2166.12655536204
 20
1344.237601144303
 30
0.0
 10
2112.352844168453
 20
1396.986750923478
 30
0.0
1001
ACAD
1000
DSTYLE
1002
{
1070
   147
1040
0.625
1070
    77
1070
     0
1002
}
  0
LEADER
  5
103
330
2
100
AcDbEntity
  8
0
100
AcDbLeader
  3
ISO-25
 76
     2
 10
2231.361176982729
 20
1339.435785987118
 30
0.0
 10
2292.573587256415
 20
1404.966492181597
 30
0.0
211
0.889181380436365
221
0.4575548848884474
231
0.0
1001
ACAD
1000
DSTYLE
1002
{
1070
    41
1040
7.5
1070
   147
1040
0.625
1070
    77
1070
     0
1002
}
  0
LINE
  5
104
102
{ACAD_REACTORS
330
12D
102
}
330
2
100
AcDbEntity
  8
0
100
AcDbLine
 10
2164.600652393928
 20
1349.493034744531
 30
0.0
 11
2164.600652393928
 21
1445.516158093616
 31
0.0
  0
LINE
  5
105
330
2
100
AcDbEntity
  8
0
100
AcDbLine
 10
2174.600652393928
 20
1349.493034744531
 30
0.0
 11
2174.600652393928
 21
1440.516158093616
 31
0.0
  0
DIMENSION
  5
106
102
{ACAD_XDICTIONARY
360
107
102
}
102
{ACAD_REACTORS
330
108
102
}
330
2
100
AcDbEntity
  8
0
100
AcDbDimension
  2
*D2
 10
2216.563409400696
 20
1251.403117279134
 30
0.0
 11
2191.230389159082
 21
1255.750566200711
 31
0.0
 70
   128
  1
48
 71
     5
 42
51.9627570067687
  3
ISO-25
100
AcDbAlignedDimension
 13
2164.600652393928
 23
1264.380790503684
 33
0.0
 14
2216.563409400696
 24
1292.081725411543
 34
0.0
100
AcDbRotatedDimension
1001
ACAD
1000
DSTYLE
1002
{
1070
   279
1070
     2
1002
}
  0
LINE
  5
115
330
2
100
AcDbEntity
  8
0
100
AcDbLine
 10
2176.919323711265
 20
1295.87972968576
 30
0.0
 11
2233.537331681894
 21
1312.990720815692
 31
0.0
  0
LINE
  5
116
330
2
100
AcDbEntity
  8
0
100
AcDbLine
 10
2233.537331681894
 20
1295.87972968576
 30
0.0
 11
2176.919323711265
 21
1312.990720815692
 31
0.0
  0
LWPOLYLINE
  5
117
330
2
100
AcDbEntity
  8
0
100
AcDbPolyline
 90
        4
 70
     1
 43
0.0
 10
2176.919323711265
 20
1295.87972968576
 10
2233.537331681894
 20
1295.87972968576
 10
2233.537331681894
 20
1312.990720815692
 10
2176.919323711265
 20
1312.990720815692
  0
LINE
  5
118
330
2
100
AcDbEntity
  8
0
100
AcDbLine
 10
2233.537331681894
 20
1366.716312514593
 30
0.0
 11
2176.919323711265
 21
1349.605321384661
 31
0.0
  0
LINE
  5
119
330
2
100
AcDbEntity
  8
0
100
AcDbLine
 10
2176.919323711265
 20
1366.716312514593
 30
0.0
 11
2233.537331681894
 21
1349.605321384661
 31
0.0
  0
LWPOLYLINE
  5
11A
330
2
100
AcDbEntity
  8
0
100
AcDbPolyline
 90
        4
 70
     1
 43
0.0
 10
2176.919323711265
 20
1366.716312514593
 10
2233.537331681894
 20
1366.716312514593
 10
2233.537331681894
 20
1349.605321384661
 10
2176.919323711265
 20
1349.605321384661
  0
LINE
  5
11B
330
2
100
AcDbEntity
  8
VM001I12$010
  6
Continuous
100
AcDbLine
 10
2211.280664951081
 20
1318.141710733344
 30
0.0
 11
2203.421075909985
 21
1318.141710733344
 31
0.0
  0
LINE
  5
11D
330
2
100
AcDbEntity
  8
VE001I12$101
  6
Continuous
100
AcDbLine
 10
2211.280664951081
 20
1318.141710733344
 30
0.0
 11
2203.421075909985
 21
1318.141710733344
 31
0.0
  0
LINE
  5
11F
330
2
100
AcDbEntity
  8
VM001I16$010
  6
Continuous
100
AcDbLine
 10
2214.054637553821
 20
1316.189655938823
 30
0.0
 11
2208.095733444232
 21
1316.189655938823
 31
0.0
  0
LINE
  5
121
330
2
100
AcDbEntity
  8
VE001I16$101
  6
Continuous
100
AcDbLine
 10
2214.054637553821
 20
1316.189655938823
 30
0.0
 11
2208.095733444232
 21
1316.189655938823
 31
0.0
  0
LINE
  5
123
330
2
100
AcDbEntity
  8
VM001I8$010
  6
Continuous
100
AcDbLine
 10
2211.280664951081
 20
1344.237601144303
 30
0.0
 11
2203.421075909985
 21
1344.237601144303
 31
0.0
  0
LINE
  5
125
330
2
100
AcDbEntity
  8
VE001I8$101
  6
Continuous
100
AcDbLine
 10
2211.280664951081
 20
1344.237601144303
 30
0.0
 11
2203.421075909985
 21
1344.237601144303
 31
0.0
  0
LINE
  5
127
330
2
100
AcDbEntity
  8
VM001I6$010
  6
Continuous
100
AcDbLine
 10
2214.054637553821
 20
1346.189655938824
 30
0.0
 11
2208.095733444232
 21
1346.189655938824
 31
0.0
  0
LINE
  5
129
330
2
100
AcDbEntity
  8
VE001I6$101
  6
Continuous
100
AcDbLine
 10
2214.054637553821
 20
1346.189655938824
 30
0.0
 11
2208.095733444232
 21
1346.189655938824
 31
0.0
  0
DIMENSION
  5
12B
102
{ACAD_XDICTIONARY
360
12C
102
}
102
{ACAD_REACTORS
330
12D
102
}
330
2
100
AcDbEntity
  8
0
100
AcDbDimension
  2
*D1
 10
2133.817970511792
 20
1313.103007455821
 30
0.0
 11
2128.632203676849
 21
1332.253684661049
 31
0.0
 70
   128
  1
31
 71
     5
 42
36.39002728871037
  3
ISO-25
100
AcDbAlignedDimension
 13
2164.600652393928
 23
1349.493034744531
 33
0.0
 14
2164.600652393928
 24
1313.103007455821
 34
0.0
 50
90.0
100
AcDbRotatedDimension
1001
ACAD
1000
DSTYLE
1002
{
1070
   279
1070
     2
1002
}
  0
LINE
  5
13A
330
2
100
AcDbEntity
  8
VM001I23$010
  6
Continuous
100
AcDbLine
 10
2201.006692348341
 20
1318.963628541563
 30
0.0
 11
2201.006692348341
 21
1330.624587445673
 31
0.0
  0
LINE
  5
13C
330
2
100
AcDbEntity
  8
VE001I23$101
  6
Continuous
100
AcDbLine
 10
2201.006692348341
 20
1318.963628541563
 30
0.0
 11
2201.006692348341
 21
1330.624587445673
 31
0.0
  0
LINE
  5
13E
330
2
100
AcDbEntity
  8
VM001I2$010
  6
Continuous
100
AcDbLine
 10
2202.599158101766
 20
1318.963628541563
 30
0.0
 11
2202.599158101766
 21
1343.415683336084
 31
0.0
  0
LINE
  5
140
330
2
100
AcDbEntity
  8
VE001I2$101
  6
Continuous
100
AcDbLine
 10
2202.599158101766
 20
1318.963628541563
 30
0.0
 11
2202.599158101766
 21
1343.415683336084
 31
0.0
  0
LINE
  5
142
330
2
100
AcDbEntity
  8
VM001I9$010
  6
Continuous
100
AcDbLine
 10
2206.96559645793
 20
1316.189655938823
 30
0.0
 11
2166.12655536204
 21
1316.189655938823
 31
0.0
  0
LINE
  5
144
330
2
100
AcDbEntity
  8
VE001I9$101
  6
Continuous
100
AcDbLine
 10
2206.96559645793
 20
1316.189655938823
 30
0.0
 11
2166.12655536204
 21
1316.189655938823
 31
0.0
  0
LINE
  5
146
330
2
100
AcDbEntity
  8
VM001I19$010
  6
Continuous
100
AcDbLine
 10
2200.184774540122
 20
1318.141710733344
 30
0.0
 11
2166.12655536204
 21
1318.141710733344
 31
0.0
  0
LINE
  5
148
330
2
100
AcDbEntity
  8
VE001I19$101
  6
Continuous
100
AcDbLine
 10
2200.184774540122
 20
1318.141710733344
 30
0.0
 11
2166.12655536204
 21
1318.141710733344
 31
0.0
  0
ARC
  5
14A
330
2
100
AcDbEntity
  8
VE001I27$101
  6
Continuous
100
AcDbCircle
 10
2166.12655536204
 20
1317.165683336084
 30
0.0
 40
0.9760273972602723
100
AcDbArc
 50
90.0
 51
270.0
  0
ARC
  5
14C
330
2
100
AcDbEntity
  8
VM001I27$010
  6
Continuous
100
AcDbCircle
 10
2166.12655536204
 20
1317.165683336084
 30
0.0
 40
0.9760273972602723
100
AcDbArc
 50
90.0
 51
270.0
  0
LINE
  5
14E
330
2
100
AcDbEntity
  8
0
100
AcDbLine
 10
2164.600652393928
 20
1313.103007455821
 30
0.0
 11
2174.600652393928
 21
1313.103007455821
 31
0.0
  0
ARC
  5
14F
330
2
100
AcDbEntity
  8
VM001I33$010
  6
Continuous
100
AcDbCircle
 10
2203.421075909985
 20
1318.963628541563
 30
0.0
 40
0.8219178082191767
100
AcDbArc
 50
180.0
 51
270.0
  0
ARC
  5
151
330
2
100
AcDbEntity
  8
VE001I33$101
  6
Continuous
100
AcDbCircle
 10
2203.421075909985
 20
1318.963628541563
 30
0.0
 40
0.8219178082191767
100
AcDbArc
 50
180.0
 51
270.0
  0
LINE
  5
153
330
2
100
AcDbEntity
  8
VM001I20$010
  6
Continuous
100
AcDbLine
 10
2207.78751426615
 20
1316.497875116906
 30
0.0
 11
2207.273815636012
 21
1316.497875116906
 31
0.0
  0
LINE
  5
155
330
2
100
AcDbEntity
  8
VE001I20$101
  6
Continuous
100
AcDbLine
 10
2207.78751426615
 20
1316.497875116906
 30
0.0
 11
2207.273815636012
 21
1316.497875116906
 31
0.0
  0
LINE
  5
157
330
2
100
AcDbEntity
  8
VM001I14$010
  6
Continuous
100
AcDbLine
 10
2207.78751426615
 20
1316.497875116906
 30
0.0
 11
2208.095733444232
 21
1316.189655938823
 31
0.0
  0
LINE
  5
159
330
2
100
AcDbEntity
  8
VE001I14$101
  6
Continuous
100
AcDbLine
 10
2207.78751426615
 20
1316.497875116906
 30
0.0
 11
2208.095733444232
 21
1316.189655938823
 31
0.0
  0
LINE
  5
15B
330
2
100
AcDbEntity
  8
VM001I24$010
  6
Continuous
100
AcDbLine
 10
2207.273815636012
 20
1316.497875116906
 30
0.0
 11
2206.96559645793
 21
1316.189655938823
 31
0.0
  0
LINE
  5
15D
330
2
100
AcDbEntity
  8
VE001I24$101
  6
Continuous
100
AcDbLine
 10
2207.273815636012
 20
1316.497875116906
 30
0.0
 11
2206.96559645793
 21
1316.189655938823
 31
0.0
  0
ARC
  5
15F
330
2
100
AcDbEntity
  8
VM001I31$010
  6
Continuous
100
AcDbCircle
 10
2200.184774540122
 20
1318.963628541563
 30
0.0
 40
0.8219178082191767
100
AcDbArc
 50
270.0
 51
0.0
  0
ARC
  5
161
330
2
100
AcDbEntity
  8
VE001I31$101
  6
Continuous
100
AcDbCircle
 10
2200.184774540122
 20
1318.963628541563
 30
0.0
 40
0.8219178082191767
100
AcDbArc
 50
270.0
 51
0.0
  0
LINE
  5
163
330
2
100
AcDbEntity
  8
VM001I5$010
  6
Continuous
100
AcDbLine
 10
2206.965596457931
 20
1346.189655938824
 30
0.0
 11
2166.12655536204
 21
1346.189655938824
 31
0.0
  0
LINE
  5
165
330
2
100
AcDbEntity
  8
VE001I5$101
  6
Continuous
100
AcDbLine
 10
2206.965596457931
 20
1346.189655938824
 30
0.0
 11
2166.12655536204
 21
1346.189655938824
 31
0.0
  0
LINE
  5
167
330
2
100
AcDbEntity
  8
VM001I26$010
  6
Continuous
100
AcDbLine
 10
2200.184774540122
 20
1344.237601144303
 30
0.0
 11
2166.12655536204
 21
1344.237601144303
 31
0.0
  0
LINE
  5
169
330
2
100
AcDbEntity
  8
VE001I26$101
  6
Continuous
100
AcDbLine
 10
2200.184774540122
 20
1344.237601144303
 30
0.0
 11
2166.12655536204
 21
1344.237601144303
 31
0.0
  0
ARC
  5
16B
330
2
100
AcDbEntity
  8
VM001I27$010
  6
Continuous
100
AcDbCircle
 10
2166.12655536204
 20
1345.213628541563
 30
0.0
 40
0.9760273972602723
100
AcDbArc
 50
90.0
 51
270.0
  0
ARC
  5
16C
330
2
100
AcDbEntity
  8
VE001I27$101
  6
Continuous
100
AcDbCircle
 10
2166.12655536204
 20
1345.213628541563
 30
0.0
 40
0.9760273972602723
100
AcDbArc
 50
90.0
 51
270.0
  0
LINE
  5
16D
330
2
100
AcDbEntity
  8
0
100
AcDbLine
 10
2164.600652393928
 20
1349.493034744531
 30
0.0
 11
2174.600652393928
 21
1349.493034744531
 31
0.0
  0
LINE
  5
16E
330
2
100
AcDbEntity
  8
VM001I7$010
  6
Continuous
100
AcDbLine
 10
2201.314911526424
 20
1330.932806623755
 30
0.0
 11
2201.006692348341
 21
1330.624587445673
 31
0.0
  0
LINE
  5
170
330
2
100
AcDbEntity
  8
VE001I7$101
  6
Continuous
100
AcDbLine
 10
2201.314911526424
 20
1330.932806623755
 30
0.0
 11
2201.006692348341
 21
1330.624587445673
 31
0.0
  0
LINE
  5
172
330
2
100
AcDbEntity
  8
VM001I11$010
  6
Continuous
100
AcDbLine
 10
2201.314911526424
 20
1331.446505253892
 30
0.0
 11
2201.006692348341
 21
1331.754724431974
 31
0.0
  0
LINE
  5
174
330
2
100
AcDbEntity
  8
VE001I11$101
  6
Continuous
100
AcDbLine
 10
2201.314911526424
 20
1331.446505253892
 30
0.0
 11
2201.006692348341
 21
1331.754724431974
 31
0.0
  0
ARC
  5
176
330
2
100
AcDbEntity
  8
VM001I29$010
  6
Continuous
100
AcDbCircle
 10
2203.421075909985
 20
1343.415683336084
 30
0.0
 40
0.8219178082191767
100
AcDbArc
 50
90.0
 51
180.0
  0
ARC
  5
178
330
2
100
AcDbEntity
  8
VE001I29$101
  6
Continuous
100
AcDbCircle
 10
2203.421075909985
 20
1343.415683336084
 30
0.0
 40
0.8219178082191767
100
AcDbArc
 50
90.0
 51
180.0
  0
LINE
  5
17A
330
2
100
AcDbEntity
  8
VM001I3$010
  6
Continuous
100
AcDbLine
 10
2207.78751426615
 20
1345.881436760741
 30
0.0
 11
2207.273815636012
 21
1345.881436760741
 31
0.0
  0
LINE
  5
17C
330
2
100
AcDbEntity
  8
VE001I3$101
  6
Continuous
100
AcDbLine
 10
2207.78751426615
 20
1345.881436760741
 30
0.0
 11
2207.273815636012
 21
1345.881436760741
 31
0.0
  0
LINE
  5
17E
330
2
100
AcDbEntity
  8
VM001I1$010
  6
Continuous
100
AcDbLine
 10
2207.78751426615
 20
1345.881436760741
 30
0.0
 11
2208.095733444232
 21
1346.189655938824
 31
0.0
  0
LINE
  5
180
330
2
100
AcDbEntity
  8
VE001I1$101
  6
Continuous
100
AcDbLine
 10
2207.78751426615
 20
1345.881436760741
 30
0.0
 11
2208.095733444232
 21
1346.189655938824
 31
0.0
  0
LINE
  5
182
330
2
100
AcDbEntity
  8
VM001I4$010
  6
Continuous
100
AcDbLine
 10
2207.273815636012
 20
1345.881436760741
 30
0.0
 11
2206.965596457931
 21
1346.189655938824
 31
0.0
  0
LINE
  5
184
330
2
100
AcDbEntity
  8
VE001I4$101
  6
Continuous
100
AcDbLine
 10
2207.273815636012
 20
1345.881436760741
 30
0.0
 11
2206.965596457931
 21
1346.189655938824
 31
0.0
  0
LINE
  5
186
330
2
100
AcDbEntity
  8
VM001I22$010
  6
Continuous
100
AcDbLine
 10
2201.006692348341
 20
1331.754724431974
 30
0.0
 11
2201.006692348341
 21
1343.415683336084
 31
0.0
  0
LINE
  5
188
330
2
100
AcDbEntity
  8
VE001I22$101
  6
Continuous
100
AcDbLine
 10
2201.006692348341
 20
1331.754724431974
 30
0.0
 11
2201.006692348341
 21
1343.415683336084
 31
0.0
  0
ARC
  5
18A
330
2
100
AcDbEntity
  8
VM001I32$010
  6
Continuous
100
AcDbCircle
 10
2200.184774540122
 20
1343.415683336084
 30
0.0
 40
0.8219178082191767
100
AcDbArc
 50
0.0
 51
90.0
  0
ARC
  5
18C
330
2
100
AcDbEntity
  8
VE001I32$101
  6
Continuous
100
AcDbCircle
 10
2200.184774540122
 20
1343.415683336084
 30
0.0
 40
0.8219178082191767
100
AcDbArc
 50
0.0
 51
90.0
  0
LINE
  5
18E
330
2
100
AcDbEntity
  8
VM001I21$010
  6
Continuous
100
AcDbLine
 10
2201.314911526424
 20
1330.932806623755
 30
0.0
 11
2201.314911526424
 21
1331.446505253892
 31
0.0
  0
LINE
  5
190
330
2
100
AcDbEntity
  8
VE001I21$101
  6
Continuous
100
AcDbLine
 10
2201.314911526424
 20
1330.932806623755
 30
0.0
 11
2201.314911526424
 21
1331.446505253892
 31
0.0
  0
LINE
  5
192
330
2
100
AcDbEntity
  8
0
100
AcDbLine
 10
2243.365296121319
 20
1320.559995132674
 30
0.0
 11
2243.365296121319
 21
1385.559995132674
 31
0.0
  0
LINE
  5
193
330
2
100
AcDbEntity
  8
0
100
AcDbLine
 10
2308.365296121319
 20
1385.559995132674
 30
0.0
 11
2308.365296121319
 21
1320.559995132674
 31
0.0
  0
LINE
  5
194
330
2
100
AcDbEntity
  8
0
100
AcDbLine
 10
2238.041275295269
 20
1315.559995132674
 30
0.0
 11
2238.041275295269
 21
1390.559995132674
 31
0.0
  0
HATCH
  5
195
330
2
100
AcDbEntity
  8
0
100
AcDbHatch
 10
0.0
 20
0.0
 30
0.0
210
0.0
220
0.0
230
1.0
  2
ANSI31
 70
     0
 71
     0
 91
        2
 92
        7
 72
     0
 73
     1
 93
        4
 10
2234.563409400696
 20
1331.298021100176
 10
2216.563409400696
 20
1331.298021100176
 10
2216.563409400696
 20
1318.798021100176
 10
2234.563409400696
 20
1318.798021100176
 97
        0
 92
        7
 72
     0
 73
     1
 93
        4
 10
2234.563409400696
 20
1343.798021100176
 10
2216.563409400696
 20
1343.798021100176
 10
2216.563409400696
 20
1331.298021100176
 10
2234.563409400696
 20
1331.298021100176
 97
        0
 75
     0
 76
     1
 52
0.0
 41
1.0
 77
     0
 78
     1
 53
45.0
 43
2008.11745277927
 44
1157.230897874456
 45
-2.245064030267287
 46
2.245064030267288
 79
     0
 47
0.294668751043348
 98
        2
 10
2227.481068321314
 20
1325.658679206882
 10
2224.825421098852
 20
1337.15075971613
  0
LINE
  5
196
330
2
100
AcDbEntity
  8
0
100
AcDbLine
 10
2234.563409400696
 20
1318.798021100176
 30
0.0
 11
2234.563409400696
 21
1343.798021100176
 31
0.0
  0
LINE
  5
197
330
2
100
AcDbEntity
  8
0
100
AcDbLine
 10
2216.563409400696
 20
1343.798021100176
 30
0.0
 11
2216.563409400696
 21
1318.798021100176
 31
0.0
  0
LINE
  5
198
330
2
100
AcDbEntity
  8
VM001I17$010
  6
Continuous
100
AcDbLine
 10
2214.054637553821
 20
1316.189655938823
 30
0.0
 11
2214.054637553821
 21
1330.624587445673
 31
0.0
  0
LINE
  5
19A
330
2
100
AcDbEntity
  8
VE001I17$101
  6
Continuous
100
AcDbLine
 10
2214.054637553821
 20
1316.189655938823
 30
0.0
 11
2214.054637553821
 21
1330.624587445673
 31
0.0
  0
LINE
  5
19C
330
2
100
AcDbEntity
  8
VM001I25$010
  6
Continuous
100
AcDbLine
 10
2212.102582759301
 20
1318.963628541563
 30
0.0
 11
2212.102582759301
 21
1343.415683336084
 31
0.0
  0
LINE
  5
19E
330
2
100
AcDbEntity
  8
VE001I25$101
  6
Continuous
100
AcDbLine
 10
2212.102582759301
 20
1318.963628541563
 30
0.0
 11
2212.102582759301
 21
1343.415683336084
 31
0.0
  0
LINE
  5
1A0
330
2
100
AcDbEntity
  8
0
100
AcDbLine
 10
2308.365296121319
 20
1320.559995132674
 30
0.0
 11
2243.365296121319
 21
1320.559995132674
 31
0.0
  0
LINE
  5
1A1
330
2
100
AcDbEntity
  8
0
100
AcDbLine
 10
2216.563409400696
 20
1318.798021100176
 30
0.0
 11
2234.563409400696
 21
1318.798021100176
 31
0.0
  0
ARC
  5
1A2
330
2
100
AcDbEntity
  8
VM001I28$010
  6
Continuous
100
AcDbCircle
 10
2211.280664951081
 20
1318.963628541563
 30
0.0
 40
0.8219178082191767
100
AcDbArc
 50
270.0
 51
0.0
  0
ARC
  5
1A4
330
2
100
AcDbEntity
  8
VE001I28$101
  6
Continuous
100
AcDbCircle
 10
2211.280664951081
 20
1318.963628541563
 30
0.0
 40
0.8219178082191767
100
AcDbArc
 50
270.0
 51
0.0
  0
LINE
  5
1A6
330
2
100
AcDbEntity
  8
0
100
AcDbLine
 10
2243.365296121319
 20
1385.559995132674
 30
0.0
 11
2308.365296121319
 21
1385.559995132674
 31
0.0
  0
LINE
  5
1A7
330
2
100
AcDbEntity
  8
0
100
AcDbLine
 10
2234.563409400696
 20
1343.798021100176
 30
0.0
 11
2216.563409400696
 21
1343.798021100176
 31
0.0
  0
LINE
  5
1A8
330
2
100
AcDbEntity
  8
VM001I10$010
  6
Continuous
100
AcDbLine
 10
2213.746418375739
 20
1330.932806623755
 30
0.0
 11
2214.054637553821
 21
1330.624587445673
 31
0.0
  0
LINE
  5
1AA
330
2
100
AcDbEntity
  8
VE001I10$101
  6
Continuous
100
AcDbLine
 10
2213.746418375739
 20
1330.932806623755
 30
0.0
 11
2214.054637553821
 21
1330.624587445673
 31
0.0
  0
LINE
  5
1AC
330
2
100
AcDbEntity
  8
VM001I15$010
  6
Continuous
100
AcDbLine
 10
2213.746418375739
 20
1331.446505253892
 30
0.0
 11
2214.054637553821
 21
1331.754724431974
 31
0.0
  0
LINE
  5
1AE
330
2
100
AcDbEntity
  8
VE001I15$101
  6
Continuous
100
AcDbLine
 10
2213.746418375739
 20
1331.446505253892
 30
0.0
 11
2214.054637553821
 21
1331.754724431974
 31
0.0
  0
LINE
  5
1B0
330
2
100
AcDbEntity
  8
VM001I18$010
  6
Continuous
100
AcDbLine
 10
2214.054637553821
 20
1331.754724431974
 30
0.0
 11
2214.054637553821
 21
1346.189655938824
 31
0.0
  0
LINE
  5
1B2
330
2
100
AcDbEntity
  8
VE001I18$101
  6
Continuous
100
AcDbLine
 10
2214.054637553821
 20
1331.754724431974
 30
0.0
 11
2214.054637553821
 21
1346.189655938824
 31
0.0
  0
ARC
  5
1B4
330
2
100
AcDbEntity
  8
VM001I34$010
  6
Continuous
100
AcDbCircle
 10
2211.280664951081
 20
1343.415683336084
 30
0.0
 40
0.8219178082191767
100
AcDbArc
 50
0.0
 51
90.0
  0
ARC
  5
1B6
330
2
100
AcDbEntity
  8
VE001I34$101
  6
Continuous
100
AcDbCircle
 10
2211.280664951081
 20
1343.415683336084
 30
0.0
 40
0.8219178082191767
100
AcDbArc
 50
0.0
 51
90.0
  0
LINE
  5
1B8
330
2
100
AcDbEntity
  8
VM001I13$010
  6
Continuous
100
AcDbLine
 10
2213.746418375739
 20
1330.932806623755
 30
0.0
 11
2213.746418375739
 21
1331.446505253892
 31
0.0
  0
LINE
  5
1BA
330
2
100
AcDbEntity
  8
VE001I13$101
  6
Continuous
100
AcDbLine
 10
2213.746418375739
 20
1330.932806623755
 30
0.0
 11
2213.746418375739
 21
1331.446505253892
 31
0.0
  0
LINE
  5
1BC
330
2
100
AcDbEntity
  8
0
100
AcDbLine
 10
2174.600652393928
 20
1440.516158093616
 30
0.0
 11
2269.708977085188
 21
1440.516158093616
 31
0.0
  0
LINE
  5
1BD
330
2
100
AcDbEntity
  8
0
100
AcDbLine
 10
2164.600652393928
 20
1450.516158093616
 30
0.0
 11
2269.708977085188
 21
1450.516158093616
 31
0.0
  0
LINE
  5
1BE
330
2
100
AcDbEntity
  8
0
100
AcDbLine
 10
2164.600652393928
 20
1445.516158093616
 30
0.0
 11
2164.600652393928
 21
1450.516158093616
 31
0.0
  0
LINE
  5
1BF
330
2
100
AcDbEntity
  8
0
100
AcDbLine
 10
2269.708977085188
 20
1450.516158093616
 30
0.0
 11
2269.708977085188
 21
1440.516158093616
 31
0.0
  0
LINE
  5
1C0
330
2
100
AcDbEntity
  8
0
100
AcDbLine
 10
2283.083529588511
 20
1505.274759015304
 30
0.0
 11
2278.473624039063
 21
1496.400708597081
 31
0.0
  0
LINE
  5
1C1
330
2
100
AcDbEntity
  8
0
100
AcDbLine
 10
2412.966534195462
 20
1440.516158093616
 30
0.0
 11
2412.966534195462
 21
1331.298021100176
 31
0.0
  0
LINE
  5
1C2
330
2
100
AcDbEntity
  8
0
100
AcDbLine
 10
2422.966534195463
 20
1450.516158093616
 30
0.0
 11
2422.966534195463
 21
1331.298021100176
 31
0.0
  0
LEADER
  5
1C3
330
2
100
AcDbEntity
  8
0
100
AcDbLeader
  3
ISO-25
 76
     2
 10
2316.672144280756
 20
1351.298021100176
 30
0.0
 10
2436.058883328259
 20
1373.78981078455
 30
0.0
1001
ACAD
1000
DSTYLE
1002
{
1070
   147
1040
0.625
1070
    77
1070
     0
1002
}
  0
LINE
  5
1C4
330
2
100
AcDbEntity
  8
0
100
AcDbLine
 10
2313.041275295268
 20
1390.559995132674
 30
0.0
 11
2313.041275295268
 21
1315.559995132674
 31
0.0
  0
LINE
  5
1C5
330
2
100
AcDbEntity
  8
0
100
AcDbLine
 10
2412.966534195462
 20
1450.516158093616
 30
0.0
 11
2422.966534195463
 21
1450.516158093616
 31
0.0
  0
CIRCLE
  5
1C6
330
2
100
AcDbEntity
  8
0
100
AcDbCircle
 10
2388.493625348206
 20
1450.516158093616
 30
0.0
 40
3.399277782222979
  0
CIRCLE
  5
1C7
330
2
100
AcDbEntity
  8
0
100
AcDbCircle
 10
2388.493625348206
 20
1450.516158093616
 30
0.0
 40
3.399277782222979
  0
LINE
  5
1C8
330
2
100
AcDbEntity
  8
0
100
AcDbLine
 10
2388.493625348206
 20
1450.516158093616
 30
0.0
 11
2383.897564119316
 21
1441.634929508544
 31
0.0
  0
HATCH
  5
1C9
330
2
100
AcDbEntity
  8
0
100
AcDbHatch
 10
0.0
 20
0.0
 30
0.0
210
0.0
220
0.0
230
1.0
  2
SOLID
 70
     1
 71
     0
 91
        2
 92
        7
 72
     1
 73
     1
 93
        4
 10
2388.493625348206
 20
1450.516158093616
 42
0.0
 10
2387.196287897546
 20
1453.658132787949
 42
-0.5759519681006696
 10
2391.865172475435
 20
1450.082845954867
 42
-0.7689955468081196
 10
2385.351650653873
 20
1449.218820642956
 42
0.0
 97
        0
 92
        7
 72
     1
 73
     1
 93
        4
 10
2388.493625348206
 20
1450.516158093616
 42
0.0
 10
2385.351650653873
 20
1449.218820642956
 42
-0.1305850959368933
 10
2385.122078220977
 20
1450.949470232365
 42
-0.2690742106882815
 10
2387.196287897546
 20
1453.658132787949
 42
0.0
 97
        0
 75
     0
 76
     1
 47
0.2191668823042354
 98
        2
 10
2389.758053905136
 20
1450.250544078806
 10
2387.264779937091
 20
1451.120572470714
  0
HATCH
  5
1CA
330
2
100
AcDbEntity
  8
0
100
AcDbHatch
 10
0.0
 20
0.0
 30
0.0
210
0.0
220
0.0
230
1.0
  2
SOLID
 70
     1
 71
     0
 91
        2
 92
        7
 72
     1
 73
     1
 93
        4
 10
2388.493625348206
 20
1450.516158093616
 42
0.0
 10
2385.122078220977
 20
1450.949470232365
 42
-1.0
 10
2391.865172475435
 20
1450.082845954867
 42
-0.4142135623730928
 10
2388.060313209457
 20
1447.144610966387
 42
0.0
 97
        0
 92
        7
 72
     1
 73
     1
 93
        3
 10
2388.493625348206
 20
1450.516158093616
 42
0.0
 10
2388.060313209457
 20
1447.144610966387
 42
-0.4142135623730978
 10
2385.122078220977
 20
1450.949470232365
 42
0.0
 97
        0
 75
     0
 76
     1
 47
0.2191668823042354
 98
        2
 10
2389.351821662419
 20
1451.481989065741
 10
2387.358972921141
 20
1449.749384558981
  0
LINE
  5
1CB
330
2
100
AcDbEntity
  8
0
100
AcDbLine
 10
2388.493625348206
 20
1440.516158093616
 30
0.0
 11
2388.493625348206
 21
1450.516158093616
 31
0.0
  0
LINE
  5
1CC
330
2
100
AcDbEntity
  8
0
100
AcDbLine
 10
2388.493625348206
 20
1440.516158093616
 30
0.0
 11
2412.966534195462
 21
1440.516158093616
 31
0.0
  0
LINE
  5
1CD
330
2
100
AcDbEntity
  8
0
100
AcDbLine
 10
2388.493625348206
 20
1450.516158093616
 30
0.0
 11
2412.966534195462
 21
1450.516158093616
 31
0.0
  0
LEADER
  5
1CE
330
2
100
AcDbEntity
  8
0
100
AcDbLeader
  3
ISO-25
 76
     2
 10
2335.745880528184
 20
1485.640393025997
 30
0.0
 10
2379.609444004102
 20
1485.640393025997
 30
0.0
1001
ACAD
1000
DSTYLE
1002
{
1070
   147
1040
0.625
1070
    77
1070
     0
1002
}
  0
DIMENSION
  5
1CF
102
{ACAD_XDICTIONARY
360
1D0
102
}
102
{ACAD_REACTORS
330
1D1
102
}
330
2
100
AcDbEntity
  8
0
100
AcDbDimension
  2
*D6
 10
2412.966534195462
 20
1325.22557051637
 30
0.0
 11
2363.003904745365
 21
1336.683903849703
 31
0.0
 70
    32
  1
RECOMMENDED\PMINIMUM OF\P100MM
 71
     5
 42
99.92525890019397
  3
ISO-25
100
AcDbAlignedDimension
 13
2313.041275295268
 23
1315.559995132674
 33
0.0
 14
2412.966534195462
 24
1222.079884106736
 34
0.0
100
AcDbRotatedDimension
  0
ENDSEC
  0
SECTION
  2
OBJECTS
  0
DICTIONARY
  5
9
330
0
100
AcDbDictionary
281
     1
  3
ACAD_GROUP
350
1F3
  3
ACAD_LAYOUT
350
1E1
  3
ACAD_MLINESTYLE
350
1F4
  3
ACAD_PLOTSETTINGS
350
1F5
  3
ACAD_PLOTSTYLENAME
350
8
  3
AcDbVariableDictionary
350
1FC
  0
DICTIONARY
  5
4
330
3
100
AcDbDictionary
280
     1
281
     1
  3
ACAD_DIMASSOC
360
5
  0
DICTIONARY
  5
1C
330
1B
100
AcDbDictionary
280
     1
281
     1
  3
ACAD_DIMASSOC
360
1D
  0
DICTIONARY
  5
107
330
106
100
AcDbDictionary
280
     1
281
     1
  3
ACAD_DIMASSOC
360
108
  0
DICTIONARY
  5
12C
330
12B
100
AcDbDictionary
280
     1
281
     1
  3
ACAD_DIMASSOC
360
12D
  0
DICTIONARY
  5
1D0
330
1CF
100
AcDbDictionary
280
     1
281
     1
  3
ACAD_DIMASSOC
360
1D1
  0
DICTIONARY
  5
1F3
102
{ACAD_REACTORS
330
9
102
}
330
9
100
AcDbDictionary
281
     1
  0
DICTIONARY
  5
1E1
102
{ACAD_REACTORS
330
9
102
}
330
9
100
AcDbDictionary
281
     1
  3
MIRAGE
350
1E5
  3
Model
350
1E0
  0
DICTIONARY
  5
1F4
102
{ACAD_REACTORS
330
9
102
}
330
9
100
AcDbDictionary
281
     1
  3
Standard
350
1F6
  0
DICTIONARY
  5
1F5
102
{ACAD_REACTORS
330
9
102
}
330
9
100
AcDbDictionary
281
     1
  0
ACDBDICTIONARYWDFLT
  5
8
102
{ACAD_REACTORS
330
9
102
}
330
9
100
AcDbDictionary
281
     1
  3
Normal
350
7
100
AcDbDictionaryWithDefault
340
7
  0
DICTIONARY
  5
1FC
102
{ACAD_REACTORS
330
9
102
}
330
9
100
AcDbDictionary
281
     1
  3
DIMASSOC
350
1FD
  0
DIMASSOC
  5
5
102
{ACAD_REACTORS
330
4
102
}
330
4
100
AcDbDimAssoc
330
3
 90
        1
 70
     0
 71
     0
  1
AcDbOsnapPointRef
 72
    13
331
9E
 73
     2
 91
        0
 40
0.0
 10
2164.600652393928
 20
1212.079884106737
 30
0.0
 75
     0
  0
DIMASSOC
  5
1D
102
{ACAD_REACTORS
330
1C
102
}
330
1C
100
AcDbDimAssoc
330
1B
 90
        1
 70
     0
 71
     0
  1
AcDbOsnapPointRef
 72
    10
331
66
 73
     2
 91
        0
 40
0.481033804234301
 10
2102.566610467582
 20
1369.298021100176
 30
0.0
 75
     0
  0
DIMASSOC
  5
108
102
{ACAD_REACTORS
330
107
102
}
330
107
100
AcDbDimAssoc
330
106
 90
        1
 70
     0
 71
     0
  1
AcDbOsnapPointRef
 72
    10
331
7D
 73
     2
 91
        0
 40
0.5074008765056686
 10
2164.600652393928
 20
1264.380790503684
 30
0.0
 75
     0
  0
DIMASSOC
  5
12D
102
{ACAD_REACTORS
330
12C
102
}
330
12C
100
AcDbDimAssoc
330
12B
 90
        3
 70
     0
 71
     0
  1
AcDbOsnapPointRef
 72
    13
331
104
 73
     2
 91
        0
 40
0.0
 10
2164.600652393928
 20
1349.493034744531
 30
0.0
 75
     0
  1
AcDbOsnapPointRef
 72
    13
331
7D
 73
     2
 91
        0
 40
0.0
 10
2164.600652393928
 20
1313.103007455821
 30
0.0
 75
     0
  0
DIMASSOC
  5
1D1
102
{ACAD_REACTORS
330
1D0
102
}
330
1D0
100
AcDbDimAssoc
330
1CF
 90
        3
 70
     0
 71
     0
  1
AcDbOsnapPointRef
 72
    13
331
FD
 73
     2
 91
        0
 40
0.0
 10
2313.041275295268
 20
1315.559995132674
 30
0.0
 75
     0
  1
AcDbOsnapPointRef
 72
    13
331
80
 73
     2
 91
        0
 40
0.0
 10
2412.966534195462
 20
1222.079884106736
 30
0.0
 75
     0
  0
LAYOUT
  5
1E5
102
{ACAD_REACTORS
330
1E1
102
}
330
1E1
100
AcDbPlotSettings
  1

  2
HP LaserJet 5N
  4
A4
  6

 40
6.043083190917968
 41
6.720414161682128
 42
7.821090698242187
 43
5.027069091796875
 44
210.0579986572265
 45
296.9259948730469
 46
0.0
 47
0.0
 48
0.0
 49
0.0
140
0.0
141
0.0
142
1.0
143
1.0
 70
   688
 72
     1
 73
     0
 74
     5
  7

 75
    16
147
1.0
148
0.0
149
0.0
100
AcDbLayout
  1
MIRAGE
 70
     1
 71
     1
 10
-6.043083190917968
 20
-6.720414161682128
 11
204.0149154663085
 21
290.2055807113647
 12
0.0
 22
0.0
 32
0.0
 14
-84.0
 24
-0.1575368999165647
 34
0.0
 15
231.0653720154696
 25
282.033201554023
 35
0.0
146
0.0
 13
0.0
 23
0.0
 33
0.0
 16
1.0
 26
0.0
 36
0.0
 17
0.0
 27
1.0
 37
0.0
 76
     0
330
1E2
  0
LAYOUT
  5
1E0
102
{ACAD_REACTORS
330
1E1
102
}
330
1E1
100
AcDbPlotSettings
  1

  2
HP LaserJet 5N
  4
A4
  6

 40
6.043083190917968
 41
6.720414161682128
 42
7.821090698242187
 43
5.027069091796875
 44
210.0579986572265
 45
296.9259948730469
 46
0.0
 47
0.0
 48
2085.086499853296
 49
778.9877038100139
140
2665.749759796177
141
1560.861624140073
142
1.0
143
2.959640858367083
 70
 11952
 72
     1
 73
     0
 74
     4
  7

 75
     0
147
0.3378788332283424
148
-2085.086499853296
149
-778.9877038100139
100
AcDbLayout
  1
Model
 70
     1
 71
     0
 10
0.0
 20
0.0
 11
12.0
 21
9.0
 12
0.0
 22
0.0
 32
0.0
 14
0.0
 24
0.0
 34
0.0
 15
0.0
 25
0.0
 35
0.0
146
0.0
 13
0.0
 23
0.0
 33
0.0
 16
1.0
 26
0.0
 36
0.0
 17
0.0
 27
1.0
 37
0.0
 76
     0
330
2
  0
MLINESTYLE
  5
1F6
102
{ACAD_REACTORS
330
1F4
102
}
330
1F4
100
AcDbMlineStyle
  2
STANDARD
 70
     0
  3

 62
   256
 51
90.0
 52
90.0
 71
     2
 49
0.5
 62
   256
  6
BYLAYER
 49
-0.5
 62
   256
  6
BYLAYER
  0
ACDBPLACEHOLDER
  5
7
102
{ACAD_REACTORS
330
8
102
}
330
8
  0
DICTIONARYVAR
  5
1FD
102
{ACAD_REACTORS
330
1FC
102
}
330
1FC
100
DictionaryVariables
280
     0
  1
1
  0
ENDSEC
  0
EOF
