  0
SECTION
  2
HEADER
  9
$ACADVER
  1
AC1015
  9
$ACADMAINTVER
 70
    13
  9
$DWGCODEPAGE
  3
ANSI_1252
  9
$INSBASE
 10
428.9214704410515
 20
-1101.765564833516
 30
0.0
  9
$EXTMIN
 10
428.9214779844005
 20
-1177.353732045913
 30
0.0
  9
$EXTMAX
 10
3210.821407173728
 20
-573.8862977868595
 30
0.0
  9
$LIMMIN
 10
0.0
 20
0.0
  9
$LIMMAX
 10
297.0
 20
210.0
  9
$ORTHOMODE
 70
     0
  9
$REGENMODE
 70
     1
  9
$FILLMODE
 70
     1
  9
$QTEXTMODE
 70
     0
  9
$MIRRTEXT
 70
     1
  9
$LTSCALE
 40
1.0
  9
$ATTMODE
 70
     1
  9
$TEXTSIZE
 40
10.0
  9
$TRACEWID
 40
0.05
  9
$TEXTSTYLE
  7
STYLE1
  9
$CLAYER
  8
0
  9
$CELTYPE
  6
BYLAYER
  9
$CECOLOR
 62
   256
  9
$CELTSCALE
 40
1.0
  9
$DISPSILH
 70
     0
  9
$DIMSCALE
 40
1.5
  9
$DIMASZ
 40
15.0
  9
$DIMEXO
 40
10.0
  9
$DIMDLI
 40
3.75
  9
$DIMRND
 40
0.0
  9
$DIMDLE
 40
0.0
  9
$DIMEXE
 40
10.0
  9
$DIMTP
 40
0.0
  9
$DIMTM
 40
0.0
  9
$DIMTXT
 40
17.0
  9
$DIMCEN
 40
2.5
  9
$DIMTSZ
 40
0.0
  9
$DIMTOL
 70
     0
  9
$DIMLIM
 70
     0
  9
$DIMTIH
 70
     1
  9
$DIMTOH
 70
     1
  9
$DIMSE1
 70
     0
  9
$DIMSE2
 70
     0
  9
$DIMTAD
 70
     0
  9
$DIMZIN
 70
     0
  9
$DIMBLK
  1

  9
$DIMASO
 70
     1
  9
$DIMSHO
 70
     1
  9
$DIMPOST
  1

  9
$DIMAPOST
  1

  9
$DIMALT
 70
     0
  9
$DIMALTD
 70
     2
  9
$DIMALTF
 40
25.4
  9
$DIMLFAC
 40
1.0
  9
$DIMTOFL
 70
     0
  9
$DIMTVP
 40
0.0
  9
$DIMTIX
 70
     0
  9
$DIMSOXD
 70
     0
  9
$DIMSAH
 70
     0
  9
$DIMBLK1
  1

  9
$DIMBLK2
  1

  9
$DIMSTYLE
  2
STANDARD
  9
$DIMCLRD
 70
     0
  9
$DIMCLRE
 70
     0
  9
$DIMCLRT
 70
     0
  9
$DIMTFAC
 40
1.0
  9
$DIMGAP
 40
10.0
  9
$DIMJUST
 70
     0
  9
$DIMSD1
 70
     0
  9
$DIMSD2
 70
     0
  9
$DIMTOLJ
 70
     1
  9
$DIMTZIN
 70
     0
  9
$DIMALTZ
 70
     0
  9
$DIMALTTZ
 70
     0
  9
$DIMUPT
 70
     0
  9
$DIMDEC
 70
     4
  9
$DIMTDEC
 70
     4
  9
$DIMALTU
 70
     2
  9
$DIMALTTD
 70
     2
  9
$DIMTXSTY
  7
STANDARD
  9
$DIMAUNIT
 70
     0
  9
$DIMADEC
 70
     0
  9
$DIMALTRND
 40
0.0
  9
$DIMAZIN
 70
     0
  9
$DIMDSEP
 70
    46
  9
$DIMATFIT
 70
     3
  9
$DIMFRAC
 70
     0
  9
$DIMLDRBLK
  1

  9
$DIMLUNIT
 70
     2
  9
$DIMLWD
 70
    -2
  9
$DIMLWE
 70
    -2
  9
$DIMTMOVE
 70
     0
  9
$LUNITS
 70
     2
  9
$LUPREC
 70
     4
  9
$SKETCHINC
 40
0.1
  9
$FILLETRAD
 40
2.0
  9
$AUNITS
 70
     0
  9
$AUPREC
 70
     0
  9
$MENU
  1
acad
  9
$ELEVATION
 40
0.0
  9
$PELEVATION
 40
0.0
  9
$THICKNESS
 40
0.0
  9
$LIMCHECK
 70
     0
  9
$CHAMFERA
 40
10.0
  9
$CHAMFERB
 40
10.0
  9
$CHAMFERC
 40
20.0
  9
$CHAMFERD
 40
0.0
  9
$SKPOLY
 70
     0
  9
$TDCREATE
 40
2452461.345466435
  9
$TDUCREATE
 40
2452460.928799768
  9
$TDUPDATE
 40
2453647.412986990
  9
$TDUUPDATE
 40
2453646.996320324
  9
$TDINDWG
 40
1.6846598843
  9
$TDUSRTIMER
 40
1.6846598843
  9
$USRTIMER
 70
     1
  9
$ANGBASE
 50
0.0
  9
$ANGDIR
 70
     0
  9
$PDMODE
 70
     0
  9
$PDSIZE
 40
0.0
  9
$PLINEWID
 40
0.0
  9
$SPLFRAME
 70
     0
  9
$SPLINETYPE
 70
     6
  9
$SPLINESEGS
 70
    50
  9
$HANDSEED
  5
11A
  9
$SURFTAB1
 70
     6
  9
$SURFTAB2
 70
     6
  9
$SURFTYPE
 70
     6
  9
$SURFU
 70
     6
  9
$SURFV
 70
     6
  9
$UCSBASE
  2

  9
$UCSNAME
  2

  9
$UCSORG
 10
0.0
 20
0.0
 30
0.0
  9
$UCSXDIR
 10
1.0
 20
0.0
 30
0.0
  9
$UCSYDIR
 10
0.0
 20
1.0
 30
0.0
  9
$UCSORTHOREF
  2

  9
$UCSORTHOVIEW
 70
     0
  9
$UCSORGTOP
 10
0.0
 20
0.0
 30
0.0
  9
$UCSORGBOTTOM
 10
0.0
 20
0.0
 30
0.0
  9
$UCSORGLEFT
 10
0.0
 20
0.0
 30
0.0
  9
$UCSORGRIGHT
 10
0.0
 20
0.0
 30
0.0
  9
$UCSORGFRONT
 10
0.0
 20
0.0
 30
0.0
  9
$UCSORGBACK
 10
0.0
 20
0.0
 30
0.0
  9
$PUCSBASE
  2

  9
$PUCSNAME
  2

  9
$PUCSORG
 10
0.0
 20
0.0
 30
0.0
  9
$PUCSXDIR
 10
1.0
 20
0.0
 30
0.0
  9
$PUCSYDIR
 10
0.0
 20
1.0
 30
0.0
  9
$PUCSORTHOREF
  2

  9
$PUCSORTHOVIEW
 70
     0
  9
$PUCSORGTOP
 10
0.0
 20
0.0
 30
0.0
  9
$PUCSORGBOTTOM
 10
0.0
 20
0.0
 30
0.0
  9
$PUCSORGLEFT
 10
0.0
 20
0.0
 30
0.0
  9
$PUCSORGRIGHT
 10
0.0
 20
0.0
 30
0.0
  9
$PUCSORGFRONT
 10
0.0
 20
0.0
 30
0.0
  9
$PUCSORGBACK
 10
0.0
 20
0.0
 30
0.0
  9
$USERI1
 70
     0
  9
$USERI2
 70
     0
  9
$USERI3
 70
     0
  9
$USERI4
 70
     0
  9
$USERI5
 70
     0
  9
$USERR1
 40
0.0
  9
$USERR2
 40
0.0
  9
$USERR3
 40
0.0
  9
$USERR4
 40
0.0
  9
$USERR5
 40
0.0
  9
$WORLDVIEW
 70
     1
  9
$SHADEDGE
 70
     3
  9
$SHADEDIF
 70
    70
  9
$TILEMODE
 70
     1
  9
$MAXACTVP
 70
    16
  9
$PINSBASE
 10
0.0
 20
0.0
 30
0.0
  9
$PLIMCHECK
 70
     0
  9
$PEXTMIN
 10
1.000000000000000E+20
 20
1.000000000000000E+20
 30
1.000000000000000E+20
  9
$PEXTMAX
 10
-1.000000000000000E+20
 20
-1.000000000000000E+20
 30
-1.000000000000000E+20
  9
$PLIMMIN
 10
-6.043083190917968
 20
-6.720414161682128
  9
$PLIMMAX
 10
204.0149154663085
 20
290.2055807113647
  9
$UNITMODE
 70
     0
  9
$VISRETAIN
 70
     0
  9
$PLINEGEN
 70
     0
  9
$PSLTSCALE
 70
     1
  9
$TREEDEPTH
 70
  3020
  9
$CMLSTYLE
  2
STANDARD
  9
$CMLJUST
 70
     0
  9
$CMLSCALE
 40
20.0
  9
$PROXYGRAPHICS
 70
     1
  9
$MEASUREMENT
 70
     0
  9
$CELWEIGHT
370
    -1
  9
$ENDCAPS
280
     0
  9
$JOINSTYLE
280
     0
  9
$LWDISPLAY
290
     0
  9
$INSUNITS
 70
     0
  9
$HYPERLINKBASE
  1

  9
$STYLESHEET
  1

  9
$XEDIT
290
     1
  9
$CEPSNTYPE
380
     0
  9
$PSTYLEMODE
290
     1
  9
$FINGERPRINTGUID
  2
{19245959-ED00-4CA9-B29A-3CAC91204687}
  9
$VERSIONGUID
  2
{78FE9EAF-B62F-475B-8C24-92F376D7DEB8}
  9
$EXTNAMES
290
     1
  9
$PSVPSCALE
 40
0.0
  9
$OLESTARTUP
290
     0
  0
ENDSEC
  0
SECTION
  2
CLASSES
  0
CLASS
  1
ACDBDICTIONARYWDFLT
  2
AcDbDictionaryWithDefault
  3
AutoCAD 2000
 90
        0
280
     0
281
     0
  0
CLASS
  1
ACDBPLACEHOLDER
  2
AcDbPlaceHolder
  3
AutoCAD 2000
 90
        0
280
     0
281
     0
  0
CLASS
  1
LAYOUT
  2
AcDbLayout
  3
AutoCAD 2000
 90
        0
280
     0
281
     0
  0
CLASS
  1
DICTIONARYVAR
  2
AcDbDictionaryVar
  3
AutoCAD 2000
 90
        0
280
     0
281
     0
  0
ENDSEC
  0
SECTION
  2
TABLES
  0
TABLE
  2
VPORT
  5
105
330
0
100
AcDbSymbolTable
 70
     4
  0
VPORT
  5
119
330
105
100
AcDbSymbolTableRecord
100
AcDbViewportTableRecord
  2
*Active
 70
     0
 10
0.0
 20
0.0
 11
1.0
 21
1.0
 12
1888.668975540126
 22
-1350.124035259701
 13
0.0
 23
0.0
 14
10.0
 24
10.0
 15
10.0
 25
10.0
 16
0.0
 26
0.0
 36
1.0
 17
0.0
 27
0.0
 37
0.0
 40
1720.762954708082
 41
1.786259541984732
 42
50.0
 43
0.0
 44
0.0
 50
0.0
 51
0.0
 71
     0
 72
  5000
 73
     1
 74
     0
 75
     0
 76
     0
 77
     0
 78
     0
281
     0
 65
     1
110
0.0
120
0.0
130
0.0
111
1.0
121
0.0
131
0.0
112
0.0
122
1.0
132
0.0
 79
     0
146
0.0
  0
ENDTAB
  0
TABLE
  2
LTYPE
  5
100
330
0
100
AcDbSymbolTable
 70
     1
  0
LTYPE
  5
101
330
100
100
AcDbSymbolTableRecord
100
AcDbLinetypeTableRecord
  2
BYBLOCK
 70
     0
  3

 72
    65
 73
     0
 40
0.0
  0
LTYPE
  5
102
330
100
100
AcDbSymbolTableRecord
100
AcDbLinetypeTableRecord
  2
BYLAYER
 70
     0
  3

 72
    65
 73
     0
 40
0.0
  0
LTYPE
  5
8
330
100
100
AcDbSymbolTableRecord
100
AcDbLinetypeTableRecord
  2
CONTINUOUS
 70
     0
  3
Solid line
 72
    65
 73
     0
 40
0.0
  0
ENDTAB
  0
TABLE
  2
LAYER
  5
FD
330
0
100
AcDbSymbolTable
 70
     2
  0
LAYER
  5
4
330
FD
100
AcDbSymbolTableRecord
100
AcDbLayerTableRecord
  2
0
 70
     0
 62
     7
  6
CONTINUOUS
370
    -3
390
5
  0
LAYER
  5
13
330
FD
100
AcDbSymbolTableRecord
100
AcDbLayerTableRecord
  2
DEFPOINTS
 70
     0
 62
     7
  6
CONTINUOUS
290
     0
370
    -3
390
5
  0
ENDTAB
  0
TABLE
  2
STYLE
  5
FE
330
0
100
AcDbSymbolTable
 70
     2
  0
STYLE
  5
9
330
FE
100
AcDbSymbolTableRecord
100
AcDbTextStyleTableRecord
  2
STANDARD
 70
     0
 40
0.0
 41
1.0
 50
0.0
 71
     0
 42
5.0
  3
txt
  4

  0
STYLE
  5
92
330
FE
100
AcDbSymbolTableRecord
100
AcDbTextStyleTableRecord
  2
STYLE1
 70
     0
 40
0.0
 41
1.0
 50
0.0
 71
     0
 42
10.0
  3
ARIAL.TTF
  4

1001
ACAD
1000
Arial
1071
       34
  0
ENDTAB
  0
TABLE
  2
VIEW
  5
103
330
0
100
AcDbSymbolTable
 70
     0
  0
ENDTAB
  0
TABLE
  2
UCS
  5
104
330
0
100
AcDbSymbolTable
 70
     0
  0
ENDTAB
  0
TABLE
  2
APPID
  5
107
330
0
100
AcDbSymbolTable
 70
     1
  0
APPID
  5
18
330
107
100
AcDbSymbolTableRecord
100
AcDbRegAppTableRecord
  2
ACAD
 70
     0
  0
ENDTAB
  0
TABLE
  2
DIMSTYLE
  5
108
330
0
100
AcDbSymbolTable
 70
     3
100
AcDbDimStyleTable
 71
     3
340
A
340
109
340
10A
  0
DIMSTYLE
105
A
102
{ACAD_REACTORS
330
2D
330
3B
330
1A
330
7A
330
3
330
68
330
56
330
A4
330
94
102
}
330
108
100
AcDbSymbolTableRecord
100
AcDbDimStyleTableRecord
  2
STANDARD
 70
     0
 40
1.5
 41
15.0
 42
10.0
 43
3.75
 44
10.0
140
17.0
141
2.5
147
10.0
340
9
  0
DIMSTYLE
105
109
330
108
100
AcDbSymbolTableRecord
100
AcDbDimStyleTableRecord
  2
ISO-25
 70
     0
 41
2.5
 42
0.625
 43
3.75
 44
1.25
 74
     0
 77
     1
 78
     8
140
2.5
141
2.5
143
0.0394
145
1.0
147
0.625
172
     1
340
9
  0
DIMSTYLE
105
10A
330
108
100
AcDbSymbolTableRecord
100
AcDbDimStyleTableRecord
  2
luke
 70
     0
 41
30.0
 42
2.0
 43
3.75
 44
5.0
 73
     0
 74
     0
 77
     1
 78
     8
140
15.0
141
2.5
143
0.03937007874016
147
10.0
171
     3
271
     1
272
     1
274
     3
283
     0
284
     8
289
     0
340
9
  0
ENDTAB
  0
TABLE
  2
BLOCK_RECORD
  5
1
330
0
100
AcDbSymbolTable
 70
     9
  0
BLOCK_RECORD
  5
2
330
1
100
AcDbSymbolTableRecord
100
AcDbBlockTableRecord
  2
*MODEL_SPACE
340
F5
  0
BLOCK_RECORD
  5
F7
330
1
100
AcDbSymbolTableRecord
100
AcDbBlockTableRecord
  2
*Paper_Space
340
FC
  0
BLOCK_RECORD
  5
2E
330
1
100
AcDbSymbolTableRecord
100
AcDbBlockTableRecord
  2
*D0
340
0
  0
BLOCK_RECORD
  5
3C
330
1
100
AcDbSymbolTableRecord
100
AcDbBlockTableRecord
  2
*D1
340
0
  0
BLOCK_RECORD
  5
1B
330
1
100
AcDbSymbolTableRecord
100
AcDbBlockTableRecord
  2
*D2
340
0
  0
BLOCK_RECORD
  5
7B
330
1
100
AcDbSymbolTableRecord
100
AcDbBlockTableRecord
  2
*D3
340
0
  0
BLOCK_RECORD
  5
B
330
1
100
AcDbSymbolTableRecord
100
AcDbBlockTableRecord
  2
*D4
340
0
  0
BLOCK_RECORD
  5
69
330
1
100
AcDbSymbolTableRecord
100
AcDbBlockTableRecord
  2
*D5
340
0
  0
BLOCK_RECORD
  5
57
330
1
100
AcDbSymbolTableRecord
100
AcDbBlockTableRecord
  2
*D6
340
0
  0
BLOCK_RECORD
  5
95
330
1
100
AcDbSymbolTableRecord
100
AcDbBlockTableRecord
  2
*D7
340
0
  0
BLOCK_RECORD
  5
A5
330
1
100
AcDbSymbolTableRecord
100
AcDbBlockTableRecord
  2
*D8
340
0
  0
ENDTAB
  0
ENDSEC
  0
SECTION
  2
BLOCKS
  0
BLOCK
  5
F3
330
2
100
AcDbEntity
  8
0
100
AcDbBlockBegin
  2
*MODEL_SPACE
 70
     0
 10
0.0
 20
0.0
 30
0.0
  3
*MODEL_SPACE
  1

  0
ENDBLK
  5
F4
330
2
100
AcDbEntity
  8
0
100
AcDbBlockEnd
  0
BLOCK
  5
FA
330
F7
100
AcDbEntity
 67
     1
  8
0
100
AcDbBlockBegin
  2
*Paper_Space
 70
     0
 10
0.0
 20
0.0
 30
0.0
  3
*Paper_Space
  1

  0
ENDBLK
  5
FB
330
F7
100
AcDbEntity
 67
     1
  8
0
100
AcDbBlockEnd
  0
BLOCK
  5
39
330
2E
100
AcDbEntity
  8
0
100
AcDbBlockBegin
  2
*D0
 70
     1
 10
0.0
 20
0.0
 30
0.0
  3
*D0
  1

  0
LINE
  5
2F
330
2E
100
AcDbEntity
  8
0
 62
     0
370
    -2
100
AcDbLine
 10
845.0719311762837
 20
-705.0020771853545
 30
0.0
 11
929.1797029740491
 21
-620.894305387589
 31
0.0
  0
LINE
  5
30
330
2E
100
AcDbEntity
  8
0
 62
     0
370
    -2
100
AcDbLine
 10
1033.86944175309
 20
-893.799587762162
 30
0.0
 11
1117.977213550856
 21
-809.6918159643964
 31
0.0
  0
LINE
  5
31
330
2E
100
AcDbEntity
  8
0
 62
     0
370
    -2
100
AcDbLine
 10
934.4830038329483
 20
-647.4108096820846
 30
0.0
 11
985.2218565446545
 21
-698.1496623937907
 31
0.0
  0
LINE
  5
32
330
2E
100
AcDbEntity
  8
0
 62
     0
370
    -2
100
AcDbLine
 10
1091.460709256361
 20
-804.3885151054974
 30
0.0
 11
1040.721856544654
 21
-753.6496623937909
 31
0.0
  0
SOLID
  5
33
330
2E
100
AcDbEntity
  8
0
 62
     0
100
AcDbTrace
 10
937.1346542623978
 20
-644.7591592526349
 30
0.0
 11
931.8313534034986
 21
-650.0624601115341
 31
0.0
 12
918.5731012562509
 22
-631.5009071053873
 32
0.0
 13
918.5731012562509
 23
-631.5009071053873
 33
0.0
  0
SOLID
  5
34
330
2E
100
AcDbEntity
  8
0
 62
     0
100
AcDbTrace
 10
1094.11235968581
 20
-801.7368646760477
 30
0.0
 11
1088.809058826911
 21
-807.0401655349469
 31
0.0
 12
1107.370611833058
 22
-820.2984176821946
 32
0.0
 13
1107.370611833058
 23
-820.2984176821946
 33
0.0
  0
MTEXT
  5
35
330
2E
100
AcDbEntity
  8
0
 62
     0
100
AcDbMText
 10
1012.971856544654
 20
-725.8996623937908
 30
0.0
 40
25.5
 41
0.0
 71
     5
 72
     1
  1
\A1;90
 73
     1
 44
1.0
  0
POINT
  5
36
330
2E
100
AcDbEntity
  8
DEFPOINTS
 62
     0
100
AcDbPoint
 10
834.4653294584855
 20
-715.6086789031528
 30
0.0
  0
POINT
  5
37
330
2E
100
AcDbEntity
  8
DEFPOINTS
 62
     0
100
AcDbPoint
 10
1023.262840035292
 20
-904.4061894799602
 30
0.0
  0
POINT
  5
38
330
2E
100
AcDbEntity
  8
DEFPOINTS
 62
     0
100
AcDbPoint
 10
1107.370611833058
 20
-820.2984176821946
 30
0.0
  0
ENDBLK
  5
3A
330
2E
100
AcDbEntity
  8
0
100
AcDbBlockEnd
  0
BLOCK
  5
47
330
3C
100
AcDbEntity
  8
0
100
AcDbBlockBegin
  2
*D1
 70
     1
 10
0.0
 20
0.0
 30
0.0
  3
*D1
  1

  0
LINE
  5
3D
330
3C
100
AcDbEntity
  8
0
 62
     0
370
    -2
100
AcDbLine
 10
830.7374073971281
 20
-709.6086789031528
 30
0.0
 11
830.7374073971281
 21
-592.3365634958391
 31
0.0
  0
LINE
  5
3E
330
3C
100
AcDbEntity
  8
0
 62
     0
370
    -2
100
AcDbLine
 10
567.4653294584855
 20
-700.6086789031528
 30
0.0
 11
567.4653294584855
 21
-592.3365634958391
 31
0.0
  0
LINE
  5
3F
330
3C
100
AcDbEntity
  8
0
 62
     0
370
    -2
100
AcDbLine
 10
808.2374073971282
 20
-607.336563495839
 30
0.0
 11
733.2263684278068
 21
-607.336563495839
 31
0.0
  0
LINE
  5
40
330
3C
100
AcDbEntity
  8
0
 62
     0
370
    -2
100
AcDbLine
 10
589.9653294584854
 20
-607.336563495839
 30
0.0
 11
664.9763684278068
 21
-607.336563495839
 31
0.0
  0
SOLID
  5
41
330
3C
100
AcDbEntity
  8
0
 62
     0
100
AcDbTrace
 10
808.2374073971282
 20
-603.5865634958391
 30
0.0
 11
808.2374073971282
 21
-611.0865634958391
 31
0.0
 12
830.7374073971281
 22
-607.336563495839
 32
0.0
 13
830.7374073971281
 23
-607.336563495839
 33
0.0
  0
SOLID
  5
42
330
3C
100
AcDbEntity
  8
0
 62
     0
100
AcDbTrace
 10
589.9653294584854
 20
-603.5865634958391
 30
0.0
 11
589.9653294584854
 21
-611.0865634958391
 31
0.0
 12
567.4653294584855
 22
-607.336563495839
 32
0.0
 13
567.4653294584855
 23
-607.336563495839
 33
0.0
  0
MTEXT
  5
43
330
3C
100
AcDbEntity
  8
0
 62
     0
100
AcDbMText
 10
699.1013684278068
 20
-607.336563495839
 30
0.0
 40
25.5
 41
0.0
 71
     5
 72
     1
  1
\A1;90
 73
     1
 44
1.0
  0
POINT
  5
44
330
3C
100
AcDbEntity
  8
DEFPOINTS
 62
     0
100
AcDbPoint
 10
830.7374073971281
 20
-724.6086789031529
 30
0.0
  0
POINT
  5
45
330
3C
100
AcDbEntity
  8
DEFPOINTS
 62
     0
100
AcDbPoint
 10
567.4653294584855
 20
-715.6086789031528
 30
0.0
  0
POINT
  5
46
330
3C
100
AcDbEntity
  8
DEFPOINTS
 62
     0
100
AcDbPoint
 10
567.4653294584855
 20
-607.336563495839
 30
0.0
  0
ENDBLK
  5
48
330
3C
100
AcDbEntity
  8
0
100
AcDbBlockEnd
  0
BLOCK
  5
25
330
1B
100
AcDbEntity
  8
0
100
AcDbBlockBegin
  2
*D2
 70
     1
 10
0.0
 20
0.0
 30
0.0
  3
*D2
  1

  0
LINE
  5
1C
330
1B
100
AcDbEntity
  8
0
 62
     0
370
    -2
100
AcDbLine
 10
552.4653294584854
 20
-715.6086789031528
 30
0.0
 11
473.064450348709
 21
-715.6086789031528
 31
0.0
  0
LINE
  5
1D
330
1B
100
AcDbEntity
  8
0
 62
     0
370
    -2
100
AcDbLine
 10
552.4653294584854
 20
-820.6086789031528
 30
0.0
 11
473.064450348709
 21
-820.6086789031528
 31
0.0
  0
LINE
  5
1E
330
1B
100
AcDbEntity
  8
0
 62
     0
370
    -2
100
AcDbLine
 10
488.0644503487091
 20
-738.1086789031528
 30
0.0
 11
488.0644503487091
 21
-798.1086789031528
 31
0.0
  0
MTEXT
  5
1F
330
1B
100
AcDbEntity
  8
0
 62
     0
100
AcDbMText
 10
448.0464779844005
 20
-762.4638136176745
 30
0.0
 40
25.5
 41
0.0
 71
     5
 72
     1
  1
\A1;30
 73
     1
 44
1.0
  0
SOLID
  5
20
330
1B
100
AcDbEntity
  8
0
 62
     0
100
AcDbTrace
 10
484.314450348709
 20
-738.1086789031528
 30
0.0
 11
491.814450348709
 21
-738.1086789031528
 31
0.0
 12
488.0644503487091
 22
-715.6086789031528
 32
0.0
 13
488.0644503487091
 23
-715.6086789031528
 33
0.0
  0
SOLID
  5
21
330
1B
100
AcDbEntity
  8
0
 62
     0
100
AcDbTrace
 10
484.314450348709
 20
-798.1086789031528
 30
0.0
 11
491.814450348709
 21
-798.1086789031528
 31
0.0
 12
488.0644503487091
 22
-820.6086789031528
 32
0.0
 13
488.0644503487091
 23
-820.6086789031528
 33
0.0
  0
POINT
  5
22
330
1B
100
AcDbEntity
  8
DEFPOINTS
 62
     0
100
AcDbPoint
 10
567.4653294584855
 20
-715.6086789031528
 30
0.0
  0
POINT
  5
23
330
1B
100
AcDbEntity
  8
DEFPOINTS
 62
     0
100
AcDbPoint
 10
567.4653294584855
 20
-820.6086789031528
 30
0.0
  0
POINT
  5
24
330
1B
100
AcDbEntity
  8
DEFPOINTS
 62
     0
100
AcDbPoint
 10
488.0644503487091
 20
-820.6086789031528
 30
0.0
  0
ENDBLK
  5
26
330
1B
100
AcDbEntity
  8
0
100
AcDbBlockEnd
  0
BLOCK
  5
85
330
7B
100
AcDbEntity
  8
0
100
AcDbBlockBegin
  2
*D3
 70
     1
 10
0.0
 20
0.0
 30
0.0
  3
*D3
  1

  0
LINE
  5
7C
330
7B
100
AcDbEntity
  8
0
 62
     0
370
    -2
100
AcDbLine
 10
1637.37267086381
 20
-590.4068841311357
 30
0.0
 11
1768.661554293837
 21
-590.4068841311357
 31
0.0
  0
LINE
  5
7D
330
7B
100
AcDbEntity
  8
0
 62
     0
370
    -2
100
AcDbLine
 10
1637.37267086381
 20
-707.4068841311357
 30
0.0
 11
1768.661554293837
 21
-707.4068841311357
 31
0.0
  0
LINE
  5
7E
330
7B
100
AcDbEntity
  8
0
 62
     0
370
    -2
100
AcDbLine
 10
1753.661554293837
 20
-612.9068841311357
 30
0.0
 11
1753.661554293837
 21
-684.9068841311357
 31
0.0
  0
MTEXT
  5
7F
330
7B
100
AcDbEntity
  8
0
 62
     0
100
AcDbMText
 10
1790.351611893798
 20
-646.5183410966147
 30
0.0
 40
25.5
 41
0.0
 71
     5
 72
     1
  1
\A1;37
 73
     1
 44
1.0
  0
SOLID
  5
80
330
7B
100
AcDbEntity
  8
0
 62
     0
100
AcDbTrace
 10
1749.911554293837
 20
-612.9068841311357
 30
0.0
 11
1757.411554293837
 21
-612.9068841311357
 31
0.0
 12
1753.661554293837
 22
-590.4068841311357
 32
0.0
 13
1753.661554293837
 23
-590.4068841311357
 33
0.0
  0
SOLID
  5
81
330
7B
100
AcDbEntity
  8
0
 62
     0
100
AcDbTrace
 10
1749.911554293837
 20
-684.9068841311357
 30
0.0
 11
1757.411554293837
 21
-684.9068841311357
 31
0.0
 12
1753.661554293837
 22
-707.4068841311357
 32
0.0
 13
1753.661554293837
 23
-707.4068841311357
 33
0.0
  0
POINT
  5
82
330
7B
100
AcDbEntity
  8
DEFPOINTS
 62
     0
100
AcDbPoint
 10
1622.372670863811
 20
-590.4068841311357
 30
0.0
  0
POINT
  5
83
330
7B
100
AcDbEntity
  8
DEFPOINTS
 62
     0
100
AcDbPoint
 10
1622.372670863811
 20
-707.4068841311357
 30
0.0
  0
POINT
  5
84
330
7B
100
AcDbEntity
  8
DEFPOINTS
 62
     0
100
AcDbPoint
 10
1753.661554293837
 20
-707.4068841311357
 30
0.0
  0
ENDBLK
  5
86
330
7B
100
AcDbEntity
  8
0
100
AcDbBlockEnd
  0
BLOCK
  5
16
330
B
100
AcDbEntity
  8
0
100
AcDbBlockBegin
  2
*D4
 70
     1
 10
0.0
 20
0.0
 30
0.0
  3
*D4
  1

  0
LINE
  5
C
330
B
100
AcDbEntity
  8
0
 62
     0
370
    -2
100
AcDbLine
 10
1802.372670863811
 20
-755.4068841311358
 30
0.0
 11
1906.055652378119
 21
-755.4068841311358
 31
0.0
  0
LINE
  5
D
330
B
100
AcDbEntity
  8
0
 62
     0
370
    -2
100
AcDbLine
 10
1802.372670863811
 20
-855.9068841311358
 30
0.0
 11
1906.055652378119
 21
-855.9068841311358
 31
0.0
  0
LINE
  5
E
330
B
100
AcDbEntity
  8
0
 62
     0
370
    -2
100
AcDbLine
 10
1891.055652378119
 20
-777.9068841311358
 30
0.0
 11
1891.055652378119
 21
-833.4068841311358
 31
0.0
  0
MTEXT
  5
F
330
B
100
AcDbEntity
  8
0
 62
     0
100
AcDbMText
 10
1932.371269107065
 20
-807.3601251615146
 30
0.0
 40
25.5
 41
0.0
 71
     5
 72
     1
  1
\A1;30
 73
     1
 44
1.0
  0
SOLID
  5
10
330
B
100
AcDbEntity
  8
0
 62
     0
100
AcDbTrace
 10
1887.305652378119
 20
-777.9068841311358
 30
0.0
 11
1894.805652378119
 21
-777.9068841311358
 31
0.0
 12
1891.055652378119
 22
-755.4068841311358
 32
0.0
 13
1891.055652378119
 23
-755.4068841311358
 33
0.0
  0
SOLID
  5
11
330
B
100
AcDbEntity
  8
0
 62
     0
100
AcDbTrace
 10
1887.305652378119
 20
-833.4068841311358
 30
0.0
 11
1894.805652378119
 21
-833.4068841311358
 31
0.0
 12
1891.055652378119
 22
-855.9068841311358
 32
0.0
 13
1891.055652378119
 23
-855.9068841311358
 33
0.0
  0
POINT
  5
12
330
B
100
AcDbEntity
  8
DEFPOINTS
 62
     0
100
AcDbPoint
 10
1787.372670863811
 20
-755.4068841311357
 30
0.0
  0
POINT
  5
14
330
B
100
AcDbEntity
  8
DEFPOINTS
 62
     0
100
AcDbPoint
 10
1787.372670863811
 20
-855.9068841311356
 30
0.0
  0
POINT
  5
15
330
B
100
AcDbEntity
  8
DEFPOINTS
 62
     0
100
AcDbPoint
 10
1891.055652378119
 20
-855.9068841311358
 30
0.0
  0
ENDBLK
  5
17
330
B
100
AcDbEntity
  8
0
100
AcDbBlockEnd
  0
BLOCK
  5
74
330
69
100
AcDbEntity
  8
0
100
AcDbBlockBegin
  2
*D5
 70
     1
 10
0.0
 20
0.0
 30
0.0
  3
*D5
  1

  0
LINE
  5
6A
330
69
100
AcDbEntity
  8
0
 62
     0
370
    -2
100
AcDbLine
 10
1502.37267086381
 20
-590.4068841311357
 30
0.0
 11
1395.178868135674
 21
-590.4068841311357
 31
0.0
  0
LINE
  5
6B
330
69
100
AcDbEntity
  8
0
 62
     0
370
    -2
100
AcDbLine
 10
1502.37267086381
 20
-860.4068841311358
 30
0.0
 11
1395.178868135674
 21
-860.4068841311358
 31
0.0
  0
LINE
  5
6C
330
69
100
AcDbEntity
  8
0
 62
     0
370
    -2
100
AcDbLine
 10
1410.178868135673
 20
-612.9068841311357
 30
0.0
 11
1410.178868135673
 21
-697.6568841311356
 31
0.0
  0
LINE
  5
6D
330
69
100
AcDbEntity
  8
0
 62
     0
370
    -2
100
AcDbLine
 10
1410.178868135673
 20
-837.9068841311356
 30
0.0
 11
1410.178868135673
 21
-753.1568841311357
 31
0.0
  0
SOLID
  5
6E
330
69
100
AcDbEntity
  8
0
 62
     0
100
AcDbTrace
 10
1406.428868135674
 20
-612.9068841311357
 30
0.0
 11
1413.928868135673
 21
-612.9068841311357
 31
0.0
 12
1410.178868135673
 22
-590.4068841311357
 32
0.0
 13
1410.178868135673
 23
-590.4068841311357
 33
0.0
  0
SOLID
  5
6F
330
69
100
AcDbEntity
  8
0
 62
     0
100
AcDbTrace
 10
1406.428868135674
 20
-837.9068841311356
 30
0.0
 11
1413.928868135673
 21
-837.9068841311356
 31
0.0
 12
1410.178868135673
 22
-860.4068841311358
 32
0.0
 13
1410.178868135673
 23
-860.4068841311358
 33
0.0
  0
MTEXT
  5
70
330
69
100
AcDbEntity
  8
0
 62
     0
100
AcDbMText
 10
1410.178868135674
 20
-725.4068841311354
 30
0.0
 40
25.5
 41
0.0
 71
     5
 72
     1
  1
\A1;90
 73
     1
 44
1.0
  0
POINT
  5
71
330
69
100
AcDbEntity
  8
DEFPOINTS
 62
     0
100
AcDbPoint
 10
1517.372670863811
 20
-590.4068841311357
 30
0.0
  0
POINT
  5
72
330
69
100
AcDbEntity
  8
DEFPOINTS
 62
     0
100
AcDbPoint
 10
1517.372670863811
 20
-860.4068841311358
 30
0.0
  0
POINT
  5
73
330
69
100
AcDbEntity
  8
DEFPOINTS
 62
     0
100
AcDbPoint
 10
1410.178868135673
 20
-860.4068841311358
 30
0.0
  0
ENDBLK
  5
75
330
69
100
AcDbEntity
  8
0
100
AcDbBlockEnd
  0
BLOCK
  5
62
330
57
100
AcDbEntity
  8
0
100
AcDbBlockBegin
  2
*D6
 70
     1
 10
0.0
 20
0.0
 30
0.0
  3
*D6
  1

  0
LINE
  5
58
330
57
100
AcDbEntity
  8
0
 62
     0
370
    -2
100
AcDbLine
 10
1517.372670863811
 20
-875.4068841311356
 30
0.0
 11
1517.372670863811
 21
-961.2473358100087
 31
0.0
  0
LINE
  5
59
330
57
100
AcDbEntity
  8
0
 62
     0
370
    -2
100
AcDbLine
 10
1787.372670863811
 20
-875.4068841311356
 30
0.0
 11
1787.372670863811
 21
-961.2473358100087
 31
0.0
  0
LINE
  5
5A
330
57
100
AcDbEntity
  8
0
 62
     0
370
    -2
100
AcDbLine
 10
1539.872670863811
 20
-946.2473358100087
 30
0.0
 11
1618.24767086381
 21
-946.2473358100087
 31
0.0
  0
LINE
  5
5B
330
57
100
AcDbEntity
  8
0
 62
     0
370
    -2
100
AcDbLine
 10
1764.872670863811
 20
-946.2473358100087
 30
0.0
 11
1686.497670863811
 21
-946.2473358100087
 31
0.0
  0
SOLID
  5
5C
330
57
100
AcDbEntity
  8
0
 62
     0
100
AcDbTrace
 10
1539.872670863811
 20
-942.4973358100087
 30
0.0
 11
1539.872670863811
 21
-949.9973358100087
 31
0.0
 12
1517.372670863811
 22
-946.2473358100087
 32
0.0
 13
1517.372670863811
 23
-946.2473358100087
 33
0.0
  0
SOLID
  5
5D
330
57
100
AcDbEntity
  8
0
 62
     0
100
AcDbTrace
 10
1764.872670863811
 20
-942.4973358100087
 30
0.0
 11
1764.872670863811
 21
-949.9973358100087
 31
0.0
 12
1787.372670863811
 22
-946.2473358100087
 32
0.0
 13
1787.372670863811
 23
-946.2473358100087
 33
0.0
  0
MTEXT
  5
5E
330
57
100
AcDbEntity
  8
0
 62
     0
100
AcDbMText
 10
1652.372670863811
 20
-946.2473358100087
 30
0.0
 40
25.5
 41
0.0
 71
     5
 72
     1
  1
\A1;90
 73
     1
 44
1.0
  0
POINT
  5
5F
330
57
100
AcDbEntity
  8
DEFPOINTS
 62
     0
100
AcDbPoint
 10
1517.372670863811
 20
-860.4068841311358
 30
0.0
  0
POINT
  5
60
330
57
100
AcDbEntity
  8
DEFPOINTS
 62
     0
100
AcDbPoint
 10
1787.372670863811
 20
-860.4068841311358
 30
0.0
  0
POINT
  5
61
330
57
100
AcDbEntity
  8
DEFPOINTS
 62
     0
100
AcDbPoint
 10
1787.372670863811
 20
-946.2473358100087
 30
0.0
  0
ENDBLK
  5
63
330
57
100
AcDbEntity
  8
0
100
AcDbBlockEnd
  0
BLOCK
  5
A0
330
95
100
AcDbEntity
  8
0
100
AcDbBlockBegin
  2
*D7
 70
     1
 10
0.0
 20
0.0
 30
0.0
  3
*D7
  1

  0
LINE
  5
96
330
95
100
AcDbEntity
  8
0
 62
     0
370
    -2
100
AcDbLine
 10
2294.597540866443
 20
-860.6617880438843
 30
0.0
 11
2294.597540866443
 21
-930.3422037666951
 31
0.0
  0
LINE
  5
97
330
95
100
AcDbEntity
  8
0
 62
     0
370
    -2
100
AcDbLine
 10
3210.821407173728
 20
-856.1617880438843
 30
0.0
 11
3210.821407173728
 21
-930.3422037666951
 31
0.0
  0
LINE
  5
98
330
95
100
AcDbEntity
  8
0
 62
     0
370
    -2
100
AcDbLine
 10
2317.097540866443
 20
-915.3422037666951
 30
0.0
 11
2414.709474020086
 21
-915.3422037666951
 31
0.0
  0
LINE
  5
99
330
95
100
AcDbEntity
  8
0
 62
     0
370
    -2
100
AcDbLine
 10
3188.321407173729
 20
-915.3422037666951
 30
0.0
 11
3090.709474020086
 21
-915.3422037666951
 31
0.0
  0
SOLID
  5
9A
330
95
100
AcDbEntity
  8
0
 62
     0
100
AcDbTrace
 10
2317.097540866443
 20
-911.5922037666951
 30
0.0
 11
2317.097540866443
 21
-919.092203766695
 31
0.0
 12
2294.597540866443
 22
-915.3422037666951
 32
0.0
 13
2294.597540866443
 23
-915.3422037666951
 33
0.0
  0
SOLID
  5
9B
330
95
100
AcDbEntity
  8
0
 62
     0
100
AcDbTrace
 10
3188.321407173729
 20
-911.5922037666951
 30
0.0
 11
3188.321407173729
 21
-919.092203766695
 31
0.0
 12
3210.821407173728
 22
-915.3422037666951
 32
0.0
 13
3210.821407173728
 23
-915.3422037666951
 33
0.0
  0
MTEXT
  5
9C
330
95
100
AcDbEntity
  8
0
 62
     0
100
AcDbMText
 10
2752.709474020086
 20
-915.3422037666951
 30
0.0
 40
25.5
 41
0.0
 71
     5
 72
     1
  1
\A1;L \P(DETERMINED BY BUNDLE SIZE)
 73
     1
 44
1.0
  0
POINT
  5
9D
330
95
100
AcDbEntity
  8
DEFPOINTS
 62
     0
100
AcDbPoint
 10
2294.597540866443
 20
-845.6617880438843
 30
0.0
  0
POINT
  5
9E
330
95
100
AcDbEntity
  8
DEFPOINTS
 62
     0
100
AcDbPoint
 10
3210.821407173728
 20
-841.1617880438843
 30
0.0
  0
POINT
  5
9F
330
95
100
AcDbEntity
  8
DEFPOINTS
 62
     0
100
AcDbPoint
 10
3210.821407173728
 20
-915.3422037666951
 30
0.0
  0
ENDBLK
  5
A1
330
95
100
AcDbEntity
  8
0
100
AcDbBlockEnd
  0
BLOCK
  5
B0
330
A5
100
AcDbEntity
  8
0
100
AcDbBlockBegin
  2
*D8
 70
     1
 10
0.0
 20
0.0
 30
0.0
  3
*D8
  1

  0
LINE
  5
A6
330
A5
100
AcDbEntity
  8
0
 62
     0
370
    -2
100
AcDbLine
 10
2293.097540866444
 20
-584.6617880438844
 30
0.0
 11
2188.94091418086
 21
-584.6617880438844
 31
0.0
  0
LINE
  5
A7
330
A5
100
AcDbEntity
  8
0
 62
     0
370
    -2
100
AcDbLine
 10
2288.597540866443
 20
-854.6617880438843
 30
0.0
 11
2188.94091418086
 21
-854.6617880438843
 31
0.0
  0
LINE
  5
A8
330
A5
100
AcDbEntity
  8
0
 62
     0
370
    -2
100
AcDbLine
 10
2203.940914180861
 20
-607.1617880438845
 30
0.0
 11
2203.940914180861
 21
-691.9117880438843
 31
0.0
  0
LINE
  5
A9
330
A5
100
AcDbEntity
  8
0
 62
     0
370
    -2
100
AcDbLine
 10
2203.940914180861
 20
-832.1617880438843
 30
0.0
 11
2203.940914180861
 21
-747.4117880438844
 31
0.0
  0
SOLID
  5
AA
330
A5
100
AcDbEntity
  8
0
 62
     0
100
AcDbTrace
 10
2200.190914180861
 20
-607.1617880438845
 30
0.0
 11
2207.690914180861
 21
-607.1617880438845
 31
0.0
 12
2203.940914180861
 22
-584.6617880438844
 32
0.0
 13
2203.940914180861
 23
-584.6617880438844
 33
0.0
  0
SOLID
  5
AB
330
A5
100
AcDbEntity
  8
0
 62
     0
100
AcDbTrace
 10
2200.190914180861
 20
-832.1617880438843
 30
0.0
 11
2207.690914180861
 21
-832.1617880438843
 31
0.0
 12
2203.940914180861
 22
-854.6617880438843
 32
0.0
 13
2203.940914180861
 23
-854.6617880438843
 33
0.0
  0
MTEXT
  5
AC
330
A5
100
AcDbEntity
  8
0
 62
     0
100
AcDbMText
 10
2203.940914180861
 20
-719.661788043884
 30
0.0
 40
25.5
 41
0.0
 71
     5
 72
     1
  1
\A1;90
 73
     1
 44
1.0
  0
POINT
  5
AD
330
A5
100
AcDbEntity
  8
DEFPOINTS
 62
     0
100
AcDbPoint
 10
2308.097540866444
 20
-584.6617880438846
 30
0.0
  0
POINT
  5
AE
330
A5
100
AcDbEntity
  8
DEFPOINTS
 62
     0
100
AcDbPoint
 10
2303.597540866443
 20
-854.6617880438843
 30
0.0
  0
POINT
  5
AF
330
A5
100
AcDbEntity
  8
DEFPOINTS
 62
     0
100
AcDbPoint
 10
2203.940914180861
 20
-854.6617880438843
 30
0.0
  0
ENDBLK
  5
B1
330
A5
100
AcDbEntity
  8
0
100
AcDbBlockEnd
  0
ENDSEC
  0
SECTION
  2
ENTITIES
  0
DIMENSION
  5
3
330
2
100
AcDbEntity
  8
0
100
AcDbDimension
  2
*D4
 10
1891.055652378119
 20
-855.9068841311358
 30
0.0
 11
1932.371269107065
 21
-807.3601251615146
 31
0.0
 70
   128
  1
30
 71
     5
 42
100.5
  3
STANDARD
100
AcDbAlignedDimension
 13
1787.372670863811
 23
-755.4068841311357
 33
0.0
 14
1787.372670863811
 24
-855.9068841311356
 34
0.0
 50
90.0
100
AcDbRotatedDimension
1001
ACAD
1000
DSTYLE
1002
{
1070
   279
1070
     2
1002
}
  0
MTEXT
  5
19
330
2
100
AcDbEntity
  8
0
100
AcDbMText
 10
454.2920802568783
 20
-1135.029166670221
 30
0.0
 40
28.0
 41
598.5694999999999
 71
     1
 72
     5
  1
{\fArial|b0|i0|c0|p34;STANDARD 135° MULLION}
 73
     1
 44
1.0
  0
DIMENSION
  5
1A
330
2
100
AcDbEntity
  8
0
100
AcDbDimension
  2
*D2
 10
488.0644503487091
 20
-820.6086789031528
 30
0.0
 11
448.0464779844005
 21
-762.4638136176745
 31
0.0
 70
   128
  1
30
 71
     5
 42
105.0
  3
STANDARD
100
AcDbAlignedDimension
 13
567.4653294584855
 23
-715.6086789031528
 33
0.0
 14
567.4653294584855
 24
-820.6086789031528
 34
0.0
 50
90.0
100
AcDbRotatedDimension
1001
ACAD
1000
DSTYLE
1002
{
1070
   279
1070
     2
1002
}
  0
LINE
  5
27
330
2
100
AcDbEntity
  8
0
100
AcDbLine
 10
834.4653294584855
 20
-715.6086789031528
 30
0.0
 11
1023.262840035292
 21
-904.4061894799602
 31
0.0
  0
LINE
  5
28
330
2
100
AcDbEntity
  8
0
100
AcDbLine
 10
830.7374073971281
 20
-724.6086789031529
 30
0.0
 11
934.1673856057891
 21
-828.0386571118137
 31
0.0
  0
LINE
  5
29
330
2
100
AcDbEntity
  8
0
100
AcDbLine
 10
879.0130566732372
 20
-895.9209081057222
 30
0.0
 11
955.3805890413851
 21
-972.2884404738692
 31
0.0
  0
LINE
  5
2A
330
2
100
AcDbEntity
  8
0
100
AcDbLine
 10
940.5313466364678
 20
-834.4026181424924
 30
0.0
 11
879.0130566732372
 21
-895.9209081057222
 31
0.0
  0
LINE
  5
2B
330
2
100
AcDbEntity
  8
0
100
AcDbLine
 10
949.0166280107064
 20
-978.6524015045479
 30
0.0
 11
866.2851346118801
 21
-895.9209081057222
 31
0.0
  0
LINE
  5
2C
330
2
100
AcDbEntity
  8
0
100
AcDbLine
 10
866.2851346118801
 20
-895.9209081057222
 30
0.0
 11
934.1673856057891
 21
-828.0386571118137
 31
0.0
  0
DIMENSION
  5
2D
330
2
100
AcDbEntity
  8
0
100
AcDbDimension
  2
*D0
 10
1107.370611833058
 20
-820.2984176821946
 30
0.0
 11
1012.971856544654
 21
-725.8996623937908
 31
0.0
 70
     1
  1
90
 71
     5
 42
266.9999999999988
  3
STANDARD
100
AcDbAlignedDimension
 13
834.4653294584855
 23
-715.6086789031528
 33
0.0
 14
1023.262840035292
 24
-904.4061894799602
 34
0.0
  0
DIMENSION
  5
3B
330
2
100
AcDbEntity
  8
0
100
AcDbDimension
  2
*D1
 10
567.4653294584855
 20
-607.336563495839
 30
0.0
 11
699.1013684278068
 21
-607.336563495839
 31
0.0
  1
90
 71
     5
 42
263.2720779386427
  3
STANDARD
100
AcDbAlignedDimension
 13
830.7374073971281
 23
-724.6086789031529
 33
0.0
 14
567.4653294584855
 24
-715.6086789031528
 34
0.0
100
AcDbRotatedDimension
  0
LINE
  5
49
330
2
100
AcDbEntity
  8
0
100
AcDbLine
 10
567.4653294584855
 20
-715.6086789031528
 30
0.0
 11
834.4653294584855
 21
-715.6086789031528
 31
0.0
  0
LINE
  5
4A
330
2
100
AcDbEntity
  8
0
100
AcDbLine
 10
684.4653294584855
 20
-724.6086789031529
 30
0.0
 11
830.7374073971281
 21
-724.6086789031529
 31
0.0
  0
LINE
  5
4B
330
2
100
AcDbEntity
  8
0
100
AcDbLine
 10
567.4653294584855
 20
-724.6086789031529
 30
0.0
 11
675.4653294584855
 21
-724.6086789031529
 31
0.0
  0
LINE
  5
4C
330
2
100
AcDbEntity
  8
0
100
AcDbLine
 10
567.4653294584855
 20
-820.6086789031528
 30
0.0
 11
684.4653294584855
 21
-820.6086789031528
 31
0.0
  0
LINE
  5
4D
330
2
100
AcDbEntity
  8
0
100
AcDbLine
 10
675.4653294584855
 20
-811.6086789031529
 30
0.0
 11
567.4653294584855
 21
-811.6086789031529
 31
0.0
  0
LINE
  5
4E
330
2
100
AcDbEntity
  8
0
100
AcDbLine
 10
567.4653294584855
 20
-811.6086789031529
 30
0.0
 11
567.4653294584855
 21
-820.6086789031528
 31
0.0
  0
LINE
  5
4F
330
2
100
AcDbEntity
  8
0
100
AcDbLine
 10
567.4653294584855
 20
-715.6086789031528
 30
0.0
 11
567.4653294584855
 21
-724.6086789031529
 31
0.0
  0
LINE
  5
50
330
2
100
AcDbEntity
  8
0
100
AcDbLine
 10
684.4653294584855
 20
-820.6086789031528
 30
0.0
 11
684.4653294584855
 21
-724.6086789031529
 31
0.0
  0
LINE
  5
51
330
2
100
AcDbEntity
  8
0
100
AcDbLine
 10
675.4653294584855
 20
-724.6086789031529
 30
0.0
 11
675.4653294584855
 21
-811.6086789031529
 31
0.0
  0
LINE
  5
52
330
2
100
AcDbEntity
  8
0
100
AcDbLine
 10
940.5313466364692
 20
-834.4026181424924
 30
0.0
 11
1016.898879004615
 21
-910.7701505106394
 31
0.0
  0
LINE
  5
53
330
2
100
AcDbEntity
  8
0
100
AcDbLine
 10
955.3805890413851
 20
-972.2884404738692
 30
0.0
 11
949.0166280107064
 21
-978.6524015045479
 31
0.0
  0
LINE
  5
54
330
2
100
AcDbEntity
  8
0
100
AcDbLine
 10
1023.262840035292
 20
-904.4061894799602
 30
0.0
 11
1016.898879004615
 21
-910.7701505106394
 31
0.0
  0
MTEXT
  5
55
330
2
100
AcDbEntity
  8
0
100
AcDbMText
 10
1397.038140838628
 20
-1140.567920313307
 30
0.0
 40
28.0
 41
571.1653
 71
     1
 72
     5
  1
{\fArial|b0|i0|c0|p34;STANDARD 90° MULLION}
 73
     1
 44
1.0
  0
DIMENSION
  5
56
330
2
100
AcDbEntity
  8
0
100
AcDbDimension
  2
*D6
 10
1787.372670863811
 20
-946.2473358100087
 30
0.0
 11
1652.372670863811
 21
-946.2473358100087
 31
0.0
  1
90
 71
     5
 42
270.0
  3
STANDARD
100
AcDbAlignedDimension
 13
1517.372670863811
 23
-860.4068841311358
 33
0.0
 14
1787.372670863811
 24
-860.4068841311358
 34
0.0
100
AcDbRotatedDimension
  0
LINE
  5
64
330
2
100
AcDbEntity
  8
0
100
AcDbLine
 10
1526.372670863811
 20
-698.4068841311357
 30
0.0
 11
1613.372670863811
 21
-698.4068841311357
 31
0.0
  0
LINE
  5
65
330
2
100
AcDbEntity
  8
0
100
AcDbLine
 10
1670.372670863811
 20
-851.4068841311356
 30
0.0
 11
1526.372670863811
 21
-851.4068841311356
 31
0.0
  0
LINE
  5
66
330
2
100
AcDbEntity
  8
0
100
AcDbLine
 10
1622.372670863811
 20
-707.4068841311357
 30
0.0
 11
1526.372670863811
 21
-707.4068841311357
 31
0.0
  0
LINE
  5
67
330
2
100
AcDbEntity
  8
0
100
AcDbLine
 10
1517.372670863811
 20
-860.4068841311358
 30
0.0
 11
1787.372670863811
 21
-860.4068841311358
 31
0.0
  0
DIMENSION
  5
68
330
2
100
AcDbEntity
  8
0
100
AcDbDimension
  2
*D5
 10
1410.178868135673
 20
-860.4068841311358
 30
0.0
 11
1410.178868135674
 21
-725.4068841311354
 31
0.0
  1
90
 71
     5
 42
270.0
  3
STANDARD
100
AcDbAlignedDimension
 13
1517.372670863811
 23
-590.4068841311357
 33
0.0
 14
1517.372670863811
 24
-860.4068841311358
 34
0.0
 50
90.0
100
AcDbRotatedDimension
  0
LINE
  5
76
330
2
100
AcDbEntity
  8
0
100
AcDbLine
 10
1526.372670863811
 20
-698.4068841311357
 30
0.0
 11
1526.372670863811
 21
-590.4068841311357
 31
0.0
  0
LINE
  5
77
330
2
100
AcDbEntity
  8
0
100
AcDbLine
 10
1517.372670863811
 20
-590.4068841311357
 30
0.0
 11
1517.372670863811
 21
-860.4068841311358
 31
0.0
  0
LINE
  5
78
330
2
100
AcDbEntity
  8
0
100
AcDbLine
 10
1526.372670863811
 20
-851.4068841311356
 30
0.0
 11
1526.372670863811
 21
-707.4068841311357
 31
0.0
  0
LINE
  5
79
330
2
100
AcDbEntity
  8
0
100
AcDbLine
 10
1526.372670863811
 20
-590.4068841311357
 30
0.0
 11
1517.372670863811
 21
-590.4068841311357
 31
0.0
  0
DIMENSION
  5
7A
330
2
100
AcDbEntity
  8
0
100
AcDbDimension
  2
*D3
 10
1753.661554293837
 20
-707.4068841311357
 30
0.0
 11
1790.351611893798
 21
-646.5183410966147
 31
0.0
 70
   128
  1
37
 71
     5
 42
117.0
  3
STANDARD
100
AcDbAlignedDimension
 13
1622.372670863811
 23
-590.4068841311357
 33
0.0
 14
1622.372670863811
 24
-707.4068841311357
 34
0.0
 50
90.0
100
AcDbRotatedDimension
1001
ACAD
1000
DSTYLE
1002
{
1070
   279
1070
     2
1002
}
  0
LINE
  5
87
330
2
100
AcDbEntity
  8
0
100
AcDbLine
 10
1622.372670863811
 20
-590.4068841311357
 30
0.0
 11
1622.372670863811
 21
-707.4068841311357
 31
0.0
  0
LINE
  5
88
330
2
100
AcDbEntity
  8
0
100
AcDbLine
 10
1613.372670863811
 20
-698.4068841311357
 30
0.0
 11
1613.372670863811
 21
-590.4068841311357
 31
0.0
  0
LINE
  5
89
330
2
100
AcDbEntity
  8
0
100
AcDbLine
 10
1787.372670863811
 20
-755.4068841311357
 30
0.0
 11
1670.372670863811
 21
-755.4068841311357
 31
0.0
  0
LINE
  5
8A
330
2
100
AcDbEntity
  8
0
100
AcDbLine
 10
1679.372670863811
 20
-764.4068841311357
 30
0.0
 11
1787.372670863811
 21
-764.4068841311357
 31
0.0
  0
LINE
  5
8B
330
2
100
AcDbEntity
  8
0
100
AcDbLine
 10
1787.372670863811
 20
-851.4068841311356
 30
0.0
 11
1679.372670863811
 21
-851.4068841311356
 31
0.0
  0
LINE
  5
8C
330
2
100
AcDbEntity
  8
0
100
AcDbLine
 10
1670.372670863811
 20
-755.4068841311357
 30
0.0
 11
1670.372670863811
 21
-851.4068841311356
 31
0.0
  0
LINE
  5
8D
330
2
100
AcDbEntity
  8
0
100
AcDbLine
 10
1679.372670863811
 20
-851.4068841311356
 30
0.0
 11
1679.372670863811
 21
-764.4068841311357
 31
0.0
  0
LINE
  5
8E
330
2
100
AcDbEntity
  8
0
100
AcDbLine
 10
1787.372670863811
 20
-860.4068841311358
 30
0.0
 11
1787.372670863811
 21
-851.4068841311356
 31
0.0
  0
LINE
  5
8F
330
2
100
AcDbEntity
  8
0
100
AcDbLine
 10
1787.372670863811
 20
-764.4068841311357
 30
0.0
 11
1787.372670863811
 21
-755.4068841311357
 31
0.0
  0
LINE
  5
90
330
2
100
AcDbEntity
  8
0
100
AcDbLine
 10
1613.372670863811
 20
-590.4068841311357
 30
0.0
 11
1622.372670863811
 21
-590.4068841311357
 31
0.0
  0
MTEXT
  5
91
330
2
100
AcDbEntity
  8
0
100
AcDbMText
 10
2532.883132108212
 20
-573.8862977868593
 30
0.0
 40
28.0
 41
545.3211109612802
 71
     1
 72
     5
  1
{\Ftxt.shx;STANDARD 30mm SIDE GUIDES RIVETED TO ALUMINIUM SHEET}
  7
STYLE1
 73
     1
 44
1.0
  0
MTEXT
  5
93
330
2
100
AcDbEntity
  8
0
100
AcDbMText
 10
2328.119450748938
 20
-1131.914004409376
 30
0.0
 40
28.0
 41
977.5496
 71
     1
 72
     5
  1
{\fArial|b0|i0|c0|p34;FABRICATED CLEARANCE MULLION}
 73
     1
 44
1.0
  0
DIMENSION
  5
94
330
2
100
AcDbEntity
  8
0
100
AcDbDimension
  2
*D7
 10
3210.821407173728
 20
-915.3422037666951
 30
0.0
 11
2752.709474020086
 21
-915.3422037666951
 31
0.0
  1
L \P(DETERMINED BY BUNDLE SIZE)
 71
     5
 42
916.2238663072853
  3
STANDARD
100
AcDbAlignedDimension
 13
2294.597540866443
 23
-845.6617880438843
 33
0.0
 14
3210.821407173728
 24
-841.1617880438843
 34
0.0
100
AcDbRotatedDimension
  0
LINE
  5
A2
330
2
100
AcDbEntity
  8
0
100
AcDbLine
 10
2303.597540866443
 20
-854.6617880438843
 30
0.0
 11
3206.321407173728
 21
-854.6617880438846
 31
0.0
  0
LINE
  5
A3
330
2
100
AcDbEntity
  8
0
100
AcDbLine
 10
3206.321407173728
 20
-845.6617880438846
 30
0.0
 11
2309.597540866443
 21
-845.6617880438843
 31
0.0
  0
DIMENSION
  5
A4
330
2
100
AcDbEntity
  8
0
100
AcDbDimension
  2
*D8
 10
2203.940914180861
 20
-854.6617880438843
 30
0.0
 11
2203.940914180861
 21
-719.661788043884
 31
0.0
 70
    32
  1
90
 71
     5
 42
269.9999999999998
  3
STANDARD
100
AcDbAlignedDimension
 13
2308.097540866444
 23
-584.6617880438846
 33
0.0
 14
2303.597540866443
 24
-854.6617880438843
 34
0.0
 50
90.0
100
AcDbRotatedDimension
  0
LINE
  5
B2
330
2
100
AcDbEntity
  8
0
100
AcDbLine
 10
2294.597540866443
 20
-589.161788043885
 30
0.0
 11
2294.597540866443
 21
-845.6617880438843
 31
0.0
  0
LINE
  5
B3
330
2
100
AcDbEntity
  8
0
100
AcDbLine
 10
2303.597540866443
 20
-727.161788043885
 30
0.0
 11
2303.597540866443
 21
-589.161788043885
 31
0.0
  0
LINE
  5
B4
330
2
100
AcDbEntity
  8
0
100
AcDbLine
 10
2393.597540866443
 20
-589.161788043885
 30
0.0
 11
2393.597540866443
 21
-727.161788043885
 31
0.0
  0
LINE
  5
B5
330
2
100
AcDbEntity
  8
0
100
AcDbLine
 10
2384.597540866443
 20
-697.2551029833837
 30
0.0
 11
2312.597540866444
 21
-697.2551029833837
 31
0.0
  0
LINE
  5
B6
330
2
100
AcDbEntity
  8
0
100
AcDbLine
 10
2312.597540866444
 20
-724.161788043885
 30
0.0
 11
2384.597540866443
 21
-724.161788043885
 31
0.0
  0
LINE
  5
B7
330
2
100
AcDbEntity
  8
0
100
AcDbLine
 10
2387.597540866444
 20
-733.1617880438847
 30
0.0
 11
2309.597540866443
 21
-733.1617880438847
 31
0.0
  0
LINE
  5
B8
330
2
100
AcDbEntity
  8
0
100
AcDbLine
 10
2303.597540866443
 20
-727.161788043885
 30
0.0
 11
2303.597540866443
 21
-839.6617880438844
 31
0.0
  0
ARC
  5
B9
330
2
100
AcDbEntity
  8
0
100
AcDbCircle
 10
2303.597540866443
 20
-845.6617880438843
 30
0.0
 40
9.0
100
AcDbArc
 50
180.0
 51
270.0
  0
ARC
  5
BA
330
2
100
AcDbEntity
  8
0
100
AcDbCircle
 10
2309.597540866443
 20
-839.6617880438844
 30
0.0
 40
6.0
100
AcDbArc
 50
180.0
 51
270.0
  0
LINE
  5
BB
330
2
100
AcDbEntity
  8
0
100
AcDbLine
 10
2316.434161709938
 20
-705.4618948282737
 30
0.0
 11
2312.597540866444
 21
-703.6300094514504
 31
0.0
  0
LINE
  5
BC
330
2
100
AcDbEntity
  8
0
100
AcDbLine
 10
2316.434161709938
 20
-711.0646684555207
 30
0.0
 11
2312.597540866444
 21
-712.8965538323441
 31
0.0
  0
ELLIPSE
  5
BD
330
2
100
AcDbEntity
  8
0
100
AcDbEllipse
 10
2294.597540866443
 20
-708.2632816418972
 30
0.0
 11
0.0
 21
-5.0
 31
0.0
210
0.0
220
0.0
230
1.0
 40
0.65863050384914
 41
3.141592653589793
 42
6.283185307179586
  0
LINE
  5
BE
330
2
100
AcDbEntity
  8
0
100
AcDbLine
 10
2312.597540866444
 20
-697.255102983384
 30
0.0
 11
2312.597540866444
 21
-724.161788043885
 31
0.0
  0
ARC
  5
BF
330
2
100
AcDbEntity
  8
0
100
AcDbCircle
 10
2309.597540866443
 20
-727.1617880438847
 30
0.0
 40
6.000000000000001
100
AcDbArc
 50
180.0
 51
270.0
  0
LINE
  5
C0
330
2
100
AcDbEntity
  8
0
100
AcDbLine
 10
2316.434161709938
 20
-704.6623599288614
 30
0.0
 11
2316.434161709938
 21
-712.2129974281651
 31
0.0
  0
LINE
  5
C1
330
2
100
AcDbEntity
  8
0
100
AcDbLine
 10
2317.230813056891
 20
-709.8225791067634
 30
0.0
 11
2317.230813056891
 21
-712.2129974281651
 31
0.0
  0
LINE
  5
C2
330
2
100
AcDbEntity
  8
0
100
AcDbLine
 10
2317.230813056891
 20
-712.2129974281651
 30
0.0
 11
2316.434161709938
 21
-712.2129974281651
 31
0.0
  0
LINE
  5
C3
330
2
100
AcDbEntity
  8
0
100
AcDbLine
 10
2317.230813056891
 20
-704.6623599288614
 30
0.0
 11
2316.434161709938
 21
-704.6623599288614
 31
0.0
  0
LINE
  5
C4
330
2
100
AcDbEntity
  8
0
100
AcDbLine
 10
2317.230813056891
 20
-707.0527782502631
 30
0.0
 11
2317.230813056891
 21
-704.6623599288614
 31
0.0
  0
LINE
  5
C5
330
2
100
AcDbEntity
  8
0
100
AcDbLine
 10
2317.230813056891
 20
-706.5810494736198
 30
0.0
 11
2318.793853825689
 21
-706.5810494736197
 31
0.0
  0
LINE
  5
C6
330
2
100
AcDbEntity
  8
0
100
AcDbLine
 10
2318.793853825689
 20
-710.2943078834068
 30
0.0
 11
2317.230813056891
 21
-710.2943078834068
 31
0.0
  0
LINE
  5
C7
330
2
100
AcDbEntity
  8
0
100
AcDbLine
 10
2318.793853825689
 20
-706.5810494736197
 30
0.0
 11
2318.793853825689
 21
-710.2943078834068
 31
0.0
  0
LINE
  5
C8
330
2
100
AcDbEntity
  8
0
100
AcDbLine
 10
2317.230813056891
 20
-708.2632816418972
 30
0.0
 11
2317.230813056891
 21
-710.6842884251655
 31
0.0
  0
LINE
  5
C9
330
2
100
AcDbEntity
  8
0
100
AcDbLine
 10
2317.230813056891
 20
-708.2632816418972
 30
0.0
 11
2317.230813056891
 21
-705.842274858629
 31
0.0
  0
ARC
  5
CA
330
2
100
AcDbEntity
  8
0
100
AcDbCircle
 10
2387.597540866444
 20
-727.1617880438847
 30
0.0
 40
6.000000000000001
100
AcDbArc
 50
270.0
 51
0.0
  0
LINE
  5
CB
330
2
100
AcDbEntity
  8
0
100
AcDbLine
 10
2384.597540866443
 20
-724.161788043885
 30
0.0
 11
2384.597540866443
 21
-697.255102983384
 31
0.0
  0
LEADER
  5
CC
330
2
100
AcDbEntity
  8
0
100
AcDbLeader
  3
STANDARD
 76
     2
 10
2393.947822360289
 20
-627.7274072262899
 30
0.0
 10
2515.516227694323
 20
-627.7274072262899
 30
0.0
1001
ACAD
1000
DSTYLE
1002
{
1070
   147
1040
10.0
1070
    77
1070
     0
1002
}
  0
LINE
  5
CD
330
2
100
AcDbEntity
  8
0
100
AcDbLine
 10
2384.597540866443
 20
-688.2551029833837
 30
0.0
 11
2312.597540866444
 21
-688.2551029833837
 31
0.0
  0
LINE
  5
CE
330
2
100
AcDbEntity
  8
0
100
AcDbLine
 10
2312.597540866444
 20
-589.161788043885
 30
0.0
 11
2312.597540866444
 21
-688.2551029833837
 31
0.0
  0
LINE
  5
CF
330
2
100
AcDbEntity
  8
0
100
AcDbLine
 10
2303.597540866443
 20
-658.161788043885
 30
0.0
 11
2303.597540866443
 21
-589.1617880438847
 31
0.0
  0
LINE
  5
D0
330
2
100
AcDbEntity
  8
0
100
AcDbLine
 10
2384.597540866443
 20
-688.2551029833837
 30
0.0
 11
2384.597540866443
 21
-589.161788043885
 31
0.0
  0
LEADER
  5
D1
330
2
100
AcDbEntity
  8
0
100
AcDbLeader
  3
STANDARD
 76
     3
 10
3062.321407173727
 20
-800.6617880438851
 30
0.0
 10
2696.132109095029
 20
-800.6617880438851
 30
0.0
 10
2696.132109095029
 20
-728.3842834153402
 30
0.0
1001
ACAD
1000
DSTYLE
1002
{
1070
   147
1040
10.0
1070
    77
1070
     0
1002
}
  0
LINE
  5
D2
330
2
100
AcDbEntity
  8
0
100
AcDbLine
 10
3206.321407173728
 20
-764.661788043885
 30
0.0
 11
3107.228092234229
 21
-764.661788043885
 31
0.0
  0
LINE
  5
D3
330
2
100
AcDbEntity
  8
0
100
AcDbLine
 10
3107.228092234229
 20
-836.661788043885
 30
0.0
 11
3206.321407173728
 21
-836.661788043885
 31
0.0
  0
LINE
  5
D4
330
2
100
AcDbEntity
  8
0
100
AcDbLine
 10
3068.321407173727
 20
-755.6617880438847
 30
0.0
 11
3206.321407173728
 21
-755.6617880438847
 31
0.0
  0
LINE
  5
D5
330
2
100
AcDbEntity
  8
0
100
AcDbLine
 10
3206.321407173728
 20
-845.6617880438846
 30
0.0
 11
3068.321407173727
 21
-845.6617880438846
 31
0.0
  0
LINE
  5
D6
330
2
100
AcDbEntity
  8
0
100
AcDbLine
 10
3107.228092234229
 20
-836.661788043885
 30
0.0
 11
3107.228092234229
 21
-764.661788043885
 31
0.0
  0
LINE
  5
D7
330
2
100
AcDbEntity
  8
0
100
AcDbLine
 10
3071.321407173727
 20
-764.661788043885
 30
0.0
 11
3071.321407173727
 21
-836.661788043885
 31
0.0
  0
LINE
  5
D8
330
2
100
AcDbEntity
  8
0
100
AcDbLine
 10
3098.228092234228
 20
-836.661788043885
 30
0.0
 11
3098.228092234228
 21
-764.661788043885
 31
0.0
  0
LINE
  5
D9
330
2
100
AcDbEntity
  8
0
100
AcDbLine
 10
3062.321407173727
 20
-839.6617880438849
 30
0.0
 11
3062.321407173727
 21
-761.661788043885
 31
0.0
  0
LINE
  5
DA
330
2
100
AcDbEntity
  8
0
100
AcDbLine
 10
3084.455271732964
 20
-832.0285158534364
 30
0.0
 11
3086.876278516232
 21
-832.0285158534364
 31
0.0
  0
LINE
  5
DB
330
2
100
AcDbEntity
  8
0
100
AcDbLine
 10
3082.773039564687
 20
-830.4654750846387
 30
0.0
 11
3086.486297974474
 21
-830.4654750846387
 31
0.0
  0
LINE
  5
DC
330
2
100
AcDbEntity
  8
0
100
AcDbLine
 10
3086.01456919783
 20
-832.0285158534364
 30
0.0
 11
3088.404987519232
 21
-832.0285158534364
 31
0.0
  0
LINE
  5
DD
330
2
100
AcDbEntity
  8
0
100
AcDbLine
 10
3080.854350019928
 20
-832.8251672003901
 30
0.0
 11
3088.404987519232
 21
-832.8251672003901
 31
0.0
  0
ELLIPSE
  5
DE
330
2
100
AcDbEntity
  8
0
100
AcDbEllipse
 10
3084.455271732964
 20
-854.6617880438846
 30
0.0
 11
5.0
 21
-0.0000000000000003
 31
0.0
210
0.0
220
0.0
230
1.0
 40
0.65863050384914
 41
3.141592653589793
 42
6.283185307179586
  0
LINE
  5
DF
330
2
100
AcDbEntity
  8
0
100
AcDbLine
 10
3071.321407173727
 20
-836.661788043885
 30
0.0
 11
3098.228092234228
 21
-836.661788043885
 31
0.0
  0
LINE
  5
E0
330
2
100
AcDbEntity
  8
0
100
AcDbLine
 10
3084.455271732964
 20
-832.0285158534364
 30
0.0
 11
3082.034264949696
 21
-832.0285158534364
 31
0.0
  0
LINE
  5
E1
330
2
100
AcDbEntity
  8
0
100
AcDbLine
 10
3082.773039564687
 20
-832.0285158534364
 30
0.0
 11
3082.773039564687
 21
-830.4654750846387
 31
0.0
  0
LINE
  5
E2
330
2
100
AcDbEntity
  8
0
100
AcDbLine
 10
3083.24476834133
 20
-832.0285158534364
 30
0.0
 11
3080.854350019928
 21
-832.0285158534364
 31
0.0
  0
LINE
  5
E3
330
2
100
AcDbEntity
  8
0
100
AcDbLine
 10
3080.854350019928
 20
-832.0285158534364
 30
0.0
 11
3080.854350019928
 21
-832.8251672003901
 31
0.0
  0
LINE
  5
E4
330
2
100
AcDbEntity
  8
0
100
AcDbLine
 10
3081.653884919341
 20
-832.8251672003901
 30
0.0
 11
3079.821999542518
 21
-836.6617880438832
 31
0.0
  0
ARC
  5
E5
330
2
100
AcDbEntity
  8
0
100
AcDbCircle
 10
3068.321407173729
 20
-839.6617880438848
 30
0.0
 40
6.000000000000001
100
AcDbArc
 50
180.0
 51
270.0
  0
LINE
  5
E6
330
2
100
AcDbEntity
  8
0
100
AcDbLine
 10
3086.486297974474
 20
-830.4654750846387
 30
0.0
 11
3086.486297974474
 21
-832.0285158534364
 31
0.0
  0
LINE
  5
E7
330
2
100
AcDbEntity
  8
0
100
AcDbLine
 10
3088.404987519232
 20
-832.0285158534364
 30
0.0
 11
3088.404987519232
 21
-832.8251672003901
 31
0.0
  0
LINE
  5
E8
330
2
100
AcDbEntity
  8
0
100
AcDbLine
 10
3087.256658546587
 20
-832.8251672003901
 30
0.0
 11
3089.088543923411
 21
-836.6617880438832
 31
0.0
  0
LINE
  5
E9
330
2
100
AcDbEntity
  8
0
100
AcDbLine
 10
3098.228092234228
 20
-764.661788043885
 30
0.0
 11
3071.321407173727
 21
-764.661788043885
 31
0.0
  0
ARC
  5
EA
330
2
100
AcDbEntity
  8
0
100
AcDbCircle
 10
3068.321407173729
 20
-761.6617880438846
 30
0.0
 40
6.000000000000001
100
AcDbArc
 50
89.99999999999998
 51
180.0
  0
LINE
  5
EB
330
2
100
AcDbEntity
  8
0
100
AcDbLine
 10
3206.321407173728
 20
-854.6617880438846
 30
0.0
 11
3206.321407173728
 21
-845.6617880438846
 31
0.0
  0
ARC
  5
EC
330
2
100
AcDbEntity
  8
0
100
AcDbCircle
 10
3206.321407173729
 20
-841.1617880438843
 30
0.0
 40
4.5
100
AcDbArc
 50
270.0
 51
89.99999999999998
  0
ARC
  5
ED
330
2
100
AcDbEntity
  8
0
100
AcDbCircle
 10
3206.321407173729
 20
-760.1617880438847
 30
0.0
 40
4.5
100
AcDbArc
 50
270.0
 51
89.99999999999998
  0
ARC
  5
EE
330
2
100
AcDbEntity
  8
0
100
AcDbCircle
 10
2389.097540866443
 20
-589.161788043885
 30
0.0
 40
4.5
100
AcDbArc
 50
0.0
 51
180.0
  0
ARC
  5
EF
330
2
100
AcDbEntity
  8
0
100
AcDbCircle
 10
2308.097540866444
 20
-589.161788043885
 30
0.0
 40
4.5
100
AcDbArc
 50
0.0
 51
180.0
  0
LINE
  5
F0
330
2
100
AcDbEntity
  8
0
100
AcDbLine
 10
2294.597540866443
 20
-589.161788043885
 30
0.0
 11
2303.597540866443
 21
-589.161788043885
 31
0.0
  0
LEADER
  5
F1
330
2
100
AcDbEntity
  8
0
100
AcDbLeader
  3
STANDARD
 73
     0
 40
68.0
 41
612.0
 76
     3
 10
2309.597540866443
 20
-839.6617880438844
 30
0.0
 10
2246.17845524286
 20
-1003.296971998796
 30
0.0
 10
2269.526146925729
 20
-1003.296971998796
 30
0.0
340
F2
213
0.0
223
-12.75
233
0.0
1001
ACAD
1000
DSTYLE
1002
{
1070
   147
1040
10.0
1070
    77
1070
     0
1002
}
  0
MTEXT
  5
F2
102
{ACAD_REACTORS
330
F1
102
}
330
2
100
AcDbEntity
  8
0
100
AcDbMText
 10
2284.526146925729
 20
-990.5469719987967
 30
0.0
 40
25.5
 41
0.0
 71
     1
 72
     1
  1
CAN BE FOLDED TO 90°, 135°\POR SPECIAL ANGLES
 73
     1
 44
1.0
  0
VIEWPORT
  5
F8
330
F7
100
AcDbEntity
 67
     1
  8
0
100
AcDbViewport
 10
249.1893184741488
 20
141.7425832748413
 30
0.0
 40
510.4648033301337
 41
296.9259948730469
 68
     1
 69
     1
 12
249.1893184741488
 22
141.7425832748413
 13
0.0
 23
0.0
 14
10.0
 24
10.0
 15
10.0
 25
10.0
 16
0.0
 26
0.0
 36
1.0
 17
0.0
 27
0.0
 37
0.0
 42
50.0
 43
0.0
 44
0.0
 45
296.9259948730469
 50
0.0
 51
0.0
 72
  5000
 90
    32800
  1

281
     0
 71
     1
 74
     0
110
0.0
120
0.0
130
0.0
111
1.0
121
0.0
131
0.0
112
0.0
122
1.0
132
0.0
 79
     0
146
0.0
  0
ENDSEC
  0
SECTION
  2
OBJECTS
  0
DICTIONARY
  5
7
330
0
100
AcDbDictionary
281
     1
  3
ACAD_GROUP
350
10C
  3
ACAD_LAYOUT
350
F6
  3
ACAD_MLINESTYLE
350
10D
  3
ACAD_PLOTSETTINGS
350
10E
  3
ACAD_PLOTSTYLENAME
350
6
  3
AcDbVariableDictionary
350
116
  0
DICTIONARY
  5
10C
102
{ACAD_REACTORS
330
7
102
}
330
7
100
AcDbDictionary
281
     1
  0
DICTIONARY
  5
F6
102
{ACAD_REACTORS
330
7
102
}
330
7
100
AcDbDictionary
281
     1
  3
mirage
350
FC
  3
Model
350
F5
  0
DICTIONARY
  5
10D
102
{ACAD_REACTORS
330
7
102
}
330
7
100
AcDbDictionary
281
     1
  3
STANDARD
350
10F
  0
DICTIONARY
  5
10E
102
{ACAD_REACTORS
330
7
102
}
330
7
100
AcDbDictionary
281
     1
  0
ACDBDICTIONARYWDFLT
  5
6
102
{ACAD_REACTORS
330
7
102
}
330
7
100
AcDbDictionary
281
     1
  3
Normal
350
5
100
AcDbDictionaryWithDefault
340
5
  0
DICTIONARY
  5
116
102
{ACAD_REACTORS
330
7
102
}
330
7
100
AcDbDictionary
281
     1
  3
DIMASSOC
350
117
  0
LAYOUT
  5
FC
102
{ACAD_REACTORS
330
F6
102
}
330
F6
100
AcDbPlotSettings
  1

  2
HP LaserJet 5N
  4
A4
  6

 40
6.043083190917968
 41
6.720414161682128
 42
7.821090698242187
 43
5.027069091796875
 44
210.0579986572265
 45
296.9259948730469
 46
0.0
 47
0.0
 48
0.0
 49
0.0
140
0.0
141
0.0
142
1.0
143
1.0
 70
   688
 72
     1
 73
     0
 74
     5
  7

 75
    16
147
1.0
148
0.0
149
0.0
100
AcDbLayout
  1
mirage
 70
     1
 71
     1
 10
-6.043083190917968
 20
-6.720414161682128
 11
204.0149154663085
 21
290.2055807113647
 12
0.0
 22
0.0
 32
0.0
 14
1.000000000000000E+20
 24
1.000000000000000E+20
 34
1.000000000000000E+20
 15
-1.000000000000000E+20
 25
-1.000000000000000E+20
 35
-1.000000000000000E+20
146
0.0
 13
0.0
 23
0.0
 33
0.0
 16
1.0
 26
0.0
 36
0.0
 17
0.0
 27
1.0
 37
0.0
 76
     0
330
F7
331
F8
  0
LAYOUT
  5
F5
102
{ACAD_REACTORS
330
F6
102
}
330
F6
100
AcDbPlotSettings
  1

  2
HP LaserJet 5N - Reception
  4
A4
  6

 40
6.043083190917968
 41
6.720414161682128
 42
7.821090698242187
 43
5.027069091796875
 44
210.0579986572265
 45
296.9259948730469
 46
0.0
 47
0.0
 48
1247.962481013386
 49
-462.2982024585817
140
3947.729282488846
141
1000.001337832762
142
1.0
143
9.466936292440527
 70
 11952
 72
     1
 73
     1
 74
     4
  7

 75
     0
147
0.1056307942833114
148
-1247.962481013386
149
462.2982024585817
100
AcDbLayout
  1
Model
 70
     1
 71
     0
 10
0.0
 20
0.0
 11
12.0
 21
9.0
 12
0.0
 22
0.0
 32
0.0
 14
0.0
 24
0.0
 34
0.0
 15
0.0
 25
0.0
 35
0.0
146
0.0
 13
0.0
 23
0.0
 33
0.0
 16
1.0
 26
0.0
 36
0.0
 17
0.0
 27
1.0
 37
0.0
 76
     0
330
2
  0
MLINESTYLE
  5
10F
102
{ACAD_REACTORS
330
10D
102
}
330
10D
100
AcDbMlineStyle
  2
STANDARD
 70
     0
  3

 62
     0
 51
90.0
 52
90.0
 71
     2
 49
0.5
 62
   256
  6
BYLAYER
 49
-0.5
 62
   256
  6
BYLAYER
  0
ACDBPLACEHOLDER
  5
5
102
{ACAD_REACTORS
330
6
102
}
330
6
  0
DICTIONARYVAR
  5
117
102
{ACAD_REACTORS
330
116
102
}
330
116
100
DictionaryVariables
280
     0
  1
1
  0
ENDSEC
  0
EOF
