  0
SECTION
  2
HEADER
  9
$ACADVER
  1
AC1015
  9
$ACADMAINTVER
 70
    13
  9
$DWGCODEPAGE
  3
ANSI_1252
  9
$INSBASE
 10
824.0779172447801
 20
-413.6977428227855
 30
0.0
  9
$EXTMIN
 10
824.0779164158956
 20
-413.69774280731
 30
0.0
  9
$EXTMAX
 10
2812.461782124242
 20
877.1483651021439
 30
0.0
  9
$LIMMIN
 10
0.0
 20
0.0
  9
$LIMMAX
 10
297.0
 20
210.0
  9
$ORTHOMODE
 70
     0
  9
$REGENMODE
 70
     1
  9
$FILLMODE
 70
     1
  9
$QTEXTMODE
 70
     0
  9
$MIRRTEXT
 70
     1
  9
$LTSCALE
 40
1.0
  9
$ATTMODE
 70
     1
  9
$TEXTSIZE
 40
10.0
  9
$TRACEWID
 40
0.05
  9
$TEXTSTYLE
  7
STYLE1
  9
$CLAYER
  8
0
  9
$CELTYPE
  6
BYLAYER
  9
$CECOLOR
 62
   256
  9
$CELTSCALE
 40
1.0
  9
$DISPSILH
 70
     0
  9
$DIMSCALE
 40
1.5
  9
$DIMASZ
 40
15.0
  9
$DIMEXO
 40
10.0
  9
$DIMDLI
 40
3.75
  9
$DIMRND
 40
0.0
  9
$DIMDLE
 40
0.0
  9
$DIMEXE
 40
10.0
  9
$DIMTP
 40
0.0
  9
$DIMTM
 40
0.0
  9
$DIMTXT
 40
17.0
  9
$DIMCEN
 40
2.5
  9
$DIMTSZ
 40
0.0
  9
$DIMTOL
 70
     0
  9
$DIMLIM
 70
     0
  9
$DIMTIH
 70
     1
  9
$DIMTOH
 70
     1
  9
$DIMSE1
 70
     0
  9
$DIMSE2
 70
     0
  9
$DIMTAD
 70
     0
  9
$DIMZIN
 70
     0
  9
$DIMBLK
  1

  9
$DIMASO
 70
     1
  9
$DIMSHO
 70
     1
  9
$DIMPOST
  1

  9
$DIMAPOST
  1

  9
$DIMALT
 70
     0
  9
$DIMALTD
 70
     2
  9
$DIMALTF
 40
25.4
  9
$DIMLFAC
 40
1.0
  9
$DIMTOFL
 70
     0
  9
$DIMTVP
 40
0.0
  9
$DIMTIX
 70
     0
  9
$DIMSOXD
 70
     0
  9
$DIMSAH
 70
     0
  9
$DIMBLK1
  1

  9
$DIMBLK2
  1

  9
$DIMSTYLE
  2
STANDARD
  9
$DIMCLRD
 70
     0
  9
$DIMCLRE
 70
     0
  9
$DIMCLRT
 70
     0
  9
$DIMTFAC
 40
1.0
  9
$DIMGAP
 40
10.0
  9
$DIMJUST
 70
     0
  9
$DIMSD1
 70
     0
  9
$DIMSD2
 70
     0
  9
$DIMTOLJ
 70
     1
  9
$DIMTZIN
 70
     0
  9
$DIMALTZ
 70
     0
  9
$DIMALTTZ
 70
     0
  9
$DIMUPT
 70
     0
  9
$DIMDEC
 70
     4
  9
$DIMTDEC
 70
     4
  9
$DIMALTU
 70
     2
  9
$DIMALTTD
 70
     2
  9
$DIMTXSTY
  7
STANDARD
  9
$DIMAUNIT
 70
     0
  9
$DIMADEC
 70
     0
  9
$DIMALTRND
 40
0.0
  9
$DIMAZIN
 70
     0
  9
$DIMDSEP
 70
    46
  9
$DIMATFIT
 70
     3
  9
$DIMFRAC
 70
     0
  9
$DIMLDRBLK
  1

  9
$DIMLUNIT
 70
     2
  9
$DIMLWD
 70
    -2
  9
$DIMLWE
 70
    -2
  9
$DIMTMOVE
 70
     0
  9
$LUNITS
 70
     2
  9
$LUPREC
 70
     4
  9
$SKETCHINC
 40
0.1
  9
$FILLETRAD
 40
2.0
  9
$AUNITS
 70
     0
  9
$AUPREC
 70
     0
  9
$MENU
  1
acad
  9
$ELEVATION
 40
0.0
  9
$PELEVATION
 40
0.0
  9
$THICKNESS
 40
0.0
  9
$LIMCHECK
 70
     0
  9
$CHAMFERA
 40
10.0
  9
$CHAMFERB
 40
10.0
  9
$CHAMFERC
 40
20.0
  9
$CHAMFERD
 40
0.0
  9
$SKPOLY
 70
     0
  9
$TDCREATE
 40
2452461.345466435
  9
$TDUCREATE
 40
2452460.928799768
  9
$TDUPDATE
 40
2453647.412339178
  9
$TDUUPDATE
 40
2453646.995672511
  9
$TDINDWG
 40
1.6794117477
  9
$TDUSRTIMER
 40
1.6794117477
  9
$USRTIMER
 70
     1
  9
$ANGBASE
 50
0.0
  9
$ANGDIR
 70
     0
  9
$PDMODE
 70
     0
  9
$PDSIZE
 40
0.0
  9
$PLINEWID
 40
0.0
  9
$SPLFRAME
 70
     0
  9
$SPLINETYPE
 70
     6
  9
$SPLINESEGS
 70
    50
  9
$HANDSEED
  5
388
  9
$SURFTAB1
 70
     6
  9
$SURFTAB2
 70
     6
  9
$SURFTYPE
 70
     6
  9
$SURFU
 70
     6
  9
$SURFV
 70
     6
  9
$UCSBASE
  2

  9
$UCSNAME
  2

  9
$UCSORG
 10
0.0
 20
0.0
 30
0.0
  9
$UCSXDIR
 10
1.0
 20
0.0
 30
0.0
  9
$UCSYDIR
 10
0.0
 20
1.0
 30
0.0
  9
$UCSORTHOREF
  2

  9
$UCSORTHOVIEW
 70
     0
  9
$UCSORGTOP
 10
0.0
 20
0.0
 30
0.0
  9
$UCSORGBOTTOM
 10
0.0
 20
0.0
 30
0.0
  9
$UCSORGLEFT
 10
0.0
 20
0.0
 30
0.0
  9
$UCSORGRIGHT
 10
0.0
 20
0.0
 30
0.0
  9
$UCSORGFRONT
 10
0.0
 20
0.0
 30
0.0
  9
$UCSORGBACK
 10
0.0
 20
0.0
 30
0.0
  9
$PUCSBASE
  2

  9
$PUCSNAME
  2

  9
$PUCSORG
 10
0.0
 20
0.0
 30
0.0
  9
$PUCSXDIR
 10
1.0
 20
0.0
 30
0.0
  9
$PUCSYDIR
 10
0.0
 20
1.0
 30
0.0
  9
$PUCSORTHOREF
  2

  9
$PUCSORTHOVIEW
 70
     0
  9
$PUCSORGTOP
 10
0.0
 20
0.0
 30
0.0
  9
$PUCSORGBOTTOM
 10
0.0
 20
0.0
 30
0.0
  9
$PUCSORGLEFT
 10
0.0
 20
0.0
 30
0.0
  9
$PUCSORGRIGHT
 10
0.0
 20
0.0
 30
0.0
  9
$PUCSORGFRONT
 10
0.0
 20
0.0
 30
0.0
  9
$PUCSORGBACK
 10
0.0
 20
0.0
 30
0.0
  9
$USERI1
 70
     0
  9
$USERI2
 70
     0
  9
$USERI3
 70
     0
  9
$USERI4
 70
     0
  9
$USERI5
 70
     0
  9
$USERR1
 40
0.0
  9
$USERR2
 40
0.0
  9
$USERR3
 40
0.0
  9
$USERR4
 40
0.0
  9
$USERR5
 40
0.0
  9
$WORLDVIEW
 70
     1
  9
$SHADEDGE
 70
     3
  9
$SHADEDIF
 70
    70
  9
$TILEMODE
 70
     1
  9
$MAXACTVP
 70
    16
  9
$PINSBASE
 10
0.0
 20
0.0
 30
0.0
  9
$PLIMCHECK
 70
     0
  9
$PEXTMIN
 10
-84.0
 20
-0.1575368999165647
 30
0.0
  9
$PEXTMAX
 10
211.0941500469197
 20
282.033201554023
 30
0.0
  9
$PLIMMIN
 10
-6.043083190917968
 20
-6.720414161682128
  9
$PLIMMAX
 10
204.0149154663085
 20
290.2055807113647
  9
$UNITMODE
 70
     0
  9
$VISRETAIN
 70
     0
  9
$PLINEGEN
 70
     0
  9
$PSLTSCALE
 70
     1
  9
$TREEDEPTH
 70
  3020
  9
$CMLSTYLE
  2
STANDARD
  9
$CMLJUST
 70
     0
  9
$CMLSCALE
 40
20.0
  9
$PROXYGRAPHICS
 70
     1
  9
$MEASUREMENT
 70
     0
  9
$CELWEIGHT
370
    -1
  9
$ENDCAPS
280
     0
  9
$JOINSTYLE
280
     0
  9
$LWDISPLAY
290
     0
  9
$INSUNITS
 70
     0
  9
$HYPERLINKBASE
  1

  9
$STYLESHEET
  1

  9
$XEDIT
290
     1
  9
$CEPSNTYPE
380
     0
  9
$PSTYLEMODE
290
     1
  9
$FINGERPRINTGUID
  2
{19245959-ED00-4CA9-B29A-3CAC91204687}
  9
$VERSIONGUID
  2
{9FC637D4-44C5-4891-ABF8-83DED1B3FAE2}
  9
$EXTNAMES
290
     1
  9
$PSVPSCALE
 40
0.0
  9
$OLESTARTUP
290
     0
  0
ENDSEC
  0
SECTION
  2
CLASSES
  0
CLASS
  1
ACDBDICTIONARYWDFLT
  2
AcDbDictionaryWithDefault
  3
AutoCAD 2000
 90
        0
280
     0
281
     0
  0
CLASS
  1
ACDBPLACEHOLDER
  2
AcDbPlaceHolder
  3
AutoCAD 2000
 90
        0
280
     0
281
     0
  0
CLASS
  1
LAYOUT
  2
AcDbLayout
  3
AutoCAD 2000
 90
        0
280
     0
281
     0
  0
CLASS
  1
DICTIONARYVAR
  2
AcDbDictionaryVar
  3
AutoCAD 2000
 90
        0
280
     0
281
     0
  0
ENDSEC
  0
SECTION
  2
TABLES
  0
TABLE
  2
VPORT
  5
19
330
0
100
AcDbSymbolTable
 70
     4
  0
VPORT
  5
387
330
19
100
AcDbSymbolTableRecord
100
AcDbViewportTableRecord
  2
*Active
 70
     0
 10
0.0
 20
0.0
 11
1.0
 21
1.0
 12
1777.965113263653
 22
242.907457636662
 13
0.0
 23
0.0
 14
10.0
 24
10.0
 15
10.0
 25
10.0
 16
0.0
 26
0.0
 36
1.0
 17
0.0
 27
0.0
 37
0.0
 40
1389.228975129921
 41
1.786259541984732
 42
50.0
 43
0.0
 44
0.0
 50
0.0
 51
0.0
 71
     0
 72
  5000
 73
     1
 74
     0
 75
     0
 76
     0
 77
     0
 78
     0
281
     0
 65
     1
110
0.0
120
0.0
130
0.0
111
1.0
121
0.0
131
0.0
112
0.0
122
1.0
132
0.0
 79
     0
146
0.0
  0
ENDTAB
  0
TABLE
  2
LTYPE
  5
14
330
0
100
AcDbSymbolTable
 70
     2
  0
LTYPE
  5
15
330
14
100
AcDbSymbolTableRecord
100
AcDbLinetypeTableRecord
  2
BYBLOCK
 70
     0
  3

 72
    65
 73
     0
 40
0.0
  0
LTYPE
  5
16
330
14
100
AcDbSymbolTableRecord
100
AcDbLinetypeTableRecord
  2
BYLAYER
 70
     0
  3

 72
    65
 73
     0
 40
0.0
  0
LTYPE
  5
8
330
14
100
AcDbSymbolTableRecord
100
AcDbLinetypeTableRecord
  2
CONTINUOUS
 70
     0
  3
Solid line
 72
    65
 73
     0
 40
0.0
  0
LTYPE
  5
5D
330
14
100
AcDbSymbolTableRecord
100
AcDbLinetypeTableRecord
  2
DASHED
 70
     0
  3
__ __ __ __ __ __ __ __ __ __ __ __ __ __ __ __
 72
    65
 73
     2
 40
0.75
 49
0.5
 74
     0
 49
-0.25
 74
     0
  0
ENDTAB
  0
TABLE
  2
LAYER
  5
10
330
0
100
AcDbSymbolTable
 70
     5
  0
LAYER
  5
4
330
10
100
AcDbSymbolTableRecord
100
AcDbLayerTableRecord
  2
0
 70
     0
 62
     7
  6
CONTINUOUS
370
    -3
390
5
  0
LAYER
  5
5C
330
10
100
AcDbSymbolTableRecord
100
AcDbLayerTableRecord
  2
DASHED
 70
     0
 62
     7
  6
DASHED
370
    -3
390
5
  0
LAYER
  5
66
330
10
100
AcDbSymbolTableRecord
100
AcDbLayerTableRecord
  2
DIMENSION
 70
     0
 62
     7
  6
CONTINUOUS
370
    -3
390
5
  0
LAYER
  5
4B
330
10
100
AcDbSymbolTableRecord
100
AcDbLayerTableRecord
  2
DEFPOINTS
 70
     0
 62
     7
  6
CONTINUOUS
290
     0
370
    -3
390
5
  0
LAYER
  5
3B
330
10
100
AcDbSymbolTableRecord
100
AcDbLayerTableRecord
  2
thread
 70
     0
 62
     7
  6
CONTINUOUS
370
    13
390
5
  0
ENDTAB
  0
TABLE
  2
STYLE
  5
11
330
0
100
AcDbSymbolTable
 70
     2
  0
STYLE
  5
12
330
11
100
AcDbSymbolTableRecord
100
AcDbTextStyleTableRecord
  2
STANDARD
 70
     0
 40
0.0
 41
1.0
 50
0.0
 71
     0
 42
5.0
  3
txt
  4

  0
STYLE
  5
25
330
11
100
AcDbSymbolTableRecord
100
AcDbTextStyleTableRecord
  2
STYLE1
 70
     0
 40
0.0
 41
1.0
 50
0.0
 71
     0
 42
10.0
  3
arial.ttf
  4

1001
ACAD
1000
Arial
1071
       34
  0
ENDTAB
  0
TABLE
  2
VIEW
  5
17
330
0
100
AcDbSymbolTable
 70
     0
  0
ENDTAB
  0
TABLE
  2
UCS
  5
18
330
0
100
AcDbSymbolTable
 70
     0
  0
ENDTAB
  0
TABLE
  2
APPID
  5
1B
330
0
100
AcDbSymbolTable
 70
     1
  0
APPID
  5
1C
330
1B
100
AcDbSymbolTableRecord
100
AcDbRegAppTableRecord
  2
ACAD
 70
     0
  0
ENDTAB
  0
TABLE
  2
DIMSTYLE
  5
1D
330
0
100
AcDbSymbolTable
 70
     3
100
AcDbDimStyleTable
 71
     3
340
1E
340
1F
340
20
  0
DIMSTYLE
105
1E
102
{ACAD_REACTORS
330
F4
330
1AF
330
41
102
}
330
1D
100
AcDbSymbolTableRecord
100
AcDbDimStyleTableRecord
  2
STANDARD
 70
     0
 40
1.5
 41
15.0
 42
10.0
 43
3.75
 44
10.0
140
17.0
141
2.5
147
10.0
340
12
  0
DIMSTYLE
105
1F
330
1D
100
AcDbSymbolTableRecord
100
AcDbDimStyleTableRecord
  2
ISO-25
 70
     0
 41
2.5
 42
0.625
 43
3.75
 44
1.25
 74
     0
 77
     1
 78
     8
140
2.5
141
2.5
143
0.0394
145
1.0
147
0.625
172
     1
340
12
  0
DIMSTYLE
105
20
330
1D
100
AcDbSymbolTableRecord
100
AcDbDimStyleTableRecord
  2
luke
 70
     0
 41
30.0
 42
2.0
 43
3.75
 44
5.0
 73
     0
 74
     0
 77
     1
 78
     8
140
15.0
141
2.5
143
0.03937007874016
147
10.0
171
     3
271
     1
272
     1
274
     3
283
     0
284
     8
289
     0
340
12
  0
ENDTAB
  0
TABLE
  2
BLOCK_RECORD
  5
1
330
0
100
AcDbSymbolTable
 70
     1
  0
BLOCK_RECORD
  5
2
330
1
100
AcDbSymbolTableRecord
100
AcDbBlockTableRecord
  2
*MODEL_SPACE
340
A
  0
BLOCK_RECORD
  5
C
330
1
100
AcDbSymbolTableRecord
100
AcDbBlockTableRecord
  2
*Paper_Space
340
F
  0
BLOCK_RECORD
  5
42
330
1
100
AcDbSymbolTableRecord
100
AcDbBlockTableRecord
  2
*D0
340
0
  0
ENDTAB
  0
ENDSEC
  0
SECTION
  2
BLOCKS
  0
BLOCK
  5
3
330
2
100
AcDbEntity
  8
0
100
AcDbBlockBegin
  2
*MODEL_SPACE
 70
     0
 10
0.0
 20
0.0
 30
0.0
  3
*MODEL_SPACE
  1

  0
ENDBLK
  5
9
330
2
100
AcDbEntity
  8
0
100
AcDbBlockEnd
  0
BLOCK
  5
D
330
C
100
AcDbEntity
 67
     1
  8
0
100
AcDbBlockBegin
  2
*Paper_Space
 70
     0
 10
0.0
 20
0.0
 30
0.0
  3
*Paper_Space
  1

  0
ENDBLK
  5
E
330
C
100
AcDbEntity
 67
     1
  8
0
100
AcDbBlockEnd
  0
BLOCK
  5
4E
330
42
100
AcDbEntity
  8
0
100
AcDbBlockBegin
  2
*D0
 70
     1
 10
0.0
 20
0.0
 30
0.0
  3
*D0
  1

  0
LINE
  5
43
330
42
100
AcDbEntity
  8
0
 62
     0
370
    -2
100
AcDbLine
 10
1724.568695490444
 20
650.3281490405319
 30
0.0
 11
1008.827916415895
 21
650.328149040532
 31
0.0
  0
LINE
  5
44
330
42
100
AcDbEntity
  8
0
 62
     0
370
    -2
100
AcDbLine
 10
1722.506413889706
 20
-135.8530617362506
 30
0.0
 11
1008.827916415895
 21
-135.8530617362504
 31
0.0
  0
LINE
  5
45
330
42
100
AcDbEntity
  8
0
 62
     0
370
    -2
100
AcDbLine
 10
1023.827916415895
 20
627.828149040532
 30
0.0
 11
1023.827916415895
 21
367.2720620171801
 31
0.0
  0
LINE
  5
46
330
42
100
AcDbEntity
  8
0
 62
     0
370
    -2
100
AcDbLine
 10
1023.827916415895
 20
-113.3530617362504
 30
0.0
 11
1023.827916415895
 21
141.7720620171802
 31
0.0
  0
SOLID
  5
47
330
42
100
AcDbEntity
  8
0
 62
     0
100
AcDbTrace
 10
1020.077916415895
 20
627.828149040532
 30
0.0
 11
1027.577916415896
 21
627.828149040532
 31
0.0
 12
1023.827916415895
 22
650.328149040532
 32
0.0
 13
1023.827916415895
 23
650.328149040532
 33
0.0
  0
SOLID
  5
48
330
42
100
AcDbEntity
  8
0
 62
     0
100
AcDbTrace
 10
1020.077916415895
 20
-113.3530617362504
 30
0.0
 11
1027.577916415895
 21
-113.3530617362504
 31
0.0
 12
1023.827916415895
 22
-135.8530617362504
 32
0.0
 13
1023.827916415895
 23
-135.8530617362504
 33
0.0
  0
MTEXT
  5
49
330
42
100
AcDbEntity
  8
0
 62
     0
100
AcDbMText
 10
1023.827916415895
 20
352.2720620171803
 30
0.0
 40
25.5
 41
0.0
 71
     2
 72
     1
  1
\A1;TWICE BUNDLE DIA. \PPLUS MIN. 200mm \PFOR INTERNAL \PBULKHEAD \PCLEARANCE
 73
     1
 44
1.0
  0
POINT
  5
4A
330
42
100
AcDbEntity
  8
DEFPOINTS
 62
     0
100
AcDbPoint
 10
1739.568695490445
 20
650.3281490405319
 30
0.0
  0
POINT
  5
4C
330
42
100
AcDbEntity
  8
DEFPOINTS
 62
     0
100
AcDbPoint
 10
1737.506413889706
 20
-135.8530617362506
 30
0.0
  0
POINT
  5
4D
330
42
100
AcDbEntity
  8
DEFPOINTS
 62
     0
100
AcDbPoint
 10
1023.827916415895
 20
-135.8530617362504
 30
0.0
  0
ENDBLK
  5
4F
330
42
100
AcDbEntity
  8
0
100
AcDbBlockEnd
  0
ENDSEC
  0
SECTION
  2
ENTITIES
  0
LEADER
  5
27
330
2
100
AcDbEntity
  8
0
100
AcDbLeader
  3
STANDARD
 76
     2
 10
1761.330072568151
 20
833.3366529931154
 30
0.0
 10
2087.865238757498
 20
833.3366529931154
 30
0.0
1001
ACAD
1000
DSTYLE
1002
{
1070
   147
1040
10.0
1070
    77
1070
     0
1002
}
  0
LINE
  5
28
330
2
100
AcDbEntity
  8
0
100
AcDbLine
 10
1903.541625321976
 20
-395.9817222417187
 30
0.0
 11
1970.01205581248
 21
-382.0386035189028
 31
0.0
  0
LINE
  5
29
330
2
100
AcDbEntity
  8
0
100
AcDbLine
 10
1850.862497644714
 20
-227.9744104907022
 30
0.0
 11
1953.20296555255
 21
-227.9744104907022
 31
0.0
  0
LINE
  5
2A
330
2
100
AcDbEntity
  8
0
100
AcDbLine
 10
1850.862497644713
 20
-220.6882514279914
 30
0.0
 11
1953.20296555255
 21
-220.6882514279914
 31
0.0
  0
LINE
  5
2B
330
2
100
AcDbEntity
  8
0
100
AcDbLine
 10
1953.20296555255
 20
-99.58217064570318
 30
0.0
 11
1879.972949193525
 21
-99.58217064570318
 31
0.0
  0
LINE
  5
2C
330
2
100
AcDbEntity
  8
0
100
AcDbLine
 10
2169.892445558145
 20
84.35503259716519
 30
0.0
 11
1909.811509401974
 21
84.35503259716531
 31
0.0
  0
LINE
  5
2D
330
2
100
AcDbEntity
  8
0
100
AcDbLine
 10
2163.420392962234
 20
46.35503259716506
 30
0.0
 11
1909.811509401974
 21
46.35503259716506
 31
0.0
  0
LINE
  5
2E
330
2
100
AcDbEntity
  8
0
100
AcDbLine
 10
1890.311509401973
 20
46.35503259716506
 30
0.0
 11
1926.528085602901
 21
46.35503259716506
 31
0.0
  0
LINE
  5
2F
330
2
100
AcDbEntity
  8
0
100
AcDbLine
 10
1893.972949193525
 20
36.35503259716506
 30
0.0
 11
1926.528085602901
 21
36.35503259716506
 31
0.0
  0
LINE
  5
30
330
2
100
AcDbEntity
  8
0
100
AcDbLine
 10
1886.972949193524
 20
41.35503259716506
 30
0.0
 11
1926.528085602901
 21
41.35503259716506
 31
0.0
  0
LINE
  5
31
330
2
100
AcDbEntity
  8
0
100
AcDbLine
 10
2138.960881812488
 20
650.3281490405319
 30
0.0
 11
1849.143011137629
 21
650.3281490405316
 31
0.0
  0
CIRCLE
  5
32
330
2
100
AcDbEntity
  8
0
100
AcDbCircle
 10
1923.452665092375
 20
401.9838963896643
 30
0.0
 40
5.289950575233655
  0
LINE
  5
33
330
2
100
AcDbEntity
  8
0
100
AcDbLine
 10
1922.696957867341
 20
390.076885247302
 30
0.0
 11
1931.765444567742
 21
390.076885247302
 31
0.0
  0
LINE
  5
34
330
2
100
AcDbEntity
  8
0
100
AcDbLine
 10
1922.696957867341
 20
379.4969840968349
 30
0.0
 11
1931.765444567742
 21
379.4969840968349
 31
0.0
  0
LINE
  5
35
330
2
100
AcDbEntity
  8
0
100
AcDbLine
 10
1922.696957867341
 20
424.4708086824934
 30
0.0
 11
1931.765444567742
 21
424.4708086824934
 31
0.0
  0
LINE
  5
36
330
2
100
AcDbEntity
  8
0
100
AcDbLine
 10
1922.696957867341
 20
413.8909075320263
 30
0.0
 11
1931.765444567742
 21
413.8909075320263
 31
0.0
  0
LINE
  5
37
330
2
100
AcDbEntity
  8
0
100
AcDbLine
 10
2021.271121541371
 20
440.1563559500225
 30
0.0
 11
1896.849366214106
 21
440.1563559500225
 31
0.0
  0
LINE
  5
38
330
2
100
AcDbEntity
  8
0
100
AcDbLine
 10
1849.143011137629
 20
436.3778198248557
 30
0.0
 11
2021.271121541371
 21
436.3778198248557
 31
0.0
  0
LINE
  5
39
330
2
100
AcDbEntity
  8
0
100
AcDbLine
 10
2021.271121541371
 20
367.5899729544728
 30
0.0
 11
1849.143011137629
 21
367.5899729544728
 31
0.0
  0
SPLINE
  5
3A
330
2
100
AcDbEntity
  8
thread
100
AcDbSpline
210
0.0
220
0.0
230
1.0
 70
     8
 71
     3
 72
     9
 73
     5
 74
     0
 42
0.0000000001
 43
0.0000000001
 40
0.0
 40
0.0
 40
0.0
 40
0.0
 40
33.63406011768427
 40
48.27340821787378
 40
48.27340821787378
 40
48.27340821787378
 40
48.27340821787378
 10
1902.252404482366
 20
447.4958590764604
 30
0.0
 10
1908.856178030857
 20
459.2824979441202
 30
0.0
 10
1918.334268251583
 20
476.19931463483
 30
0.0
 10
1931.582447530834
 20
469.8102286961884
 30
0.0
 10
1942.746244370526
 20
458.338626532754
 30
0.0
  0
SPLINE
  5
3C
330
2
100
AcDbEntity
  8
thread
100
AcDbSpline
210
0.0
220
0.0
230
1.0
 70
     8
 71
     3
 72
     9
 73
     5
 74
     0
 42
0.0000000001
 43
0.0000000001
 40
0.0
 40
0.0
 40
0.0
 40
0.0
 40
29.07121157243826
 40
42.81782206453752
 40
42.81782206453752
 40
42.81782206453752
 40
42.81782206453752
 10
1906.342185103092
 20
444.965578757924
 30
0.0
 10
1911.918683516185
 20
455.5246347308057
 30
0.0
 10
1920.132084467846
 20
471.0766449622947
 30
0.0
 10
1930.12915537828
 20
465.1307383907183
 30
0.0
 10
1941.659292991633
 20
453.7815025912441
 30
0.0
  0
LWPOLYLINE
  5
3D
330
2
100
AcDbEntity
  8
thread
100
AcDbPolyline
 90
        5
 70
     0
 43
0.0
 10
1892.633958866563
 20
444.9655787579245
 10
2017.673751872002
 20
444.9655787579245
 10
2017.673751872002
 20
440.1563559500227
 10
1892.633958866563
 20
440.1563559500227
 10
1892.633958866563
 20
444.9655787579245
  0
LINE
  5
3E
330
2
100
AcDbEntity
  8
0
100
AcDbLine
 10
2138.960881812488
 20
725.8988715438698
 30
0.0
 11
1775.291775141375
 21
725.8988715438698
 31
0.0
  0
CIRCLE
  5
3F
330
2
100
AcDbEntity
  8
0
 62
     7
100
AcDbCircle
 10
1955.153855369282
 20
465.7343157827913
 30
0.0
 40
150.8769474779142
  0
CIRCLE
  5
40
330
2
100
AcDbEntity
  8
0
 62
     7
100
AcDbCircle
 10
1955.153855369282
 20
465.7343157827913
 30
0.0
 40
91.44057422903891
  0
DIMENSION
  5
41
330
2
100
AcDbEntity
  8
0
100
AcDbDimension
  2
*D0
 10
1023.827916415895
 20
-135.8530617362504
 30
0.0
 11
1023.827916415895
 21
254.5220620171803
 31
0.0
 70
   128
  1
TWICE BUNDLE DIA. \PPLUS MIN. 200mm \PFOR INTERNAL \PBULKHEAD \PCLEARANCE
 71
     2
 42
786.1812107767826
  3
STANDARD
100
AcDbAlignedDimension
 13
1739.568695490445
 23
650.3281490405319
 33
0.0
 14
1737.506413889706
 24
-135.8530617362506
 34
0.0
 50
90.0
100
AcDbRotatedDimension
  0
MTEXT
  5
50
330
2
100
AcDbEntity
  8
0
100
AcDbMText
 10
1256.946179491959
 20
612.8981076293894
 30
0.0
 40
28.0
 41
0.0
 71
     1
 72
     1
  1
MIRAGE STANDARD \P90X40 DEXION \PANGLE BRACKET \PFIXED TO TIMBER \PSTRUCTURE
 73
     1
 44
1.0
  0
LINE
  5
51
330
2
100
AcDbEntity
  8
0
100
AcDbLine
 10
1731.954091359878
 20
-216.4237842395886
 30
0.0
 11
1731.954091359878
 21
725.8988715438698
 31
0.0
  0
LINE
  5
52
330
2
100
AcDbEntity
  8
0
100
AcDbLine
 10
1737.506413889706
 20
-211.4237842395886
 30
0.0
 11
1737.506413889706
 21
661.2925629986747
 31
0.0
  0
ARC
  5
53
330
2
100
AcDbEntity
  8
0
100
AcDbCircle
 10
1831.914354857098
 20
551.9245539302633
 30
0.0
 40
5.289950575233655
100
AcDbArc
 50
0.0
 51
180.0
  0
ARC
  5
54
330
2
100
AcDbEntity
  8
0
100
AcDbCircle
 10
1797.520431421906
 20
551.9245539302633
 30
0.0
 40
5.289950575233655
100
AcDbArc
 50
0.0
 51
180.0
  0
LINE
  5
55
330
2
100
AcDbEntity
  8
0
100
AcDbLine
 10
1780.291775141375
 20
367.5899729544728
 30
0.0
 11
1780.291775141375
 21
722.2255238053137
 31
0.0
  0
LINE
  5
56
330
2
100
AcDbEntity
  8
0
100
AcDbLine
 10
1849.143011137629
 20
650.3281490405314
 30
0.0
 11
1849.143011137629
 21
367.5899729544728
 31
0.0
  0
LINE
  5
57
330
2
100
AcDbEntity
  8
0
100
AcDbLine
 10
1775.291775141375
 20
722.2255238053137
 30
0.0
 11
1775.291775141375
 21
20.01022538116694
 31
0.0
  0
HATCH
  5
58
330
2
100
AcDbEntity
  8
0
100
AcDbHatch
 10
0.0
 20
0.0
 30
0.0
210
0.0
220
0.0
230
1.0
  2
ANSI31
 70
     0
 71
     0
 91
        1
 92
        7
 72
     0
 73
     1
 93
        6
 10
1737.506413889706
 20
661.2925629986747
 10
1737.506413889706
 20
725.8988715438698
 10
1731.954091359878
 20
725.8988715438698
 10
1731.954091359878
 20
116.1287129420955
 10
1737.506413889706
 20
121.7965171298457
 10
1737.506413889706
 20
197.3672396331834
 97
        0
 75
     0
 76
     1
 52
0.0
 41
75.57072250333795
 77
     0
 78
     1
 53
45.0
 43
2145.594019556356
 44
-674.4956265024676
 45
-6.679571292659635
 46
6.679571292659636
 79
     0
 47
0.1775957219635982
 98
        1
 10
1734.808095269883
 20
623.7994154482079
  0
MTEXT
  5
59
330
2
100
AcDbEntity
  8
0
100
AcDbMText
 10
1228.93337537278
 20
71.41944753958615
 30
0.0
 40
28.0
 41
561.3805
 71
     1
 72
     5
  1
{\Ftxt.shx;SUPPORT FOR \PMULLION TOP \PFIXING \P(BY OTHERS)}
  7
STYLE1
 73
     1
 44
1.0
  0
LINE
  5
5A
330
2
100
AcDbEntity
  8
0
 62
     7
100
AcDbLine
 10
1850.862497644714
 20
-227.9744104907022
 30
0.0
 11
1850.862497644713
 21
-407.5590092847173
 31
0.0
  0
LINE
  5
5B
330
2
100
AcDbEntity
  8
DASHED
 62
     7
 48
60.0
100
AcDbLine
 10
1865.417723419119
 20
-153.0499631023267
 30
0.0
 11
1865.417723419119
 21
-404.5058435460222
 31
0.0
  0
LINE
  5
5E
330
2
100
AcDbEntity
  8
0
 62
     7
100
AcDbLine
 10
1879.972949193525
 20
-227.9744104907022
 30
0.0
 11
1879.972949193525
 21
-401.4526778073271
 31
0.0
  0
LINE
  5
5F
330
2
100
AcDbEntity
  8
0
100
AcDbLine
 10
1916.20296555255
 20
-227.9744104907022
 30
0.0
 11
1916.20296555255
 21
-393.3258259473494
 31
0.0
  0
LINE
  5
60
330
2
100
AcDbEntity
  8
0
100
AcDbLine
 10
1891.330888911816
 20
-399.0701883188417
 30
0.0
 11
1824.0351976253
 21
-413.1864172377429
 31
0.0
  0
LINE
  5
61
330
2
100
AcDbEntity
  8
0
370
    40
100
AcDbLine
 10
1905.393486145283
 20
-413.69774280731
 30
0.0
 11
1890.289533833793
 21
-380.1074401210569
 31
0.0
  0
LINE
  5
62
330
2
100
AcDbEntity
  8
0
370
    40
100
AcDbLine
 10
1903.541625321976
 20
-395.9817222417187
 30
0.0
 11
1905.393486145283
 21
-413.69774280731
 31
0.0
  0
LINE
  5
63
330
2
100
AcDbEntity
  8
0
370
    40
100
AcDbLine
 10
1890.289533833793
 20
-380.1074401210569
 30
0.0
 11
1891.330888911816
 21
-399.0701883188417
 31
0.0
  0
LWPOLYLINE
  5
64
330
2
100
AcDbEntity
  8
0
100
AcDbPolyline
 90
        4
 70
     1
 43
0.0
 10
1387.207137590325
 20
-178.2302429866558
 10
1688.132081342686
 20
-178.2302429866558
 10
1688.132081342686
 20
-265.7815512992801
 10
1387.207137590325
 20
-265.7815512992801
  0
MTEXT
  5
65
330
2
100
AcDbEntity
  8
DIMENSION
 62
     7
100
AcDbMText
 10
1428.26632130081
 20
-202.4562147450067
 30
0.0
 40
35.0
 41
265.56
 71
     1
 72
     5
  1
{\fArial|b1|i0|c0|p34;OUTSIDE}
 73
     1
 44
1.0
  0
LEADER
  5
67
330
2
100
AcDbEntity
  8
0
100
AcDbLeader
  3
STANDARD
 76
     3
 10
1813.616183779158
 20
-137.9598724190182
 30
0.0
 10
1698.683852088168
 20
-13.232482718342
 30
0.0
 10
1526.229219175045
 20
-13.23248271834196
 30
0.0
1001
ACAD
1000
DSTYLE
1002
{
1070
   147
1040
10.0
1070
    77
1070
     0
1002
}
  0
LEADER
  5
68
330
2
100
AcDbEntity
  8
0
100
AcDbLeader
  3
STANDARD
 76
     2
 10
1743.984071943988
 20
228.06447611168
 30
0.0
 10
1535.156750356778
 20
228.0644761116801
 30
0.0
1001
ACAD
1000
DSTYLE
1002
{
1070
   147
1040
10.0
1070
    77
1070
     0
1002
}
  0
MTEXT
  5
69
330
2
100
AcDbEntity
  8
0
100
AcDbMText
 10
1249.253787684045
 20
297.5487008111231
 30
0.0
 40
28.0
 41
0.0
 71
     1
 72
     1
  1
STRUCTURAL \PFRAMEWORK \P(BY OTHERS)
 73
     1
 44
1.0
  0
LINE
  5
6A
330
2
100
AcDbEntity
  8
DASHED
 62
     7
 48
60.0
100
AcDbLine
 10
1865.417723419118
 20
275.8099484831946
 30
0.0
 11
1865.417723419118
 21
-125.3006290322919
 31
0.0
  0
LINE
  5
6B
330
2
100
AcDbEntity
  8
0
100
AcDbLine
 10
1775.291775141375
 20
-211.4237842395886
 30
0.0
 11
1775.291775141375
 21
367.5899729544729
 31
0.0
  0
LINE
  5
6C
330
2
100
AcDbEntity
  8
0
 62
     7
100
AcDbLine
 10
1849.972949193524
 20
278.4038548033072
 30
0.0
 11
1850.862497644713
 21
-139.3495431170158
 31
0.0
  0
LINE
  5
6D
330
2
100
AcDbEntity
  8
0
 62
     7
100
AcDbLine
 10
1879.972949193524
 20
278.4038548033072
 30
0.0
 11
1879.972949193525
 21
-135.8530617362507
 31
0.0
  0
ARC
  5
6E
330
2
100
AcDbEntity
  8
0
100
AcDbCircle
 10
1831.914354857098
 20
142.3768139042199
 30
0.0
 40
5.289950575233655
100
AcDbArc
 50
180.0
 51
0.0
  0
ARC
  5
6F
330
2
100
AcDbEntity
  8
0
100
AcDbCircle
 10
1797.520431421906
 20
142.3768139042199
 30
0.0
 40
5.289950575233655
100
AcDbArc
 50
180.0
 51
0.0
  0
LINE
  5
70
330
2
100
AcDbEntity
  8
0
100
AcDbLine
 10
1780.291775141375
 20
20.01022538116694
 30
0.0
 11
1780.291775141375
 21
374.6457762320078
 31
0.0
  0
LINE
  5
71
330
2
100
AcDbEntity
  8
0
100
AcDbLine
 10
1850.862497644713
 20
-211.4237842395886
 30
0.0
 11
1737.506413889706
 21
-211.4237842395886
 31
0.0
  0
LINE
  5
72
330
2
100
AcDbEntity
  8
0
100
AcDbLine
 10
1731.954091359878
 20
-216.4237842395886
 30
0.0
 11
1850.862497644713
 21
-216.4237842395886
 31
0.0
  0
ARC
  5
73
330
2
100
AcDbEntity
  8
0
100
AcDbCircle
 10
1756.39909451554
 20
-177.4169591130866
 30
0.0
 40
26.44975287616828
100
AcDbArc
 50
44.415308597193
 51
135.584691402807
  0
ARC
  5
74
330
2
100
AcDbEntity
  8
0
100
AcDbCircle
 10
1756.39909451554
 20
-197.8210541889879
 30
0.0
 40
26.44975287616828
100
AcDbArc
 50
44.415308597193
 51
135.584691402807
  0
ARC
  5
75
330
2
100
AcDbEntity
  8
0
100
AcDbCircle
 10
1756.39909451554
 20
-191.0196891636874
 30
0.0
 40
26.44975287616828
100
AcDbArc
 50
44.415308597193
 51
135.584691402807
  0
ARC
  5
76
330
2
100
AcDbEntity
  8
0
100
AcDbCircle
 10
1756.39909451554
 20
-184.2183241383869
 30
0.0
 40
26.44975287616828
100
AcDbArc
 50
44.415308597193
 51
135.584691402807
  0
ARC
  5
77
330
2
100
AcDbEntity
  8
0
100
AcDbCircle
 10
1756.39909451554
 20
-163.8142290624856
 30
0.0
 40
26.44975287616828
100
AcDbArc
 50
44.415308597193
 51
135.584691402807
  0
ARC
  5
78
330
2
100
AcDbEntity
  8
0
100
AcDbCircle
 10
1756.39909451554
 20
-170.6155940877861
 30
0.0
 40
26.44975287616828
100
AcDbArc
 50
44.415308597193
 51
135.584691402807
  0
LINE
  5
79
330
2
100
AcDbEntity
  8
0
100
AcDbLine
 10
1775.291775141375
 20
-135.8530617362506
 30
0.0
 11
1737.506413889706
 21
-135.8530617362506
 31
0.0
  0
ARC
  5
7A
330
2
100
AcDbEntity
  8
0
100
AcDbCircle
 10
1756.39909451554
 20
-225.0265142901895
 30
0.0
 40
26.44975287616828
100
AcDbArc
 50
44.415308597193
 51
135.584691402807
  0
LINE
  5
7B
330
2
100
AcDbEntity
  8
0
100
AcDbLine
 10
1737.506413889706
 20
-211.4237842395886
 30
0.0
 11
1775.291775141375
 21
-211.4237842395886
 31
0.0
  0
ARC
  5
7C
330
2
100
AcDbEntity
  8
0
100
AcDbCircle
 10
1756.39909451554
 20
-231.8278793154898
 30
0.0
 40
26.44975287616828
100
AcDbArc
 50
50.48234720282692
 51
129.517652797173
  0
ARC
  5
7D
330
2
100
AcDbEntity
  8
0
100
AcDbCircle
 10
1756.39909451554
 20
-211.4237842395886
 30
0.0
 40
26.44975287616828
100
AcDbArc
 50
44.415308597193
 51
135.584691402807
  0
ARC
  5
7E
330
2
100
AcDbEntity
  8
0
100
AcDbCircle
 10
1756.39909451554
 20
-218.225149264889
 30
0.0
 40
26.44975287616828
100
AcDbArc
 50
44.415308597193
 51
135.584691402807
  0
ARC
  5
7F
330
2
100
AcDbEntity
  8
0
100
AcDbCircle
 10
1756.39909451554
 20
-204.6224192142881
 30
0.0
 40
26.44975287616828
100
AcDbArc
 50
44.415308597193
 51
135.584691402807
  0
LINE
  5
80
330
2
100
AcDbEntity
  8
0
100
AcDbLine
 10
1737.506413889706
 20
-211.4237842395886
 30
0.0
 11
1737.506413889706
 21
-135.8530617362506
 31
0.0
  0
ARC
  5
81
330
2
100
AcDbEntity
  8
0
100
AcDbCircle
 10
1756.39909451554
 20
-157.0128640371852
 30
0.0
 40
26.44975287616828
100
AcDbArc
 50
126.8698976458444
 51
135.584691402807
  0
LINE
  5
82
330
2
100
AcDbEntity
  8
0
100
AcDbLine
 10
1737.506413889706
 20
121.7965171298454
 30
0.0
 11
1731.954091359878
 21
116.1287129420952
 31
0.0
  0
LINE
  5
83
330
2
100
AcDbEntity
  8
0
100
AcDbLine
 10
1737.506413889706
 20
121.7965171298454
 30
0.0
 11
1737.506413889707
 21
138.0442224680632
 31
0.0
  0
LINE
  5
84
330
2
100
AcDbEntity
  8
0
100
AcDbLine
 10
1850.862497644713
 20
-135.8530617362507
 30
0.0
 11
1813.077136393044
 21
-135.8530617362507
 31
0.0
  0
ARC
  5
85
330
2
100
AcDbEntity
  8
0
100
AcDbCircle
 10
1831.969817018878
 20
-163.8142290624857
 30
0.0
 40
26.44975287616828
100
AcDbArc
 50
44.415308597193
 51
135.584691402807
  0
ARC
  5
86
330
2
100
AcDbEntity
  8
0
100
AcDbCircle
 10
1831.969817018878
 20
-231.8278793154898
 30
0.0
 40
26.44975287616828
100
AcDbArc
 50
50.48234720282692
 51
129.517652797173
  0
ARC
  5
87
330
2
100
AcDbEntity
  8
0
100
AcDbCircle
 10
1831.969817018878
 20
-225.0265142901896
 30
0.0
 40
26.44975287616828
100
AcDbArc
 50
44.415308597193
 51
135.584691402807
  0
ARC
  5
88
330
2
100
AcDbEntity
  8
0
100
AcDbCircle
 10
1831.969817018878
 20
-218.2251492648891
 30
0.0
 40
26.44975287616828
100
AcDbArc
 50
44.415308597193
 51
135.584691402807
  0
ARC
  5
89
330
2
100
AcDbEntity
  8
0
100
AcDbCircle
 10
1831.969817018878
 20
-211.4237842395886
 30
0.0
 40
26.44975287616828
100
AcDbArc
 50
44.415308597193
 51
135.584691402807
  0
ARC
  5
8A
330
2
100
AcDbEntity
  8
0
100
AcDbCircle
 10
1831.969817018878
 20
-204.6224192142882
 30
0.0
 40
26.44975287616828
100
AcDbArc
 50
44.415308597193
 51
135.584691402807
  0
LINE
  5
8B
330
2
100
AcDbEntity
  8
0
100
AcDbLine
 10
1813.077136393044
 20
-211.4237842395886
 30
0.0
 11
1850.862497644713
 21
-211.4237842395886
 31
0.0
  0
ARC
  5
8C
330
2
100
AcDbEntity
  8
0
100
AcDbCircle
 10
1831.969817018878
 20
-184.218324138387
 30
0.0
 40
26.44975287616828
100
AcDbArc
 50
44.415308597193
 51
135.584691402807
  0
ARC
  5
8D
330
2
100
AcDbEntity
  8
0
100
AcDbCircle
 10
1831.969817018878
 20
-191.0196891636875
 30
0.0
 40
26.44975287616828
100
AcDbArc
 50
44.415308597193
 51
135.584691402807
  0
ARC
  5
8E
330
2
100
AcDbEntity
  8
0
100
AcDbCircle
 10
1831.969817018878
 20
-197.821054188988
 30
0.0
 40
26.44975287616828
100
AcDbArc
 50
44.415308597193
 51
135.584691402807
  0
ARC
  5
8F
330
2
100
AcDbEntity
  8
0
100
AcDbCircle
 10
1831.969817018878
 20
-177.4169591130867
 30
0.0
 40
26.44975287616828
100
AcDbArc
 50
44.415308597193
 51
135.584691402807
  0
ARC
  5
90
330
2
100
AcDbEntity
  8
0
100
AcDbCircle
 10
1831.969817018878
 20
-170.6155940877862
 30
0.0
 40
26.44975287616828
100
AcDbArc
 50
44.415308597193
 51
135.584691402807
  0
LINE
  5
91
330
2
100
AcDbEntity
  8
0
100
AcDbLine
 10
1813.077136393044
 20
-211.4237842395886
 30
0.0
 11
1813.077136393044
 21
-135.8530617362507
 31
0.0
  0
ARC
  5
92
330
2
100
AcDbEntity
  8
0
100
AcDbCircle
 10
1794.18445576721
 20
-191.0196891636875
 30
0.0
 40
26.44975287616828
100
AcDbArc
 50
44.415308597193
 51
135.584691402807
  0
LINE
  5
93
330
2
100
AcDbEntity
  8
0
100
AcDbLine
 10
1813.077136393044
 20
-211.4237842395886
 30
0.0
 11
1813.077136393044
 21
-135.8530617362507
 31
0.0
  0
LINE
  5
94
330
2
100
AcDbEntity
  8
0
100
AcDbLine
 10
1775.291775141375
 20
-211.4237842395886
 30
0.0
 11
1775.291775141375
 21
-135.8530617362507
 31
0.0
  0
LINE
  5
95
330
2
100
AcDbEntity
  8
0
100
AcDbLine
 10
1775.291775141375
 20
-211.4237842395886
 30
0.0
 11
1775.291775141375
 21
-135.8530617362506
 31
0.0
  0
ARC
  5
96
330
2
100
AcDbEntity
  8
0
100
AcDbCircle
 10
1794.18445576721
 20
-231.8278793154898
 30
0.0
 40
26.44975287616828
100
AcDbArc
 50
50.48234720282692
 51
129.517652797173
  0
ARC
  5
97
330
2
100
AcDbEntity
  8
0
100
AcDbCircle
 10
1794.18445576721
 20
-225.0265142901896
 30
0.0
 40
26.44975287616828
100
AcDbArc
 50
44.415308597193
 51
135.584691402807
  0
ARC
  5
98
330
2
100
AcDbEntity
  8
0
100
AcDbCircle
 10
1794.18445576721
 20
-218.2251492648891
 30
0.0
 40
26.44975287616828
100
AcDbArc
 50
44.415308597193
 51
135.584691402807
  0
ARC
  5
99
330
2
100
AcDbEntity
  8
0
100
AcDbCircle
 10
1794.18445576721
 20
-211.4237842395886
 30
0.0
 40
26.44975287616828
100
AcDbArc
 50
44.415308597193
 51
135.584691402807
  0
ARC
  5
9A
330
2
100
AcDbEntity
  8
0
100
AcDbCircle
 10
1794.18445576721
 20
-204.6224192142882
 30
0.0
 40
26.44975287616828
100
AcDbArc
 50
44.415308597193
 51
135.584691402807
  0
LINE
  5
9B
330
2
100
AcDbEntity
  8
0
100
AcDbLine
 10
1775.291775141375
 20
-211.4237842395886
 30
0.0
 11
1813.077136393044
 21
-211.4237842395886
 31
0.0
  0
ARC
  5
9C
330
2
100
AcDbEntity
  8
0
100
AcDbCircle
 10
1794.18445576721
 20
-197.821054188988
 30
0.0
 40
26.44975287616828
100
AcDbArc
 50
44.415308597193
 51
135.584691402807
  0
ARC
  5
9D
330
2
100
AcDbEntity
  8
0
100
AcDbCircle
 10
1794.18445576721
 20
-184.218324138387
 30
0.0
 40
26.44975287616828
100
AcDbArc
 50
44.415308597193
 51
135.584691402807
  0
ARC
  5
9E
330
2
100
AcDbEntity
  8
0
100
AcDbCircle
 10
1794.18445576721
 20
-177.4169591130867
 30
0.0
 40
26.44975287616828
100
AcDbArc
 50
44.415308597193
 51
135.584691402807
  0
LINE
  5
9F
330
2
100
AcDbEntity
  8
0
100
AcDbLine
 10
1813.077136393044
 20
-135.8530617362507
 30
0.0
 11
1775.291775141375
 21
-135.8530617362507
 31
0.0
  0
ARC
  5
A0
330
2
100
AcDbEntity
  8
0
100
AcDbCircle
 10
1794.18445576721
 20
-170.6155940877862
 30
0.0
 40
26.44975287616828
100
AcDbArc
 50
44.415308597193
 51
135.584691402807
  0
ARC
  5
A1
330
2
100
AcDbEntity
  8
0
100
AcDbCircle
 10
1794.18445576721
 20
-163.8142290624857
 30
0.0
 40
26.44975287616828
100
AcDbArc
 50
44.415308597193
 51
135.584691402807
  0
ARC
  5
A2
330
2
100
AcDbEntity
  8
0
100
AcDbCircle
 10
1794.18445576721
 20
-157.0128640371853
 30
0.0
 40
26.44975287616828
100
AcDbArc
 50
126.8698976458444
 51
135.584691402807
  0
ARC
  5
A3
330
2
100
AcDbEntity
  8
0
100
AcDbCircle
 10
1756.39909451554
 20
-157.0128640371852
 30
0.0
 40
26.44975287616828
100
AcDbArc
 50
44.415308597193
 51
53.1301023541555
  0
ARC
  5
A4
330
2
100
AcDbEntity
  8
0
100
AcDbCircle
 10
1831.969817018878
 20
-157.0128640371853
 30
0.0
 40
26.44975287616828
100
AcDbArc
 50
126.8698976458444
 51
135.584691402807
  0
ARC
  5
A5
330
2
100
AcDbEntity
  8
0
100
AcDbCircle
 10
1794.18445576721
 20
-157.0128640371853
 30
0.0
 40
26.44975287616828
100
AcDbArc
 50
44.415308597193
 51
53.1301023541555
  0
LINE
  5
A6
330
2
100
AcDbEntity
  8
0
 62
     7
100
AcDbLine
 10
1850.862497644713
 20
-135.8530617362507
 30
0.0
 11
1850.862497644713
 21
-220.6882514279913
 31
0.0
  0
LINE
  5
A7
330
2
100
AcDbEntity
  8
0
 62
     7
100
AcDbLine
 10
1879.972949193525
 20
-135.8530617362507
 30
0.0
 11
1879.972949193525
 21
-220.6882514279914
 31
0.0
  0
LINE
  5
A8
330
2
100
AcDbEntity
  8
0
100
AcDbLine
 10
1916.202965552551
 20
-109.5821706457031
 30
0.0
 11
1916.20296555255
 21
-220.6882514279913
 31
0.0
  0
LINE
  5
A9
330
2
100
AcDbEntity
  8
0
100
AcDbLine
 10
1850.862497644713
 20
-211.4237842395886
 30
0.0
 11
1850.862497644713
 21
-135.8530617362507
 31
0.0
  0
ARC
  5
AA
330
2
100
AcDbEntity
  8
0
100
AcDbCircle
 10
1831.969817018878
 20
-157.0128640371853
 30
0.0
 40
26.44975287616828
100
AcDbArc
 50
44.415308597193
 51
53.1301023541555
  0
ARC
  5
AB
330
2
100
AcDbEntity
  8
0
100
AcDbCircle
 10
1906.202965552551
 20
-109.5821706457031
 30
0.0
 40
10.0
100
AcDbArc
 50
0.0
 51
90.0
  0
LINE
  5
AC
330
2
100
AcDbEntity
  8
0
100
AcDbLine
 10
1846.354413729479
 20
20.01022538116694
 30
0.0
 11
1775.291775141375
 21
20.01022538116694
 31
0.0
  0
LINE
  5
AD
330
2
100
AcDbEntity
  8
0
100
AcDbLine
 10
1826.624404281864
 20
36.5778023995465
 30
0.0
 11
1826.624404281864
 21
45.64628909994735
 31
0.0
  0
LINE
  5
AE
330
2
100
AcDbEntity
  8
0
100
AcDbLine
 10
1837.204305432331
 20
36.5778023995465
 30
0.0
 11
1837.204305432331
 21
45.64628909994735
 31
0.0
  0
LINE
  5
AF
330
2
100
AcDbEntity
  8
0
100
AcDbLine
 10
1792.230480846673
 20
36.5778023995465
 30
0.0
 11
1792.230480846673
 21
45.64628909994735
 31
0.0
  0
LINE
  5
B0
330
2
100
AcDbEntity
  8
0
100
AcDbLine
 10
1802.81038199714
 20
36.5778023995465
 30
0.0
 11
1802.81038199714
 21
45.64628909994735
 31
0.0
  0
LINE
  5
B1
330
2
100
AcDbEntity
  8
0
100
AcDbLine
 10
1780.291775141375
 20
20.01022538116694
 30
0.0
 11
1780.291775141375
 21
88.79807225154991
 31
0.0
  0
ARC
  5
B2
330
2
100
AcDbEntity
  8
0
100
AcDbCircle
 10
1797.520431421906
 20
36.57780239954672
 30
0.0
 40
5.289950575233655
100
AcDbArc
 50
180.0
 51
0.0
  0
ARC
  5
B3
330
2
100
AcDbEntity
  8
0
100
AcDbCircle
 10
1831.914354857098
 20
36.57780239954672
 30
0.0
 40
5.289950575233655
100
AcDbArc
 50
180.0
 51
0.0
  0
ARC
  5
B4
330
2
100
AcDbEntity
  8
0
100
AcDbCircle
 10
1797.520431421906
 20
124.9955477284524
 30
0.0
 40
5.289950575233655
100
AcDbArc
 50
0.0
 51
180.0
  0
ARC
  5
B5
330
2
100
AcDbEntity
  8
0
100
AcDbCircle
 10
1797.520431421906
 20
89.47730815188334
 30
0.0
 40
5.289950575233655
100
AcDbArc
 50
180.0
 51
0.0
  0
ARC
  5
B6
330
2
100
AcDbEntity
  8
0
100
AcDbCircle
 10
1797.520431421906
 20
98.5457948522842
 30
0.0
 40
5.289950575233655
100
AcDbArc
 50
0.0
 51
180.0
  0
ARC
  5
B7
330
2
100
AcDbEntity
  8
0
100
AcDbCircle
 10
1797.520431421906
 20
45.6462890999478
 30
0.0
 40
5.289950575233655
100
AcDbArc
 50
0.0
 51
180.0
  0
ARC
  5
B8
330
2
100
AcDbEntity
  8
0
100
AcDbCircle
 10
1797.520431421906
 20
63.02755527571503
 30
0.0
 40
5.289950575233655
100
AcDbArc
 50
180.0
 51
0.0
  0
ARC
  5
B9
330
2
100
AcDbEntity
  8
0
100
AcDbCircle
 10
1797.520431421906
 20
72.09604197611588
 30
0.0
 40
5.289950575233655
100
AcDbArc
 50
0.0
 51
180.0
  0
ARC
  5
BA
330
2
100
AcDbEntity
  8
0
100
AcDbCircle
 10
1797.520431421906
 20
115.9270610280516
 30
0.0
 40
5.289950575233655
100
AcDbArc
 50
180.0
 51
0.0
  0
LINE
  5
BB
330
2
100
AcDbEntity
  8
0
100
AcDbLine
 10
1792.230480846673
 20
115.9270610280514
 30
0.0
 11
1792.230480846673
 21
124.9955477284522
 31
0.0
  0
LINE
  5
BC
330
2
100
AcDbEntity
  8
0
100
AcDbLine
 10
1792.230480846673
 20
89.47730815188311
 30
0.0
 11
1792.230480846673
 21
98.54579485228397
 31
0.0
  0
LINE
  5
BD
330
2
100
AcDbEntity
  8
0
100
AcDbLine
 10
1792.230480846673
 20
63.02755527571481
 30
0.0
 11
1792.230480846673
 21
72.09604197611588
 31
0.0
  0
CIRCLE
  5
BE
330
2
100
AcDbEntity
  8
0
100
AcDbCircle
 10
1814.717393139502
 20
124.2398405034189
 30
0.0
 40
5.289950575233655
  0
LINE
  5
BF
330
2
100
AcDbEntity
  8
0
100
AcDbLine
 10
1826.624404281864
 20
115.9270610280514
 30
0.0
 11
1826.624404281864
 21
124.9955477284522
 31
0.0
  0
LINE
  5
C0
330
2
100
AcDbEntity
  8
0
100
AcDbLine
 10
1837.204305432331
 20
115.9270610280514
 30
0.0
 11
1837.204305432331
 21
124.9955477284522
 31
0.0
  0
ARC
  5
C1
330
2
100
AcDbEntity
  8
0
100
AcDbCircle
 10
1831.914354857098
 20
124.9955477284524
 30
0.0
 40
5.289950575233655
100
AcDbArc
 50
0.0
 51
180.0
  0
LINE
  5
C2
330
2
100
AcDbEntity
  8
0
100
AcDbLine
 10
1802.81038199714
 20
115.9270610280514
 30
0.0
 11
1802.81038199714
 21
124.9955477284522
 31
0.0
  0
LINE
  5
C3
330
2
100
AcDbEntity
  8
0
100
AcDbLine
 10
1837.204305432331
 20
89.47730815188311
 30
0.0
 11
1837.204305432331
 21
98.54579485228397
 31
0.0
  0
LINE
  5
C4
330
2
100
AcDbEntity
  8
0
100
AcDbLine
 10
1826.624404281864
 20
89.47730815188311
 30
0.0
 11
1826.624404281864
 21
98.54579485228397
 31
0.0
  0
ARC
  5
C5
330
2
100
AcDbEntity
  8
0
100
AcDbCircle
 10
1831.914354857098
 20
89.47730815188334
 30
0.0
 40
5.289950575233655
100
AcDbArc
 50
180.0
 51
0.0
  0
CIRCLE
  5
C6
330
2
100
AcDbEntity
  8
0
100
AcDbCircle
 10
1814.717393139502
 20
101.5686237524175
 30
0.0
 40
5.289950575233655
  0
ARC
  5
C7
330
2
100
AcDbEntity
  8
0
100
AcDbCircle
 10
1831.914354857098
 20
98.5457948522842
 30
0.0
 40
5.289950575233655
100
AcDbArc
 50
0.0
 51
180.0
  0
CIRCLE
  5
C8
330
2
100
AcDbEntity
  8
0
100
AcDbCircle
 10
1814.717393139502
 20
56.2261902504149
 30
0.0
 40
5.289950575233655
  0
ARC
  5
C9
330
2
100
AcDbEntity
  8
0
100
AcDbCircle
 10
1831.914354857098
 20
45.6462890999478
 30
0.0
 40
5.289950575233655
100
AcDbArc
 50
0.0
 51
180.0
  0
ARC
  5
CA
330
2
100
AcDbEntity
  8
0
100
AcDbCircle
 10
1831.914354857098
 20
63.02755527571503
 30
0.0
 40
5.289950575233655
100
AcDbArc
 50
180.0
 51
0.0
  0
ARC
  5
CB
330
2
100
AcDbEntity
  8
0
100
AcDbCircle
 10
1831.914354857098
 20
72.09604197611588
 30
0.0
 40
5.289950575233655
100
AcDbArc
 50
0.0
 51
180.0
  0
LINE
  5
CC
330
2
100
AcDbEntity
  8
0
100
AcDbLine
 10
1826.624404281864
 20
63.02755527571481
 30
0.0
 11
1826.624404281864
 21
72.09604197611588
 31
0.0
  0
LINE
  5
CD
330
2
100
AcDbEntity
  8
0
100
AcDbLine
 10
1837.204305432331
 20
63.02755527571481
 30
0.0
 11
1837.204305432331
 21
72.09604197611588
 31
0.0
  0
CIRCLE
  5
CE
330
2
100
AcDbEntity
  8
0
100
AcDbCircle
 10
1814.717393139502
 20
78.89740700141624
 30
0.0
 40
5.289950575233655
  0
LINE
  5
CF
330
2
100
AcDbEntity
  8
0
100
AcDbLine
 10
1802.81038199714
 20
89.47730815188311
 30
0.0
 11
1802.81038199714
 21
98.54579485228397
 31
0.0
  0
LINE
  5
D0
330
2
100
AcDbEntity
  8
0
100
AcDbLine
 10
1802.81038199714
 20
63.02755527571481
 30
0.0
 11
1802.81038199714
 21
72.09604197611588
 31
0.0
  0
ARC
  5
D1
330
2
100
AcDbEntity
  8
0
100
AcDbCircle
 10
1831.914354857098
 20
115.9270610280516
 30
0.0
 40
5.289950575233655
100
AcDbArc
 50
180.0
 51
0.0
  0
LINE
  5
D2
330
2
100
AcDbEntity
  8
0
100
AcDbLine
 10
1879.972949193525
 20
55.35503259716506
 30
0.0
 11
1879.972949193525
 21
-34.64496740283493
 31
0.0
  0
LINE
  5
D3
330
2
100
AcDbEntity
  8
0
100
AcDbLine
 10
1884.972949193524
 20
39.35503259716506
 30
0.0
 11
1884.972949193524
 21
-18.64496740283493
 31
0.0
  0
LINE
  5
D4
330
2
100
AcDbEntity
  8
0
100
AcDbLine
 10
1884.972949193524
 20
-34.64496740283493
 30
0.0
 11
1884.972949193524
 21
55.35503259716506
 31
0.0
  0
LINE
  5
D5
330
2
100
AcDbEntity
  8
0
100
AcDbLine
 10
1879.972949193525
 20
-34.64496740283493
 30
0.0
 11
1884.972949193524
 21
-34.64496740283493
 31
0.0
  0
LINE
  5
D6
330
2
100
AcDbEntity
  8
0
100
AcDbLine
 10
1915.370325488617
 20
36.35503259716506
 30
0.0
 11
1915.370325488617
 21
29.35503259716506
 31
0.0
  0
LINE
  5
D7
330
2
100
AcDbEntity
  8
0
100
AcDbLine
 10
1909.811509401974
 20
26.86880581007665
 30
0.0
 11
1903.811509401974
 21
26.86880581007665
 31
0.0
  0
LINE
  5
D8
330
2
100
AcDbEntity
  8
0
100
AcDbLine
 10
1909.811509401974
 20
27.76880581007663
 30
0.0
 11
1903.811509401974
 21
27.76880581007663
 31
0.0
  0
LINE
  5
D9
330
2
100
AcDbEntity
  8
0
100
AcDbLine
 10
1909.811509401974
 20
28.66880581007672
 30
0.0
 11
1903.811509401974
 21
28.66880581007672
 31
0.0
  0
LINE
  5
DA
330
2
100
AcDbEntity
  8
0
100
AcDbLine
 10
1909.811509401974
 20
25.06880581007658
 30
0.0
 11
1903.811509401974
 21
25.06880581007658
 31
0.0
  0
LINE
  5
DB
330
2
100
AcDbEntity
  8
0
100
AcDbLine
 10
1909.811509401974
 20
25.96880581007667
 30
0.0
 11
1903.811509401974
 21
25.96880581007667
 31
0.0
  0
LINE
  5
DC
330
2
100
AcDbEntity
  8
0
100
AcDbLine
 10
1909.811509401974
 20
24.1688058100766
 30
0.0
 11
1903.811509401974
 21
24.1688058100766
 31
0.0
  0
LINE
  5
DD
330
2
100
AcDbEntity
  8
0
100
AcDbLine
 10
1909.811509401974
 20
23.26880581007662
 30
0.0
 11
1903.811509401974
 21
23.26880581007662
 31
0.0
  0
LINE
  5
DE
330
2
100
AcDbEntity
  8
0
100
AcDbLine
 10
1903.811509401974
 20
23.26880581007662
 30
0.0
 11
1903.811509401973
 21
29.35503259716506
 31
0.0
  0
LINE
  5
DF
330
2
100
AcDbEntity
  8
0
100
AcDbLine
 10
1901.65269331533
 20
36.35503259716506
 30
0.0
 11
1901.65269331533
 21
29.35503259716506
 31
0.0
  0
LINE
  5
E0
330
2
100
AcDbEntity
  8
0
100
AcDbLine
 10
1909.811509401974
 20
23.26880581007662
 30
0.0
 11
1909.811509401974
 21
29.35503259716506
 31
0.0
  0
LINE
  5
E1
330
2
100
AcDbEntity
  8
0
100
AcDbLine
 10
1911.970325488617
 20
36.35503259716506
 30
0.0
 11
1911.970325488617
 21
29.35503259716506
 31
0.0
  0
LINE
  5
E2
330
2
100
AcDbEntity
  8
0
100
AcDbLine
 10
1889.972949193525
 20
-18.64496740283493
 30
0.0
 11
1889.972949193525
 21
32.35503259716506
 31
0.0
  0
ARC
  5
E3
330
2
100
AcDbEntity
  8
0
100
AcDbCircle
 10
1893.972949193525
 20
32.35503259716506
 30
0.0
 40
4.0
100
AcDbArc
 50
90.0
 51
180.0
  0
LINE
  5
E4
330
2
100
AcDbEntity
  8
0
100
AcDbLine
 10
1884.972949193524
 20
-18.64496740283493
 30
0.0
 11
1889.972949193525
 21
-18.64496740283493
 31
0.0
  0
LINE
  5
E5
330
2
100
AcDbEntity
  8
0
100
AcDbLine
 10
1915.370325488617
 20
29.35503259716517
 30
0.0
 11
1898.25269331533
 21
29.35503259716506
 31
0.0
  0
LINE
  5
E6
330
2
100
AcDbEntity
  8
0
100
AcDbLine
 10
1898.25269331533
 20
36.35503259716506
 30
0.0
 11
1898.25269331533
 21
29.35503259716506
 31
0.0
  0
LINE
  5
E7
330
2
100
AcDbEntity
  8
0
100
AcDbLine
 10
1884.972949193524
 20
55.35503259716506
 30
0.0
 11
1879.972949193525
 21
55.35503259716506
 31
0.0
  0
LINE
  5
E8
330
2
100
AcDbEntity
  8
0
100
AcDbLine
 10
1903.811509401974
 20
46.35503259716506
 30
0.0
 11
1903.811509401973
 21
92.0178989345768
 31
0.0
  0
LINE
  5
E9
330
2
100
AcDbEntity
  8
0
100
AcDbLine
 10
1909.811509401974
 20
46.35503259716506
 30
0.0
 11
1909.811509401974
 21
92.0178989345768
 31
0.0
  0
LINE
  5
EA
330
2
100
AcDbEntity
  8
0
100
AcDbLine
 10
1895.005678572715
 20
84.35503259716517
 30
0.0
 11
1895.005678572715
 21
46.35503259716506
 31
0.0
  0
LINE
  5
EB
330
2
100
AcDbEntity
  8
0
100
AcDbLine
 10
1895.005678572715
 20
84.35503259716517
 30
0.0
 11
1903.811509401973
 21
84.35503259716517
 31
0.0
  0
ARC
  5
EC
330
2
100
AcDbEntity
  8
0
100
AcDbCircle
 10
1906.811509401973
 20
92.0178989345768
 30
0.0
 40
3.0
100
AcDbArc
 50
89.99999999999889
 51
180.0
  0
LINE
  5
ED
330
2
100
AcDbEntity
  8
0
100
AcDbLine
 10
1906.811509401974
 20
95.01789893457681
 30
0.0
 11
1906.811509401973
 21
95.01789893457681
 31
0.0
  0
ARC
  5
EE
330
2
100
AcDbEntity
  8
0
100
AcDbCircle
 10
1906.811509401974
 20
92.0178989345768
 30
0.0
 40
3.0
100
AcDbArc
 50
0.0000000000005413
 51
89.99999999999948
  0
ARC
  5
EF
330
2
100
AcDbEntity
  8
0
100
AcDbCircle
 10
1886.972949193524
 20
39.35503259716506
 30
0.0
 40
2.0
100
AcDbArc
 50
90.0
 51
180.0
  0
LINE
  5
F0
330
2
100
AcDbEntity
  8
0
100
AcDbLine
 10
1890.311509401973
 20
41.35503259716506
 30
0.0
 11
1890.311509401973
 21
46.35503259716506
 31
0.0
  0
LINE
  5
F1
330
2
100
AcDbEntity
  8
0
100
AcDbLine
 10
1913.802561527438
 20
41.35503259716506
 30
0.0
 11
1908.802561527438
 21
41.35503259716506
 31
0.0
  0
LINE
  5
F2
330
2
100
AcDbEntity
  8
0
100
AcDbLine
 10
1919.319793832752
 20
41.35503259716506
 30
0.0
 11
1914.319793832752
 21
41.35503259716506
 31
0.0
  0
LINE
  5
F3
330
2
100
AcDbEntity
  8
0
100
AcDbLine
 10
1919.319793832752
 20
41.35503259716506
 30
0.0
 11
1914.319793832752
 21
41.35503259716506
 31
0.0
  0
LEADER
  5
F4
330
2
100
AcDbEntity
  8
0
100
AcDbLeader
  3
STANDARD
 76
     2
 10
1795.606820783436
 20
538.0104910421741
 30
0.0
 10
1634.189852363582
 20
538.0104910421741
 30
0.0
1001
ACAD
1000
DSTYLE
1002
{
1070
   147
1040
10.0
1070
    77
1070
     0
1002
}
  0
LINE
  5
F5
330
2
100
AcDbEntity
  8
DASHED
 62
     7
 48
60.0
100
AcDbLine
 10
1810.909639503882
 20
411.4289588646767
 30
0.0
 11
1865.417723419118
 21
275.8099484831946
 31
0.0
  0
ARC
  5
F6
330
2
100
AcDbEntity
  8
0
100
AcDbCircle
 10
1831.914354857098
 20
353.9748369135661
 30
0.0
 40
5.289950575233655
100
AcDbArc
 50
238.8674995937604
 51
0.0
  0
ARC
  5
F7
330
2
100
AcDbEntity
  8
0
100
AcDbCircle
 10
1797.520431421906
 20
353.9748369135661
 30
0.0
 40
5.289950575233655
100
AcDbArc
 50
180.0
 51
0.0
  0
LINE
  5
F8
330
2
100
AcDbEntity
  8
0
100
AcDbLine
 10
1849.143011137629
 20
302.7484014672254
 30
0.0
 11
1849.143011137629
 21
374.645776232008
 31
0.0
  0
ARC
  5
F9
330
2
100
AcDbEntity
  8
0
100
AcDbCircle
 10
1831.914354857098
 20
248.1758254088931
 30
0.0
 40
5.289950575233655
100
AcDbArc
 50
180.0
 51
0.0
  0
ARC
  5
FA
330
2
100
AcDbEntity
  8
0
100
AcDbCircle
 10
1797.520431421906
 20
248.1758254088931
 30
0.0
 40
5.289950575233655
100
AcDbArc
 50
180.0
 51
0.0
  0
ARC
  5
FB
330
2
100
AcDbEntity
  8
0
100
AcDbCircle
 10
1797.520431421906
 20
230.7945592331257
 30
0.0
 40
5.289950575233655
100
AcDbArc
 50
0.0
 51
180.0
  0
ARC
  5
FC
330
2
100
AcDbEntity
  8
0
100
AcDbCircle
 10
1797.520431421906
 20
195.2763196565565
 30
0.0
 40
5.289950575233655
100
AcDbArc
 50
180.0
 51
0.0
  0
ARC
  5
FD
330
2
100
AcDbEntity
  8
0
100
AcDbCircle
 10
1797.520431421906
 20
204.3448063569574
 30
0.0
 40
5.289950575233655
100
AcDbArc
 50
0.0
 51
180.0
  0
ARC
  5
FE
330
2
100
AcDbEntity
  8
0
100
AcDbCircle
 10
1797.520431421906
 20
151.4453006046208
 30
0.0
 40
5.289950575233655
100
AcDbArc
 50
0.0
 51
180.0
  0
ARC
  5
FF
330
2
100
AcDbEntity
  8
0
100
AcDbCircle
 10
1797.520431421906
 20
177.8950534807891
 30
0.0
 40
5.289950575233655
100
AcDbArc
 50
0.0
 51
180.0
  0
ARC
  5
100
330
2
100
AcDbEntity
  8
0
100
AcDbCircle
 10
1797.520431421906
 20
168.8265667803882
 30
0.0
 40
5.289950575233655
100
AcDbArc
 50
180.0
 51
0.0
  0
ARC
  5
101
330
2
100
AcDbEntity
  8
0
100
AcDbCircle
 10
1797.520431421906
 20
221.7260725327246
 30
0.0
 40
5.289950575233655
100
AcDbArc
 50
180.0
 51
0.0
  0
LINE
  5
102
330
2
100
AcDbEntity
  8
0
100
AcDbLine
 10
1792.230480846673
 20
221.7260725327246
 30
0.0
 11
1792.230480846673
 21
230.7945592331254
 31
0.0
  0
LINE
  5
103
330
2
100
AcDbEntity
  8
0
100
AcDbLine
 10
1792.230480846673
 20
195.2763196565563
 30
0.0
 11
1792.230480846673
 21
204.3448063569571
 31
0.0
  0
LINE
  5
104
330
2
100
AcDbEntity
  8
0
100
AcDbLine
 10
1792.230480846673
 20
142.3768139042197
 30
0.0
 11
1792.230480846673
 21
151.4453006046205
 31
0.0
  0
LINE
  5
105
330
2
100
AcDbEntity
  8
0
100
AcDbLine
 10
1792.230480846673
 20
168.826566780388
 30
0.0
 11
1792.230480846673
 21
177.8950534807888
 31
0.0
  0
LINE
  5
106
330
2
100
AcDbEntity
  8
0
100
AcDbLine
 10
1826.624404281864
 20
221.7260725327246
 30
0.0
 11
1826.624404281864
 21
230.7945592331254
 31
0.0
  0
LINE
  5
107
330
2
100
AcDbEntity
  8
0
100
AcDbLine
 10
1837.204305432331
 20
221.7260725327246
 30
0.0
 11
1837.204305432331
 21
230.7945592331254
 31
0.0
  0
ARC
  5
108
330
2
100
AcDbEntity
  8
0
100
AcDbCircle
 10
1831.914354857098
 20
230.7945592331257
 30
0.0
 40
5.289950575233655
100
AcDbArc
 50
0.0
 51
180.0
  0
CIRCLE
  5
109
330
2
100
AcDbEntity
  8
0
100
AcDbCircle
 10
1814.717393139502
 20
237.5959242584258
 30
0.0
 40
5.289950575233655
  0
LINE
  5
10A
330
2
100
AcDbEntity
  8
0
100
AcDbLine
 10
1826.624404281864
 20
195.2763196565563
 30
0.0
 11
1826.624404281864
 21
204.3448063569571
 31
0.0
  0
LINE
  5
10B
330
2
100
AcDbEntity
  8
0
100
AcDbLine
 10
1837.204305432331
 20
195.2763196565563
 30
0.0
 11
1837.204305432331
 21
204.3448063569571
 31
0.0
  0
CIRCLE
  5
10C
330
2
100
AcDbEntity
  8
0
100
AcDbCircle
 10
1814.717393139502
 20
192.2534907564231
 30
0.0
 40
5.289950575233655
  0
ARC
  5
10D
330
2
100
AcDbEntity
  8
0
100
AcDbCircle
 10
1831.914354857098
 20
195.2763196565565
 30
0.0
 40
5.289950575233655
100
AcDbArc
 50
180.0
 51
0.0
  0
ARC
  5
10E
330
2
100
AcDbEntity
  8
0
100
AcDbCircle
 10
1831.914354857098
 20
204.3448063569574
 30
0.0
 40
5.289950575233655
100
AcDbArc
 50
0.0
 51
180.0
  0
CIRCLE
  5
10F
330
2
100
AcDbEntity
  8
0
100
AcDbCircle
 10
1814.717393139502
 20
146.9110572544204
 30
0.0
 40
5.289950575233655
  0
ARC
  5
110
330
2
100
AcDbEntity
  8
0
100
AcDbCircle
 10
1831.914354857098
 20
151.4453006046208
 30
0.0
 40
5.289950575233655
100
AcDbArc
 50
0.0
 51
180.0
  0
LINE
  5
111
330
2
100
AcDbEntity
  8
0
100
AcDbLine
 10
1826.624404281864
 20
142.3768139042197
 30
0.0
 11
1826.624404281864
 21
151.4453006046205
 31
0.0
  0
LINE
  5
112
330
2
100
AcDbEntity
  8
0
100
AcDbLine
 10
1837.204305432331
 20
142.3768139042197
 30
0.0
 11
1837.204305432331
 21
151.4453006046205
 31
0.0
  0
CIRCLE
  5
113
330
2
100
AcDbEntity
  8
0
100
AcDbCircle
 10
1814.717393139502
 20
169.5822740054218
 30
0.0
 40
5.289950575233655
  0
LINE
  5
114
330
2
100
AcDbEntity
  8
0
100
AcDbLine
 10
1837.204305432331
 20
168.826566780388
 30
0.0
 11
1837.204305432331
 21
177.8950534807888
 31
0.0
  0
LINE
  5
115
330
2
100
AcDbEntity
  8
0
100
AcDbLine
 10
1826.624404281864
 20
168.826566780388
 30
0.0
 11
1826.624404281864
 21
177.8950534807888
 31
0.0
  0
ARC
  5
116
330
2
100
AcDbEntity
  8
0
100
AcDbCircle
 10
1831.914354857098
 20
177.8950534807891
 30
0.0
 40
5.289950575233655
100
AcDbArc
 50
0.0
 51
180.0
  0
ARC
  5
117
330
2
100
AcDbEntity
  8
0
100
AcDbCircle
 10
1831.914354857098
 20
168.8265667803882
 30
0.0
 40
5.289950575233655
100
AcDbArc
 50
180.0
 51
0.0
  0
CIRCLE
  5
118
330
2
100
AcDbEntity
  8
0
100
AcDbCircle
 10
1814.717393139502
 20
214.9247075074244
 30
0.0
 40
5.289950575233655
  0
ARC
  5
119
330
2
100
AcDbEntity
  8
0
100
AcDbCircle
 10
1831.914354857098
 20
221.7260725327246
 30
0.0
 40
5.289950575233655
100
AcDbArc
 50
180.0
 51
0.0
  0
LINE
  5
11A
330
2
100
AcDbEntity
  8
0
100
AcDbLine
 10
1802.81038199714
 20
221.7260725327246
 30
0.0
 11
1802.81038199714
 21
230.7945592331254
 31
0.0
  0
LINE
  5
11B
330
2
100
AcDbEntity
  8
0
100
AcDbLine
 10
1802.81038199714
 20
195.2763196565563
 30
0.0
 11
1802.81038199714
 21
204.3448063569571
 31
0.0
  0
LINE
  5
11C
330
2
100
AcDbEntity
  8
0
100
AcDbLine
 10
1802.81038199714
 20
142.3768139042197
 30
0.0
 11
1802.81038199714
 21
151.4453006046205
 31
0.0
  0
LINE
  5
11D
330
2
100
AcDbEntity
  8
0
100
AcDbLine
 10
1802.81038199714
 20
168.826566780388
 30
0.0
 11
1802.81038199714
 21
177.8950534807888
 31
0.0
  0
ARC
  5
11E
330
2
100
AcDbEntity
  8
0
100
AcDbCircle
 10
1797.520431421906
 20
336.5935707377989
 30
0.0
 40
5.289950575233655
100
AcDbArc
 50
0.0
 51
180.0
  0
ARC
  5
11F
330
2
100
AcDbEntity
  8
0
100
AcDbCircle
 10
1797.520431421906
 20
301.0753311612295
 30
0.0
 40
5.289950575233655
100
AcDbArc
 50
180.0
 51
0.0
  0
ARC
  5
120
330
2
100
AcDbEntity
  8
0
100
AcDbCircle
 10
1797.520431421906
 20
310.1438178616303
 30
0.0
 40
5.289950575233655
100
AcDbArc
 50
0.0
 51
180.0
  0
ARC
  5
121
330
2
100
AcDbEntity
  8
0
100
AcDbCircle
 10
1797.520431421906
 20
274.6255782850612
 30
0.0
 40
5.289950575233655
100
AcDbArc
 50
180.0
 51
0.0
  0
ARC
  5
122
330
2
100
AcDbEntity
  8
0
100
AcDbCircle
 10
1797.520431421906
 20
257.2443121092937
 30
0.0
 40
5.289950575233655
100
AcDbArc
 50
0.0
 51
180.0
  0
ARC
  5
123
330
2
100
AcDbEntity
  8
0
100
AcDbCircle
 10
1797.520431421906
 20
283.6940649854623
 30
0.0
 40
5.289950575233655
100
AcDbArc
 50
0.0
 51
180.0
  0
ARC
  5
124
330
2
100
AcDbEntity
  8
0
100
AcDbCircle
 10
1797.520431421906
 20
327.5250840373978
 30
0.0
 40
5.289950575233655
100
AcDbArc
 50
180.0
 51
0.0
  0
LINE
  5
125
330
2
100
AcDbEntity
  8
0
100
AcDbLine
 10
1792.230480846673
 20
327.5250840373976
 30
0.0
 11
1792.230480846673
 21
336.5935707377984
 31
0.0
  0
LINE
  5
126
330
2
100
AcDbEntity
  8
0
100
AcDbLine
 10
1792.230480846673
 20
301.0753311612293
 30
0.0
 11
1792.230480846673
 21
310.1438178616303
 31
0.0
  0
LINE
  5
127
330
2
100
AcDbEntity
  8
0
100
AcDbLine
 10
1792.230480846673
 20
248.1758254088926
 30
0.0
 11
1792.230480846673
 21
257.2443121092937
 31
0.0
  0
LINE
  5
128
330
2
100
AcDbEntity
  8
0
100
AcDbLine
 10
1792.230480846673
 20
274.6255782850612
 30
0.0
 11
1792.230480846673
 21
283.6940649854618
 31
0.0
  0
ARC
  5
129
330
2
100
AcDbEntity
  8
0
100
AcDbCircle
 10
1831.914354857098
 20
336.5935707377989
 30
0.0
 40
5.289950575233655
100
AcDbArc
 50
95.40984659010527
 51
180.0
  0
LINE
  5
12A
330
2
100
AcDbEntity
  8
0
100
AcDbLine
 10
1837.204305432331
 20
274.6255782850612
 30
0.0
 11
1837.204305432331
 21
274.8591656538865
 31
0.0
  0
ARC
  5
12B
330
2
100
AcDbEntity
  8
0
100
AcDbCircle
 10
1831.914354857098
 20
283.6940649854623
 30
0.0
 40
5.289950575233655
100
AcDbArc
 50
63.58550810977238
 51
116.4144918902276
  0
ARC
  5
12C
330
2
100
AcDbEntity
  8
0
100
AcDbCircle
 10
1831.914354857098
 20
283.6940649854623
 30
0.0
 40
5.289950575233655
100
AcDbArc
 50
175.4811638104343
 51
180.0
  0
CIRCLE
  5
12D
330
2
100
AcDbEntity
  8
0
100
AcDbCircle
 10
1814.717393139502
 20
335.8378635127651
 30
0.0
 40
5.289950575233655
  0
LINE
  5
12E
330
2
100
AcDbEntity
  8
0
100
AcDbLine
 10
1837.204305432331
 20
327.5250840373976
 30
0.0
 11
1837.204305432331
 21
336.5935707377984
 31
0.0
  0
LINE
  5
12F
330
2
100
AcDbEntity
  8
0
100
AcDbLine
 10
1826.624404281864
 20
327.5250840373976
 30
0.0
 11
1826.624404281864
 21
336.5935707377984
 31
0.0
  0
LINE
  5
130
330
2
100
AcDbEntity
  8
0
100
AcDbLine
 10
1802.81038199714
 20
327.5250840373976
 30
0.0
 11
1802.81038199714
 21
336.5935707377984
 31
0.0
  0
LINE
  5
131
330
2
100
AcDbEntity
  8
0
100
AcDbLine
 10
1826.624404281864
 20
301.0753311612293
 30
0.0
 11
1826.624404281864
 21
310.1438178616303
 31
0.0
  0
LINE
  5
132
330
2
100
AcDbEntity
  8
0
100
AcDbLine
 10
1837.204305432331
 20
301.0753311612293
 30
0.0
 11
1837.204305432331
 21
310.1438178616303
 31
0.0
  0
ARC
  5
133
330
2
100
AcDbEntity
  8
0
100
AcDbCircle
 10
1831.914354857098
 20
301.0753311612295
 30
0.0
 40
5.289950575233655
100
AcDbArc
 50
180.0
 51
0.0
  0
CIRCLE
  5
134
330
2
100
AcDbEntity
  8
0
100
AcDbCircle
 10
1814.717393139502
 20
313.1666467617638
 30
0.0
 40
5.289950575233655
  0
ARC
  5
135
330
2
100
AcDbEntity
  8
0
100
AcDbCircle
 10
1831.914354857098
 20
310.1438178616303
 30
0.0
 40
5.289950575233655
100
AcDbArc
 50
0.0
 51
180.0
  0
ARC
  5
136
330
2
100
AcDbEntity
  8
0
100
AcDbCircle
 10
1831.914354857098
 20
274.6255782850612
 30
0.0
 40
5.289950575233655
100
AcDbArc
 50
180.0
 51
0.0
  0
CIRCLE
  5
137
330
2
100
AcDbEntity
  8
0
100
AcDbCircle
 10
1814.717393139502
 20
260.2671410094271
 30
0.0
 40
5.289950575233655
  0
ARC
  5
138
330
2
100
AcDbEntity
  8
0
100
AcDbCircle
 10
1831.914354857098
 20
257.2443121092937
 30
0.0
 40
5.289950575233655
100
AcDbArc
 50
0.0
 51
180.0
  0
LINE
  5
139
330
2
100
AcDbEntity
  8
0
100
AcDbLine
 10
1837.204305432331
 20
248.1758254088926
 30
0.0
 11
1837.204305432331
 21
257.2443121092937
 31
0.0
  0
LINE
  5
13A
330
2
100
AcDbEntity
  8
0
100
AcDbLine
 10
1826.624404281864
 20
248.1758254088926
 30
0.0
 11
1826.624404281864
 21
257.2443121092937
 31
0.0
  0
LINE
  5
13B
330
2
100
AcDbEntity
  8
0
100
AcDbLine
 10
1826.624404281864
 20
274.6255782850612
 30
0.0
 11
1826.624404281864
 21
283.6940649854618
 31
0.0
  0
CIRCLE
  5
13C
330
2
100
AcDbEntity
  8
0
100
AcDbCircle
 10
1814.717393139502
 20
282.9383577604285
 30
0.0
 40
5.289950575233655
  0
LINE
  5
13D
330
2
100
AcDbEntity
  8
0
100
AcDbLine
 10
1802.81038199714
 20
301.0753311612293
 30
0.0
 11
1802.81038199714
 21
310.1438178616303
 31
0.0
  0
LINE
  5
13E
330
2
100
AcDbEntity
  8
0
100
AcDbLine
 10
1802.81038199714
 20
248.1758254088926
 30
0.0
 11
1802.81038199714
 21
257.2443121092937
 31
0.0
  0
LINE
  5
13F
330
2
100
AcDbEntity
  8
0
100
AcDbLine
 10
1802.81038199714
 20
274.6255782850612
 30
0.0
 11
1802.81038199714
 21
283.6940649854618
 31
0.0
  0
ARC
  5
140
330
2
100
AcDbEntity
  8
0
100
AcDbCircle
 10
1831.914354857098
 20
327.5250840373978
 30
0.0
 40
5.289950575233655
100
AcDbArc
 50
180.0
 51
0.0
  0
LINE
  5
141
330
2
100
AcDbEntity
  8
0
100
AcDbLine
 10
1887.073969707958
 20
290.4038548033072
 30
0.0
 11
1842.87192867909
 21
290.4038548033072
 31
0.0
  0
ARC
  5
142
330
2
100
AcDbEntity
  8
0
100
AcDbCircle
 10
1891.972949193524
 20
278.4038548033072
 30
0.0
 40
12.0
100
AcDbArc
 50
113.0739180656303
 51
180.0
  0
ARC
  5
143
330
2
100
AcDbEntity
  8
0
100
AcDbCircle
 10
1837.972949193524
 20
278.4038548033072
 30
0.0
 40
12.0
100
AcDbArc
 50
0.000000000000007
 51
66.92608193436964
  0
ARC
  5
144
330
2
100
AcDbEntity
  8
0
100
AcDbCircle
 10
1842.87192867909
 20
289.9038548033072
 30
0.0
 40
0.5
100
AcDbArc
 50
90.00000000002605
 51
246.9260819343586
  0
LINE
  5
145
330
2
100
AcDbEntity
  8
0
100
AcDbLine
 10
1849.143011137629
 20
302.7484014672254
 30
0.0
 11
1849.143011137629
 21
288.4317408562283
 31
0.0
  0
ARC
  5
146
330
2
100
AcDbEntity
  8
0
100
AcDbCircle
 10
1887.073969707958
 20
289.9038548033072
 30
0.0
 40
0.5
100
AcDbArc
 50
293.0739180656413
 51
90.0
  0
CIRCLE
  5
147
330
2
100
AcDbEntity
  8
0
100
AcDbCircle
 10
1814.717393139502
 20
449.1483713257235
 30
0.0
 40
5.289950575233655
  0
LINE
  5
148
330
2
100
AcDbEntity
  8
0
100
AcDbLine
 10
1802.766593417128
 20
436.3778198248557
 30
0.0
 11
1792.274269426684
 21
436.3778198248557
 31
0.0
  0
ARC
  5
149
330
2
100
AcDbEntity
  8
0
100
AcDbCircle
 10
1797.520431421906
 20
437.0570557251892
 30
0.0
 40
5.289950575233655
100
AcDbArc
 50
180.0
 51
0.0
  0
ARC
  5
14A
330
2
100
AcDbEntity
  8
0
100
AcDbCircle
 10
1797.520431421906
 20
446.1255424255901
 30
0.0
 40
5.289950575233655
100
AcDbArc
 50
0.0
 51
180.0
  0
ARC
  5
14B
330
2
100
AcDbEntity
  8
0
100
AcDbCircle
 10
1797.520431421906
 20
384.1575499728526
 30
0.0
 40
5.289950575233655
100
AcDbArc
 50
180.0
 51
0.0
  0
ARC
  5
14C
330
2
100
AcDbEntity
  8
0
100
AcDbCircle
 10
1797.520431421906
 20
393.2260366732537
 30
0.0
 40
5.289950575233655
100
AcDbArc
 50
0.0
 51
180.0
  0
ARC
  5
14D
330
2
100
AcDbEntity
  8
0
100
AcDbCircle
 10
1797.520431421906
 20
410.6073028490209
 30
0.0
 40
5.289950575233655
100
AcDbArc
 50
180.0
 51
0.0
  0
ARC
  5
14E
330
2
100
AcDbEntity
  8
0
100
AcDbCircle
 10
1797.520431421906
 20
419.6757895494218
 30
0.0
 40
5.289950575233655
100
AcDbArc
 50
0.0
 51
180.0
  0
ARC
  5
14F
330
2
100
AcDbEntity
  8
0
100
AcDbCircle
 10
1797.520431421906
 20
363.043323613967
 30
0.0
 40
5.289950575233655
100
AcDbArc
 50
0.0
 51
180.0
  0
LINE
  5
150
330
2
100
AcDbEntity
  8
0
100
AcDbLine
 10
1792.230480846673
 20
437.0570557251889
 30
0.0
 11
1792.230480846673
 21
446.1255424255898
 31
0.0
  0
LINE
  5
151
330
2
100
AcDbEntity
  8
0
100
AcDbLine
 10
1792.230480846673
 20
384.1575499728524
 30
0.0
 11
1792.230480846673
 21
393.2260366732532
 31
0.0
  0
LINE
  5
152
330
2
100
AcDbEntity
  8
0
100
AcDbLine
 10
1792.230480846673
 20
410.6073028490206
 30
0.0
 11
1792.230480846673
 21
419.6757895494218
 31
0.0
  0
LINE
  5
153
330
2
100
AcDbEntity
  8
0
100
AcDbLine
 10
1792.230480846673
 20
353.9748369135659
 30
0.0
 11
1792.230480846673
 21
363.043323613967
 31
0.0
  0
LINE
  5
154
330
2
100
AcDbEntity
  8
0
100
AcDbLine
 10
1780.291775141375
 20
367.5899729544728
 30
0.0
 11
1780.291775141375
 21
436.3778198248557
 31
0.0
  0
ARC
  5
155
330
2
100
AcDbEntity
  8
0
100
AcDbCircle
 10
1814.717393139502
 20
403.8059378237208
 30
0.0
 40
5.289950575233655
100
AcDbArc
 50
122.8634341985399
 51
269.9831148533659
  0
ARC
  5
156
330
2
100
AcDbEntity
  8
0
100
AcDbCircle
 10
1814.717393139502
 20
381.1347210727194
 30
0.0
 40
5.289950575233655
100
AcDbArc
 50
354.6549551395938
 51
38.19159391231168
  0
LINE
  5
157
330
2
100
AcDbEntity
  8
0
100
AcDbLine
 10
1826.624404281864
 20
358.1147369198327
 30
0.0
 11
1826.624404281864
 21
363.043323613967
 31
0.0
  0
LINE
  5
158
330
2
100
AcDbEntity
  8
0
100
AcDbLine
 10
1837.204305432331
 20
437.0570557251889
 30
0.0
 11
1837.204305432331
 21
446.1255424255898
 31
0.0
  0
LINE
  5
159
330
2
100
AcDbEntity
  8
0
100
AcDbLine
 10
1826.624404281864
 20
437.0570557251889
 30
0.0
 11
1826.624404281864
 21
446.1255424255898
 31
0.0
  0
LINE
  5
15A
330
2
100
AcDbEntity
  8
0
100
AcDbLine
 10
1837.16051685232
 20
436.3778198248557
 30
0.0
 11
1826.668192861876
 21
436.3778198248557
 31
0.0
  0
ARC
  5
15B
330
2
100
AcDbEntity
  8
0
100
AcDbCircle
 10
1831.914354857098
 20
437.0570557251892
 30
0.0
 40
5.289950575233655
100
AcDbArc
 50
180.0
 51
0.0
  0
ARC
  5
15C
330
2
100
AcDbEntity
  8
0
100
AcDbCircle
 10
1831.914354857098
 20
446.1255424255901
 30
0.0
 40
5.289950575233655
100
AcDbArc
 50
0.0
 51
180.0
  0
ARC
  5
15D
330
2
100
AcDbEntity
  8
0
100
AcDbCircle
 10
1831.914354857098
 20
393.2260366732537
 30
0.0
 40
5.289950575233655
100
AcDbArc
 50
0.0
 51
180.0
  0
ARC
  5
15E
330
2
100
AcDbEntity
  8
0
100
AcDbCircle
 10
1831.914354857098
 20
384.1575499728526
 30
0.0
 40
5.289950575233655
100
AcDbArc
 50
180.0
 51
0.0
  0
LINE
  5
15F
330
2
100
AcDbEntity
  8
0
100
AcDbLine
 10
1826.624404281864
 20
384.1575499728524
 30
0.0
 11
1826.624404281864
 21
393.2260366732532
 31
0.0
  0
LINE
  5
160
330
2
100
AcDbEntity
  8
0
100
AcDbLine
 10
1837.204305432331
 20
384.1575499728524
 30
0.0
 11
1837.204305432331
 21
393.2260366732532
 31
0.0
  0
ARC
  5
161
330
2
100
AcDbEntity
  8
0
100
AcDbCircle
 10
1831.914354857098
 20
410.6073028490209
 30
0.0
 40
5.289950575233655
100
AcDbArc
 50
180.0
 51
0.0
  0
ARC
  5
162
330
2
100
AcDbEntity
  8
0
100
AcDbCircle
 10
1831.914354857098
 20
419.6757895494218
 30
0.0
 40
5.289950575233655
100
AcDbArc
 50
0.0
 51
180.0
  0
LINE
  5
163
330
2
100
AcDbEntity
  8
0
100
AcDbLine
 10
1826.624404281864
 20
410.6073028490206
 30
0.0
 11
1826.624404281864
 21
419.6757895494218
 31
0.0
  0
LINE
  5
164
330
2
100
AcDbEntity
  8
0
100
AcDbLine
 10
1837.204305432331
 20
410.6073028490206
 30
0.0
 11
1837.204305432331
 21
419.6757895494218
 31
0.0
  0
CIRCLE
  5
165
330
2
100
AcDbEntity
  8
0
100
AcDbCircle
 10
1814.717393139502
 20
362.2876163889336
 30
0.0
 40
5.289950575233655
  0
ARC
  5
166
330
2
100
AcDbEntity
  8
0
100
AcDbCircle
 10
1831.914354857098
 20
363.043323613967
 30
0.0
 40
5.289950575233655
100
AcDbArc
 50
0.0
 51
180.0
  0
LINE
  5
167
330
2
100
AcDbEntity
  8
0
100
AcDbLine
 10
1837.204305432331
 20
353.9748369135659
 30
0.0
 11
1837.204305432331
 21
363.043323613967
 31
0.0
  0
CIRCLE
  5
168
330
2
100
AcDbEntity
  8
0
100
AcDbCircle
 10
1814.717393139502
 20
426.4771545747221
 30
0.0
 40
5.289950575233655
  0
LINE
  5
169
330
2
100
AcDbEntity
  8
0
100
AcDbLine
 10
1802.81038199714
 20
437.0570557251889
 30
0.0
 11
1802.81038199714
 21
446.1255424255898
 31
0.0
  0
LINE
  5
16A
330
2
100
AcDbEntity
  8
0
100
AcDbLine
 10
1802.81038199714
 20
384.1575499728524
 30
0.0
 11
1802.81038199714
 21
393.2260366732532
 31
0.0
  0
LINE
  5
16B
330
2
100
AcDbEntity
  8
0
100
AcDbLine
 10
1802.81038199714
 20
410.6073028490206
 30
0.0
 11
1802.81038199714
 21
419.6757895494218
 31
0.0
  0
LINE
  5
16C
330
2
100
AcDbEntity
  8
0
100
AcDbLine
 10
1802.81038199714
 20
353.9748369135659
 30
0.0
 11
1802.81038199714
 21
363.043323613967
 31
0.0
  0
ARC
  5
16D
330
2
100
AcDbEntity
  8
0
100
AcDbCircle
 10
1797.520431421906
 20
542.8560672298624
 30
0.0
 40
5.289950575233655
100
AcDbArc
 50
180.0
 51
0.0
  0
ARC
  5
16E
330
2
100
AcDbEntity
  8
0
100
AcDbCircle
 10
1797.520431421906
 20
472.5752953017583
 30
0.0
 40
5.289950575233655
100
AcDbArc
 50
0.0
 51
180.0
  0
ARC
  5
16F
330
2
100
AcDbEntity
  8
0
100
AcDbCircle
 10
1797.520431421906
 20
463.5068086013575
 30
0.0
 40
5.289950575233655
100
AcDbArc
 50
180.0
 51
0.0
  0
ARC
  5
170
330
2
100
AcDbEntity
  8
0
100
AcDbCircle
 10
1797.520431421906
 20
499.0250481779266
 30
0.0
 40
5.289950575233655
100
AcDbArc
 50
0.0
 51
180.0
  0
ARC
  5
171
330
2
100
AcDbEntity
  8
0
100
AcDbCircle
 10
1797.520431421906
 20
489.9565614775258
 30
0.0
 40
5.289950575233655
100
AcDbArc
 50
180.0
 51
0.0
  0
ARC
  5
172
330
2
100
AcDbEntity
  8
0
100
AcDbCircle
 10
1797.520431421906
 20
525.4748010540949
 30
0.0
 40
5.289950575233655
100
AcDbArc
 50
0.0
 51
180.0
  0
ARC
  5
173
330
2
100
AcDbEntity
  8
0
100
AcDbCircle
 10
1797.520431421906
 20
516.4063143536941
 30
0.0
 40
5.289950575233655
100
AcDbArc
 50
180.0
 51
0.0
  0
LINE
  5
174
330
2
100
AcDbEntity
  8
0
100
AcDbLine
 10
1792.230480846673
 20
542.8560672298622
 30
0.0
 11
1792.230480846673
 21
551.924553930263
 31
0.0
  0
LINE
  5
175
330
2
100
AcDbEntity
  8
0
100
AcDbLine
 10
1792.230480846673
 20
463.5068086013573
 30
0.0
 11
1792.230480846673
 21
472.5752953017582
 31
0.0
  0
LINE
  5
176
330
2
100
AcDbEntity
  8
0
100
AcDbLine
 10
1792.230480846673
 20
489.9565614775256
 30
0.0
 11
1792.230480846673
 21
499.0250481779265
 31
0.0
  0
LINE
  5
177
330
2
100
AcDbEntity
  8
0
100
AcDbLine
 10
1792.230480846673
 20
516.4063143536939
 30
0.0
 11
1792.230480846673
 21
525.4748010540947
 31
0.0
  0
LINE
  5
178
330
2
100
AcDbEntity
  8
0
100
AcDbLine
 10
1826.624404281864
 20
542.8560672298622
 30
0.0
 11
1826.624404281864
 21
551.924553930263
 31
0.0
  0
LINE
  5
179
330
2
100
AcDbEntity
  8
0
100
AcDbLine
 10
1837.204305432331
 20
542.8560672298622
 30
0.0
 11
1837.204305432331
 21
551.924553930263
 31
0.0
  0
CIRCLE
  5
17A
330
2
100
AcDbEntity
  8
0
100
AcDbCircle
 10
1814.717393139502
 20
539.833238329729
 30
0.0
 40
5.289950575233655
  0
ARC
  5
17B
330
2
100
AcDbEntity
  8
0
100
AcDbCircle
 10
1831.914354857098
 20
542.8560672298624
 30
0.0
 40
5.289950575233655
100
AcDbArc
 50
180.0
 51
0.0
  0
LINE
  5
17C
330
2
100
AcDbEntity
  8
0
100
AcDbLine
 10
1802.81038199714
 20
542.8560672298622
 30
0.0
 11
1802.81038199714
 21
551.924553930263
 31
0.0
  0
ARC
  5
17D
330
2
100
AcDbEntity
  8
0
100
AcDbCircle
 10
1831.914354857098
 20
472.5752953017583
 30
0.0
 40
5.289950575233655
100
AcDbArc
 50
0.0
 51
180.0
  0
CIRCLE
  5
17E
330
2
100
AcDbEntity
  8
0
100
AcDbCircle
 10
1814.717393139502
 20
471.8195880767248
 30
0.0
 40
5.289950575233655
  0
ARC
  5
17F
330
2
100
AcDbEntity
  8
0
100
AcDbCircle
 10
1831.914354857098
 20
463.5068086013575
 30
0.0
 40
5.289950575233655
100
AcDbArc
 50
180.0
 51
0.0
  0
LINE
  5
180
330
2
100
AcDbEntity
  8
0
100
AcDbLine
 10
1826.624404281864
 20
463.5068086013573
 30
0.0
 11
1826.624404281864
 21
472.5752953017582
 31
0.0
  0
LINE
  5
181
330
2
100
AcDbEntity
  8
0
100
AcDbLine
 10
1837.204305432331
 20
463.5068086013573
 30
0.0
 11
1837.204305432331
 21
472.5752953017582
 31
0.0
  0
CIRCLE
  5
182
330
2
100
AcDbEntity
  8
0
100
AcDbCircle
 10
1814.717393139502
 20
494.4908048277263
 30
0.0
 40
5.289950575233655
  0
ARC
  5
183
330
2
100
AcDbEntity
  8
0
100
AcDbCircle
 10
1831.914354857098
 20
489.9565614775258
 30
0.0
 40
5.289950575233655
100
AcDbArc
 50
180.0
 51
0.0
  0
ARC
  5
184
330
2
100
AcDbEntity
  8
0
100
AcDbCircle
 10
1831.914354857098
 20
499.0250481779266
 30
0.0
 40
5.289950575233655
100
AcDbArc
 50
0.0
 51
180.0
  0
LINE
  5
185
330
2
100
AcDbEntity
  8
0
100
AcDbLine
 10
1826.624404281864
 20
489.9565614775256
 30
0.0
 11
1826.624404281864
 21
499.0250481779265
 31
0.0
  0
LINE
  5
186
330
2
100
AcDbEntity
  8
0
100
AcDbLine
 10
1837.204305432331
 20
489.9565614775256
 30
0.0
 11
1837.204305432331
 21
499.0250481779265
 31
0.0
  0
CIRCLE
  5
187
330
2
100
AcDbEntity
  8
0
100
AcDbCircle
 10
1814.717393139502
 20
517.1620215787277
 30
0.0
 40
5.289950575233655
  0
LINE
  5
188
330
2
100
AcDbEntity
  8
0
100
AcDbLine
 10
1837.204305432331
 20
516.4063143536939
 30
0.0
 11
1837.204305432331
 21
525.4748010540947
 31
0.0
  0
LINE
  5
189
330
2
100
AcDbEntity
  8
0
100
AcDbLine
 10
1826.624404281864
 20
516.4063143536939
 30
0.0
 11
1826.624404281864
 21
525.4748010540947
 31
0.0
  0
ARC
  5
18A
330
2
100
AcDbEntity
  8
0
100
AcDbCircle
 10
1831.914354857098
 20
525.4748010540949
 30
0.0
 40
5.289950575233655
100
AcDbArc
 50
0.0
 51
180.0
  0
ARC
  5
18B
330
2
100
AcDbEntity
  8
0
100
AcDbCircle
 10
1831.914354857098
 20
516.4063143536941
 30
0.0
 40
5.289950575233655
100
AcDbArc
 50
180.0
 51
0.0
  0
LINE
  5
18C
330
2
100
AcDbEntity
  8
0
100
AcDbLine
 10
1802.81038199714
 20
463.5068086013573
 30
0.0
 11
1802.81038199714
 21
472.5752953017582
 31
0.0
  0
LINE
  5
18D
330
2
100
AcDbEntity
  8
0
100
AcDbLine
 10
1802.81038199714
 20
489.9565614775256
 30
0.0
 11
1802.81038199714
 21
499.0250481779265
 31
0.0
  0
LINE
  5
18E
330
2
100
AcDbEntity
  8
0
100
AcDbLine
 10
1802.81038199714
 20
516.4063143536939
 30
0.0
 11
1802.81038199714
 21
525.4748010540947
 31
0.0
  0
LINE
  5
18F
330
2
100
AcDbEntity
  8
0
100
AcDbLine
 10
1804.974639302959
 20
480.2276363808534
 30
0.0
 11
1805.096240421425
 21
480.3492374993196
 31
0.0
  0
POINT
  5
190
330
2
100
AcDbEntity
  8
DEFPOINTS
  6
ByBlock
 62
     7
100
AcDbPoint
 10
1804.276907891367
 20
465.7343157827913
 30
0.0
  0
CIRCLE
  5
191
330
2
100
AcDbEntity
  8
0
100
AcDbCircle
 10
1878.110231590372
 20
401.9838963896643
 30
0.0
 40
5.289950575233655
  0
ARC
  5
192
330
2
100
AcDbEntity
  8
0
100
AcDbCircle
 10
1878.865938815405
 20
384.7869346720683
 30
0.0
 40
5.289950575233655
100
AcDbArc
 50
270.0
 51
90.0
  0
ARC
  5
193
330
2
100
AcDbEntity
  8
0
100
AcDbCircle
 10
1878.865938815405
 20
419.1808581072598
 30
0.0
 40
5.289950575233655
100
AcDbArc
 50
270.0
 51
90.0
  0
LINE
  5
194
330
2
100
AcDbEntity
  8
0
100
AcDbLine
 10
1849.143011137629
 20
413.8909075320263
 30
0.0
 11
1852.416185939237
 21
413.8909075320263
 31
0.0
  0
LINE
  5
195
330
2
100
AcDbEntity
  8
0
100
AcDbLine
 10
1849.143011137629
 20
424.4708086824934
 30
0.0
 11
1852.416185939237
 21
424.4708086824934
 31
0.0
  0
LINE
  5
196
330
2
100
AcDbEntity
  8
0
100
AcDbLine
 10
1849.143011137629
 20
390.076885247302
 30
0.0
 11
1852.416185939237
 21
390.076885247302
 31
0.0
  0
CIRCLE
  5
197
330
2
100
AcDbEntity
  8
0
100
AcDbCircle
 10
1855.43901483937
 20
401.9838963896643
 30
0.0
 40
5.289950575233655
  0
LINE
  5
198
330
2
100
AcDbEntity
  8
0
100
AcDbLine
 10
1849.143011137629
 20
379.4969840968349
 30
0.0
 11
1852.416185939237
 21
379.4969840968349
 31
0.0
  0
LINE
  5
199
330
2
100
AcDbEntity
  8
0
100
AcDbLine
 10
1869.797452115004
 20
390.076885247302
 30
0.0
 11
1878.865938815405
 21
390.076885247302
 31
0.0
  0
LINE
  5
19A
330
2
100
AcDbEntity
  8
0
100
AcDbLine
 10
1869.797452115004
 20
379.4969840968349
 30
0.0
 11
1878.865938815405
 21
379.4969840968349
 31
0.0
  0
ARC
  5
19B
330
2
100
AcDbEntity
  8
0
100
AcDbCircle
 10
1852.416185939237
 20
384.7869346720683
 30
0.0
 40
5.289950575233655
100
AcDbArc
 50
270.0
 51
90.0
  0
ARC
  5
19C
330
2
100
AcDbEntity
  8
0
100
AcDbCircle
 10
1869.797452115004
 20
384.7869346720683
 30
0.0
 40
5.289950575233655
100
AcDbArc
 50
90.0
 51
270.0
  0
ARC
  5
19D
330
2
100
AcDbEntity
  8
0
100
AcDbCircle
 10
1869.797452115004
 20
419.1808581072598
 30
0.0
 40
5.289950575233655
100
AcDbArc
 50
90.0
 51
270.0
  0
LINE
  5
19E
330
2
100
AcDbEntity
  8
0
100
AcDbLine
 10
1869.797452115004
 20
424.4708086824934
 30
0.0
 11
1878.865938815405
 21
424.4708086824934
 31
0.0
  0
LINE
  5
19F
330
2
100
AcDbEntity
  8
0
100
AcDbLine
 10
1869.797452115004
 20
413.8909075320263
 30
0.0
 11
1878.865938815405
 21
413.8909075320263
 31
0.0
  0
ARC
  5
1A0
330
2
100
AcDbEntity
  8
0
100
AcDbCircle
 10
1852.416185939237
 20
419.1808581072598
 30
0.0
 40
5.289950575233655
100
AcDbArc
 50
270.0
 51
90.0
  0
LINE
  5
1A1
330
2
100
AcDbEntity
  8
0
100
AcDbLine
 10
1896.849366214106
 20
440.1563559500225
 30
0.0
 11
1896.849366214106
 21
436.3778198248557
 31
0.0
  0
CIRCLE
  5
1A2
330
2
100
AcDbEntity
  8
0
100
AcDbCircle
 10
1900.781448341373
 20
401.9838963896643
 30
0.0
 40
5.289950575233655
  0
ARC
  5
1A3
330
2
100
AcDbEntity
  8
0
100
AcDbCircle
 10
1905.315691691574
 20
384.7869346720683
 30
0.0
 40
5.289950575233655
100
AcDbArc
 50
270.0
 51
90.0
  0
ARC
  5
1A4
330
2
100
AcDbEntity
  8
0
100
AcDbCircle
 10
1922.696957867341
 20
384.7869346720683
 30
0.0
 40
5.289950575233655
100
AcDbArc
 50
90.0
 51
270.0
  0
LINE
  5
1A5
330
2
100
AcDbEntity
  8
0
100
AcDbLine
 10
1896.247204991173
 20
379.4969840968349
 30
0.0
 11
1905.315691691574
 21
379.4969840968349
 31
0.0
  0
LINE
  5
1A6
330
2
100
AcDbEntity
  8
0
100
AcDbLine
 10
1896.247204991173
 20
390.076885247302
 30
0.0
 11
1905.315691691574
 21
390.076885247302
 31
0.0
  0
ARC
  5
1A7
330
2
100
AcDbEntity
  8
0
100
AcDbCircle
 10
1922.696957867341
 20
419.1808581072598
 30
0.0
 40
5.289950575233655
100
AcDbArc
 50
90.0
 51
270.0
  0
ARC
  5
1A8
330
2
100
AcDbEntity
  8
0
100
AcDbCircle
 10
1905.315691691574
 20
419.1808581072598
 30
0.0
 40
5.289950575233655
100
AcDbArc
 50
270.0
 51
90.0
  0
LINE
  5
1A9
330
2
100
AcDbEntity
  8
0
100
AcDbLine
 10
1896.247204991173
 20
413.8909075320263
 30
0.0
 11
1905.315691691574
 21
413.8909075320263
 31
0.0
  0
LINE
  5
1AA
330
2
100
AcDbEntity
  8
0
100
AcDbLine
 10
1896.247204991173
 20
424.4708086824934
 30
0.0
 11
1905.315691691574
 21
424.4708086824934
 31
0.0
  0
ARC
  5
1AB
330
2
100
AcDbEntity
  8
0
100
AcDbCircle
 10
1896.247204991173
 20
384.7869346720683
 30
0.0
 40
5.289950575233655
100
AcDbArc
 50
90.0
 51
270.0
  0
ARC
  5
1AC
330
2
100
AcDbEntity
  8
0
100
AcDbCircle
 10
1896.247204991173
 20
419.1808581072598
 30
0.0
 40
5.289950575233655
100
AcDbArc
 50
90.0
 51
270.0
  0
LINE
  5
1AD
330
2
100
AcDbEntity
  8
thread
100
AcDbLine
 10
1902.252404482366
 20
447.4958590764604
 30
0.0
 11
1906.342185103092
 21
444.9655787579236
 31
0.0
  0
MTEXT
  5
1AE
330
2
100
AcDbEntity
  8
0
100
AcDbMText
 10
1028.509789476869
 20
795.9842933252475
 30
0.0
 40
28.0
 41
0.0
 71
     1
 72
     1
  1
STRUCTURAL TIMBER BEAM \PFIXED TO STRUCTURE \PABOVE (BY OTHERS)
 73
     1
 44
1.0
  0
LEADER
  5
1AF
330
2
100
AcDbEntity
  8
0
100
AcDbLeader
  3
STANDARD
 76
     2
 10
1756.39909451554
 20
705.6540447729808
 30
0.0
 10
1539.39247365723
 20
705.6540447729808
 30
0.0
1001
ACAD
1000
DSTYLE
1002
{
1070
   147
1040
10.0
1070
    77
1070
     0
1002
}
  0
LINE
  5
1B0
330
2
100
AcDbEntity
  8
0
100
AcDbLine
 10
1749.59772949024
 20
857.0842984087327
 30
0.0
 11
1763.200459540841
 21
857.0842984087327
 31
0.0
  0
LINE
  5
1B1
330
2
100
AcDbEntity
  8
0
100
AcDbLine
 10
1760.933337865741
 20
725.8988715438698
 30
0.0
 11
1751.86485116534
 21
725.8988715438698
 31
0.0
  0
ARC
  5
1B2
330
2
100
AcDbEntity
  8
0
100
AcDbCircle
 10
1756.39909451554
 20
684.3349741670339
 30
0.0
 40
26.44975287616828
100
AcDbArc
 50
44.415308597193
 51
135.584691402807
  0
ARC
  5
1B3
330
2
100
AcDbEntity
  8
0
100
AcDbCircle
 10
1756.39909451554
 20
670.7322441164331
 30
0.0
 40
26.44975287616828
100
AcDbArc
 50
44.415308597193
 51
135.584691402807
  0
ARC
  5
1B4
330
2
100
AcDbEntity
  8
0
100
AcDbCircle
 10
1756.39909451554
 20
677.5336091417336
 30
0.0
 40
26.44975287616828
100
AcDbArc
 50
44.415308597193
 51
135.584691402807
  0
ARC
  5
1B5
330
2
100
AcDbEntity
  8
0
100
AcDbCircle
 10
1756.39909451554
 20
697.9377042176349
 30
0.0
 40
26.44975287616828
100
AcDbArc
 50
44.415308597193
 51
135.584691402807
  0
ARC
  5
1B6
330
2
100
AcDbEntity
  8
0
100
AcDbCircle
 10
1756.39909451554
 20
691.1363391923344
 30
0.0
 40
26.44975287616828
100
AcDbArc
 50
44.415308597193
 51
135.584691402807
  0
LINE
  5
1B7
330
2
100
AcDbEntity
  8
0
100
AcDbLine
 10
1775.291775141375
 20
725.8988715438698
 30
0.0
 11
1737.506413889706
 21
725.8988715438698
 31
0.0
  0
ARC
  5
1B8
330
2
100
AcDbEntity
  8
0
100
AcDbCircle
 10
1756.39909451554
 20
629.9240539646307
 30
0.0
 40
26.44975287616828
100
AcDbArc
 50
50.48234720282692
 51
129.517652797173
  0
LINE
  5
1B9
330
2
100
AcDbEntity
  8
0
100
AcDbLine
 10
1749.59772949024
 20
636.3943328236769
 30
0.0
 11
1763.200459540841
 21
636.3943328236769
 31
0.0
  0
LINE
  5
1BA
330
2
100
AcDbEntity
  8
0
100
AcDbLine
 10
1760.933337865741
 20
608.5869806429144
 30
0.0
 11
1751.86485116534
 21
608.5869806429144
 31
0.0
  0
ARC
  5
1BB
330
2
100
AcDbEntity
  8
0
100
AcDbCircle
 10
1756.39909451554
 20
657.1295140658324
 30
0.0
 40
26.44975287616828
100
AcDbArc
 50
44.415308597193
 51
135.584691402807
  0
LINE
  5
1BC
330
2
100
AcDbEntity
  8
0
100
AcDbLine
 10
1737.506413889706
 20
650.3281490405319
 30
0.0
 11
1775.291775141375
 21
650.3281490405319
 31
0.0
  0
ARC
  5
1BD
330
2
100
AcDbEntity
  8
0
100
AcDbCircle
 10
1756.39909451554
 20
650.3281490405319
 30
0.0
 40
26.44975287616828
100
AcDbArc
 50
44.415308597193
 51
135.584691402807
  0
ARC
  5
1BE
330
2
100
AcDbEntity
  8
0
100
AcDbCircle
 10
1756.39909451554
 20
643.5267840152314
 30
0.0
 40
26.44975287616828
100
AcDbArc
 50
44.415308597193
 51
135.584691402807
  0
ARC
  5
1BF
330
2
100
AcDbEntity
  8
0
100
AcDbCircle
 10
1756.39909451554
 20
636.7254189899309
 30
0.0
 40
26.44975287616828
100
AcDbArc
 50
44.415308597193
 51
135.584691402807
  0
ARC
  5
1C0
330
2
100
AcDbEntity
  8
0
100
AcDbCircle
 10
1756.39909451554
 20
663.9308790911326
 30
0.0
 40
26.44975287616828
100
AcDbArc
 50
44.415308597193
 51
135.584691402807
  0
LINE
  5
1C1
330
2
100
AcDbEntity
  8
0
100
AcDbLine
 10
1751.86485116534
 20
765.2630250543289
 30
0.0
 11
1749.59772949024
 21
764.9045333073299
 31
0.0
  0
LINE
  5
1C2
330
2
100
AcDbEntity
  8
0
100
AcDbLine
 10
1737.506413889706
 20
650.3281490405319
 30
0.0
 11
1737.506413889706
 21
725.8988715438698
 31
0.0
  0
LINE
  5
1C3
330
2
100
AcDbEntity
  8
0
100
AcDbLine
 10
1751.86485116534
 20
635.3952252660814
 30
0.0
 11
1749.59772949024
 21
635.0367335190827
 31
0.0
  0
LINE
  5
1C4
330
2
100
AcDbEntity
  8
0
100
AcDbLine
 10
1751.86485116534
 20
608.9454723899132
 30
0.0
 11
1749.59772949024
 21
608.5869806429144
 31
0.0
  0
LINE
  5
1C5
330
2
100
AcDbEntity
  8
0
100
AcDbLine
 10
1751.86485116534
 20
610.1657729017046
 30
0.0
 11
1749.59772949024
 21
609.8072811547056
 31
0.0
  0
LINE
  5
1C6
330
2
100
AcDbEntity
  8
0
100
AcDbLine
 10
1751.86485116534
 20
616.5025446402474
 30
0.0
 11
1749.59772949024
 21
616.1440528932482
 31
0.0
  0
LINE
  5
1C7
330
2
100
AcDbEntity
  8
0
100
AcDbLine
 10
1751.86485116534
 20
617.7228451520382
 30
0.0
 11
1749.59772949024
 21
617.3643534050394
 31
0.0
  0
LINE
  5
1C8
330
2
100
AcDbEntity
  8
0
100
AcDbLine
 10
1751.86485116534
 20
624.059616890581
 30
0.0
 11
1749.59772949024
 21
623.7011251435819
 31
0.0
  0
LINE
  5
1C9
330
2
100
AcDbEntity
  8
0
100
AcDbLine
 10
1751.86485116534
 20
625.279917402372
 30
0.0
 11
1749.59772949024
 21
624.9214256553732
 31
0.0
  0
LINE
  5
1CA
330
2
100
AcDbEntity
  8
0
100
AcDbLine
 10
1751.86485116534
 20
631.6166891409145
 30
0.0
 11
1749.59772949024
 21
631.2581973939158
 31
0.0
  0
LINE
  5
1CB
330
2
100
AcDbEntity
  8
0
100
AcDbLine
 10
1751.86485116534
 20
632.8369896527058
 30
0.0
 11
1749.59772949024
 21
632.4784979057071
 31
0.0
  0
LINE
  5
1CC
330
2
100
AcDbEntity
  8
0
100
AcDbLine
 10
1751.86485116534
 20
635.3952252660816
 30
0.0
 11
1751.86485116534
 21
632.8369896527059
 31
0.0
  0
LINE
  5
1CD
330
2
100
AcDbEntity
  8
0
100
AcDbLine
 10
1750.466014664821
 20
636.3943328236769
 30
0.0
 11
1749.59772949024
 21
636.2570340308739
 31
0.0
  0
LINE
  5
1CE
330
2
100
AcDbEntity
  8
0
100
AcDbLine
 10
1751.86485116534
 20
631.6166891409145
 30
0.0
 11
1751.86485116534
 21
629.0584535275392
 31
0.0
  0
LINE
  5
1CF
330
2
100
AcDbEntity
  8
0
100
AcDbLine
 10
1751.86485116534
 20
627.8381530157479
 30
0.0
 11
1751.86485116534
 21
625.279917402372
 31
0.0
  0
LINE
  5
1D0
330
2
100
AcDbEntity
  8
0
100
AcDbLine
 10
1751.86485116534
 20
624.059616890581
 30
0.0
 11
1751.86485116534
 21
621.501381277205
 31
0.0
  0
LINE
  5
1D1
330
2
100
AcDbEntity
  8
0
100
AcDbLine
 10
1751.86485116534
 20
620.2810807654138
 30
0.0
 11
1751.86485116534
 21
617.7228451520382
 31
0.0
  0
LINE
  5
1D2
330
2
100
AcDbEntity
  8
0
100
AcDbLine
 10
1751.86485116534
 20
616.5025446402471
 30
0.0
 11
1751.86485116534
 21
613.9443090268712
 31
0.0
  0
LINE
  5
1D3
330
2
100
AcDbEntity
  8
0
100
AcDbLine
 10
1751.86485116534
 20
612.72400851508
 30
0.0
 11
1751.86485116534
 21
610.1657729017046
 31
0.0
  0
LINE
  5
1D4
330
2
100
AcDbEntity
  8
0
100
AcDbLine
 10
1749.59772949024
 20
636.2570340308739
 30
0.0
 11
1749.59772949024
 21
635.0367335190827
 31
0.0
  0
LINE
  5
1D5
330
2
100
AcDbEntity
  8
0
100
AcDbLine
 10
1749.59772949024
 20
632.4784979057071
 30
0.0
 11
1749.59772949024
 21
631.2581973939158
 31
0.0
  0
LINE
  5
1D6
330
2
100
AcDbEntity
  8
0
100
AcDbLine
 10
1749.59772949024
 20
609.8072811547056
 30
0.0
 11
1749.59772949024
 21
608.5869806429144
 31
0.0
  0
LINE
  5
1D7
330
2
100
AcDbEntity
  8
0
100
AcDbLine
 10
1749.59772949024
 20
624.9214256553732
 30
0.0
 11
1749.59772949024
 21
623.7011251435819
 31
0.0
  0
LINE
  5
1D8
330
2
100
AcDbEntity
  8
0
100
AcDbLine
 10
1749.59772949024
 20
617.3643534050394
 30
0.0
 11
1749.59772949024
 21
616.1440528932482
 31
0.0
  0
LINE
  5
1D9
330
2
100
AcDbEntity
  8
0
100
AcDbLine
 10
1751.86485116534
 20
608.9454723899132
 30
0.0
 11
1751.86485116534
 21
608.5869806429144
 31
0.0
  0
LINE
  5
1DA
330
2
100
AcDbEntity
  8
0
100
AcDbLine
 10
1749.59772949024
 20
636.3943328236769
 30
0.0
 11
1749.59772949024
 21
650.3281490405319
 31
0.0
  0
LINE
  5
1DB
330
2
100
AcDbEntity
  8
0
100
AcDbLine
 10
1749.59772949024
 20
757.3474610569961
 30
0.0
 11
1749.59772949024
 21
756.1271605452049
 31
0.0
  0
LINE
  5
1DC
330
2
100
AcDbEntity
  8
0
100
AcDbLine
 10
1751.86485116534
 20
735.0347360529935
 30
0.0
 11
1749.59772949024
 21
734.6762443059948
 31
0.0
  0
LINE
  5
1DD
330
2
100
AcDbEntity
  8
0
100
AcDbLine
 10
1751.86485116534
 20
733.8144355412023
 30
0.0
 11
1749.59772949024
 21
733.4559437942036
 31
0.0
  0
LINE
  5
1DE
330
2
100
AcDbEntity
  8
0
100
AcDbLine
 10
1751.86485116534
 20
741.3715077915361
 30
0.0
 11
1749.59772949024
 21
741.0130160445373
 31
0.0
  0
LINE
  5
1DF
330
2
100
AcDbEntity
  8
0
100
AcDbLine
 10
1751.86485116534
 20
742.5918083033276
 30
0.0
 11
1749.59772949024
 21
742.2333165563286
 31
0.0
  0
LINE
  5
1E0
330
2
100
AcDbEntity
  8
0
100
AcDbLine
 10
1751.86485116534
 20
748.9285800418699
 30
0.0
 11
1749.59772949024
 21
748.5700882948711
 31
0.0
  0
LINE
  5
1E1
330
2
100
AcDbEntity
  8
0
100
AcDbLine
 10
1751.86485116534
 20
750.1488805536616
 30
0.0
 11
1749.59772949024
 21
749.7903888066624
 31
0.0
  0
LINE
  5
1E2
330
2
100
AcDbEntity
  8
0
100
AcDbLine
 10
1751.86485116534
 20
756.4856522922037
 30
0.0
 11
1749.59772949024
 21
756.1271605452049
 31
0.0
  0
LINE
  5
1E3
330
2
100
AcDbEntity
  8
0
100
AcDbLine
 10
1751.86485116534
 20
756.4856522922037
 30
0.0
 11
1751.86485116534
 21
753.9274166788283
 31
0.0
  0
LINE
  5
1E4
330
2
100
AcDbEntity
  8
0
100
AcDbLine
 10
1751.86485116534
 20
737.5929716663695
 30
0.0
 11
1751.86485116534
 21
735.0347360529938
 31
0.0
  0
LINE
  5
1E5
330
2
100
AcDbEntity
  8
0
100
AcDbLine
 10
1751.86485116534
 20
741.3715077915361
 30
0.0
 11
1751.86485116534
 21
738.8132721781609
 31
0.0
  0
LINE
  5
1E6
330
2
100
AcDbEntity
  8
0
100
AcDbLine
 10
1751.86485116534
 20
745.1500439167032
 30
0.0
 11
1751.86485116534
 21
742.5918083033272
 31
0.0
  0
LINE
  5
1E7
330
2
100
AcDbEntity
  8
0
100
AcDbLine
 10
1751.86485116534
 20
748.9285800418697
 30
0.0
 11
1751.86485116534
 21
746.3703444284945
 31
0.0
  0
LINE
  5
1E8
330
2
100
AcDbEntity
  8
0
100
AcDbLine
 10
1751.86485116534
 20
752.707116167037
 30
0.0
 11
1751.86485116534
 21
750.148880553661
 31
0.0
  0
LINE
  5
1E9
330
2
100
AcDbEntity
  8
0
100
AcDbLine
 10
1749.59772949024
 20
742.2333165563286
 30
0.0
 11
1749.59772949024
 21
741.0130160445373
 31
0.0
  0
LINE
  5
1EA
330
2
100
AcDbEntity
  8
0
100
AcDbLine
 10
1749.59772949024
 20
749.7903888066624
 30
0.0
 11
1749.59772949024
 21
748.5700882948711
 31
0.0
  0
LINE
  5
1EB
330
2
100
AcDbEntity
  8
0
100
AcDbLine
 10
1749.59772949024
 20
734.6762443059948
 30
0.0
 11
1749.59772949024
 21
733.4559437942036
 31
0.0
  0
LINE
  5
1EC
330
2
100
AcDbEntity
  8
0
100
AcDbLine
 10
1751.86485116534
 20
757.7059528039954
 30
0.0
 11
1749.59772949024
 21
757.3474610569961
 31
0.0
  0
LINE
  5
1ED
330
2
100
AcDbEntity
  8
0
100
AcDbLine
 10
1751.86485116534
 20
764.0427245425375
 30
0.0
 11
1749.59772949024
 21
763.6842327955388
 31
0.0
  0
LINE
  5
1EE
330
2
100
AcDbEntity
  8
0
100
AcDbLine
 10
1751.86485116534
 20
764.0427245425375
 30
0.0
 11
1751.86485116534
 21
761.4844889291618
 31
0.0
  0
LINE
  5
1EF
330
2
100
AcDbEntity
  8
0
100
AcDbLine
 10
1751.86485116534
 20
760.2641884173711
 30
0.0
 11
1751.86485116534
 21
757.7059528039951
 31
0.0
  0
LINE
  5
1F0
330
2
100
AcDbEntity
  8
0
100
AcDbLine
 10
1749.59772949024
 20
764.9045333073299
 30
0.0
 11
1749.59772949024
 21
763.6842327955388
 31
0.0
  0
LINE
  5
1F1
330
2
100
AcDbEntity
  8
0
100
AcDbLine
 10
1751.86485116534
 20
726.2573632908686
 30
0.0
 11
1749.59772949024
 21
725.8988715438698
 31
0.0
  0
LINE
  5
1F2
330
2
100
AcDbEntity
  8
0
100
AcDbLine
 10
1751.86485116534
 20
727.47766380266
 30
0.0
 11
1749.59772949024
 21
727.1191720556609
 31
0.0
  0
LINE
  5
1F3
330
2
100
AcDbEntity
  8
0
100
AcDbLine
 10
1751.86485116534
 20
730.0358994160359
 30
0.0
 11
1751.86485116534
 21
727.47766380266
 31
0.0
  0
LINE
  5
1F4
330
2
100
AcDbEntity
  8
0
100
AcDbLine
 10
1751.86485116534
 20
726.2573632908686
 30
0.0
 11
1751.86485116534
 21
725.8988715438698
 31
0.0
  0
LINE
  5
1F5
330
2
100
AcDbEntity
  8
0
100
AcDbLine
 10
1749.59772949024
 20
727.1191720556609
 30
0.0
 11
1749.59772949024
 21
725.8988715438698
 31
0.0
  0
LINE
  5
1F6
330
2
100
AcDbEntity
  8
0
100
AcDbLine
 10
1751.86485116534
 20
733.8144355412025
 30
0.0
 11
1751.86485116534
 21
731.2561999278268
 31
0.0
  0
LINE
  5
1F7
330
2
100
AcDbEntity
  8
0
100
AcDbLine
 10
1737.506413889706
 20
725.8988715438698
 30
0.0
 11
1731.954091359878
 21
725.8988715438698
 31
0.0
  0
ARC
  5
1F8
330
2
100
AcDbEntity
  8
0
100
AcDbCircle
 10
1756.39909451554
 20
704.7390692429353
 30
0.0
 40
26.44975287616828
100
AcDbArc
 50
126.8698976458444
 51
135.584691402807
  0
LINE
  5
1F9
330
2
100
AcDbEntity
  8
0
100
AcDbLine
 10
1751.86485116534
 20
840.9710463504696
 30
0.0
 11
1751.86485116534
 21
838.4128107370939
 31
0.0
  0
LINE
  5
1FA
330
2
100
AcDbEntity
  8
0
100
AcDbLine
 10
1749.59772949024
 20
838.0543189900953
 30
0.0
 11
1749.59772949024
 21
836.834018478304
 31
0.0
  0
LINE
  5
1FB
330
2
100
AcDbEntity
  8
0
100
AcDbLine
 10
1749.59772949024
 20
830.4972467397615
 30
0.0
 11
1749.59772949024
 21
829.2769462279702
 31
0.0
  0
LINE
  5
1FC
330
2
100
AcDbEntity
  8
0
100
AcDbLine
 10
1751.86485116534
 20
833.4139741001358
 30
0.0
 11
1751.86485116534
 21
830.8557384867604
 31
0.0
  0
LINE
  5
1FD
330
2
100
AcDbEntity
  8
0
100
AcDbLine
 10
1751.86485116534
 20
837.192510225303
 30
0.0
 11
1751.86485116534
 21
834.6342746119271
 31
0.0
  0
LINE
  5
1FE
330
2
100
AcDbEntity
  8
0
100
AcDbLine
 10
1751.86485116534
 20
838.4128107370939
 30
0.0
 11
1749.59772949024
 21
838.0543189900953
 31
0.0
  0
LINE
  5
1FF
330
2
100
AcDbEntity
  8
0
100
AcDbLine
 10
1751.86485116534
 20
837.1925102253031
 30
0.0
 11
1749.59772949024
 21
836.834018478304
 31
0.0
  0
LINE
  5
200
330
2
100
AcDbEntity
  8
0
100
AcDbLine
 10
1751.86485116534
 20
830.8557384867604
 30
0.0
 11
1749.59772949024
 21
830.4972467397615
 31
0.0
  0
LINE
  5
201
330
2
100
AcDbEntity
  8
0
100
AcDbLine
 10
1751.86485116534
 20
829.635437974969
 30
0.0
 11
1749.59772949024
 21
829.2769462279702
 31
0.0
  0
LINE
  5
202
330
2
100
AcDbEntity
  8
0
100
AcDbLine
 10
1749.59772949024
 20
845.611391240429
 30
0.0
 11
1749.59772949024
 21
844.3910907286378
 31
0.0
  0
LINE
  5
203
330
2
100
AcDbEntity
  8
0
100
AcDbLine
 10
1749.59772949024
 20
853.1684634907628
 30
0.0
 11
1749.59772949024
 21
851.9481629789716
 31
0.0
  0
LINE
  5
204
330
2
100
AcDbEntity
  8
0
100
AcDbLine
 10
1749.59772949024
 20
856.9469996159297
 30
0.0
 11
1749.59772949024
 21
855.7266991041386
 31
0.0
  0
LINE
  5
205
330
2
100
AcDbEntity
  8
0
100
AcDbLine
 10
1751.86485116534
 20
844.7495824756368
 30
0.0
 11
1751.86485116534
 21
842.1913468622609
 31
0.0
  0
LINE
  5
206
330
2
100
AcDbEntity
  8
0
100
AcDbLine
 10
1751.86485116534
 20
848.5281186008036
 30
0.0
 11
1751.86485116534
 21
845.9698829874279
 31
0.0
  0
LINE
  5
207
330
2
100
AcDbEntity
  8
0
100
AcDbLine
 10
1751.86485116534
 20
852.3066547259704
 30
0.0
 11
1751.86485116534
 21
849.748419112595
 31
0.0
  0
LINE
  5
208
330
2
100
AcDbEntity
  8
0
100
AcDbLine
 10
1750.466014664821
 20
857.0842984087327
 30
0.0
 11
1749.59772949024
 21
856.9469996159297
 31
0.0
  0
LINE
  5
209
330
2
100
AcDbEntity
  8
0
100
AcDbLine
 10
1751.86485116534
 20
856.0851908511374
 30
0.0
 11
1751.86485116534
 21
853.5269552377616
 31
0.0
  0
LINE
  5
20A
330
2
100
AcDbEntity
  8
0
100
AcDbLine
 10
1751.86485116534
 20
853.5269552377615
 30
0.0
 11
1749.59772949024
 21
853.1684634907628
 31
0.0
  0
LINE
  5
20B
330
2
100
AcDbEntity
  8
0
100
AcDbLine
 10
1751.86485116534
 20
852.3066547259704
 30
0.0
 11
1749.59772949024
 21
851.9481629789716
 31
0.0
  0
LINE
  5
20C
330
2
100
AcDbEntity
  8
0
100
AcDbLine
 10
1751.86485116534
 20
845.9698829874279
 30
0.0
 11
1749.59772949024
 21
845.611391240429
 31
0.0
  0
LINE
  5
20D
330
2
100
AcDbEntity
  8
0
100
AcDbLine
 10
1751.86485116534
 20
844.7495824756368
 30
0.0
 11
1749.59772949024
 21
844.3910907286378
 31
0.0
  0
LINE
  5
20E
330
2
100
AcDbEntity
  8
0
100
AcDbLine
 10
1751.86485116534
 20
856.0851908511372
 30
0.0
 11
1749.59772949024
 21
855.7266991041386
 31
0.0
  0
LINE
  5
20F
330
2
100
AcDbEntity
  8
0
100
AcDbLine
 10
1751.86485116534
 20
799.407148973634
 30
0.0
 11
1751.86485116534
 21
796.8489133602583
 31
0.0
  0
LINE
  5
210
330
2
100
AcDbEntity
  8
0
100
AcDbLine
 10
1749.59772949024
 20
792.7118854880924
 30
0.0
 11
1749.59772949024
 21
791.4915849763013
 31
0.0
  0
LINE
  5
211
330
2
100
AcDbEntity
  8
0
100
AcDbLine
 10
1751.86485116534
 20
791.8500767233
 30
0.0
 11
1751.86485116534
 21
791.4915849763013
 31
0.0
  0
LINE
  5
212
330
2
100
AcDbEntity
  8
0
100
AcDbLine
 10
1751.86485116534
 20
795.6286128484673
 30
0.0
 11
1751.86485116534
 21
793.0703772350914
 31
0.0
  0
LINE
  5
213
330
2
100
AcDbEntity
  8
0
100
AcDbLine
 10
1751.86485116534
 20
793.0703772350914
 30
0.0
 11
1749.59772949024
 21
792.7118854880924
 31
0.0
  0
LINE
  5
214
330
2
100
AcDbEntity
  8
0
100
AcDbLine
 10
1751.86485116534
 20
791.8500767233
 30
0.0
 11
1749.59772949024
 21
791.4915849763013
 31
0.0
  0
LINE
  5
215
330
2
100
AcDbEntity
  8
0
100
AcDbLine
 10
1751.86485116534
 20
825.8569018498025
 30
0.0
 11
1751.86485116534
 21
823.2986662364265
 31
0.0
  0
LINE
  5
216
330
2
100
AcDbEntity
  8
0
100
AcDbLine
 10
1751.86485116534
 20
823.2986662364268
 30
0.0
 11
1749.59772949024
 21
822.9401744894275
 31
0.0
  0
LINE
  5
217
330
2
100
AcDbEntity
  8
0
100
AcDbLine
 10
1749.59772949024
 20
800.2689577384263
 30
0.0
 11
1749.59772949024
 21
799.0486572266351
 31
0.0
  0
LINE
  5
218
330
2
100
AcDbEntity
  8
0
100
AcDbLine
 10
1749.59772949024
 20
815.3831022390939
 30
0.0
 11
1749.59772949024
 21
814.1628017273026
 31
0.0
  0
LINE
  5
219
330
2
100
AcDbEntity
  8
0
100
AcDbLine
 10
1749.59772949024
 20
807.8260299887601
 30
0.0
 11
1749.59772949024
 21
806.6057294769688
 31
0.0
  0
LINE
  5
21A
330
2
100
AcDbEntity
  8
0
100
AcDbLine
 10
1751.86485116534
 20
818.2998295994684
 30
0.0
 11
1751.86485116534
 21
815.7415939860925
 31
0.0
  0
LINE
  5
21B
330
2
100
AcDbEntity
  8
0
100
AcDbLine
 10
1751.86485116534
 20
814.521293474301
 30
0.0
 11
1751.86485116534
 21
811.9630578609259
 31
0.0
  0
LINE
  5
21C
330
2
100
AcDbEntity
  8
0
100
AcDbLine
 10
1751.86485116534
 20
810.7427573491346
 30
0.0
 11
1751.86485116534
 21
808.1845217357585
 31
0.0
  0
LINE
  5
21D
330
2
100
AcDbEntity
  8
0
100
AcDbLine
 10
1751.86485116534
 20
806.9642212239676
 30
0.0
 11
1751.86485116534
 21
804.4059856105922
 31
0.0
  0
LINE
  5
21E
330
2
100
AcDbEntity
  8
0
100
AcDbLine
 10
1751.86485116534
 20
803.185685098801
 30
0.0
 11
1751.86485116534
 21
800.6274494854253
 31
0.0
  0
LINE
  5
21F
330
2
100
AcDbEntity
  8
0
100
AcDbLine
 10
1751.86485116534
 20
822.0783657246352
 30
0.0
 11
1751.86485116534
 21
819.5201301112597
 31
0.0
  0
LINE
  5
220
330
2
100
AcDbEntity
  8
0
100
AcDbLine
 10
1751.86485116534
 20
822.0783657246352
 30
0.0
 11
1749.59772949024
 21
821.7198739776364
 31
0.0
  0
LINE
  5
221
330
2
100
AcDbEntity
  8
0
100
AcDbLine
 10
1751.86485116534
 20
815.741593986093
 30
0.0
 11
1749.59772949024
 21
815.3831022390939
 31
0.0
  0
LINE
  5
222
330
2
100
AcDbEntity
  8
0
100
AcDbLine
 10
1751.86485116534
 20
814.5212934743014
 30
0.0
 11
1749.59772949024
 21
814.1628017273026
 31
0.0
  0
LINE
  5
223
330
2
100
AcDbEntity
  8
0
100
AcDbLine
 10
1751.86485116534
 20
808.184521735759
 30
0.0
 11
1749.59772949024
 21
807.8260299887601
 31
0.0
  0
LINE
  5
224
330
2
100
AcDbEntity
  8
0
100
AcDbLine
 10
1751.86485116534
 20
806.9642212239676
 30
0.0
 11
1749.59772949024
 21
806.6057294769688
 31
0.0
  0
LINE
  5
225
330
2
100
AcDbEntity
  8
0
100
AcDbLine
 10
1751.86485116534
 20
799.4071489736337
 30
0.0
 11
1749.59772949024
 21
799.0486572266351
 31
0.0
  0
LINE
  5
226
330
2
100
AcDbEntity
  8
0
100
AcDbLine
 10
1751.86485116534
 20
800.6274494854249
 30
0.0
 11
1749.59772949024
 21
800.2689577384263
 31
0.0
  0
LINE
  5
227
330
2
100
AcDbEntity
  8
0
100
AcDbLine
 10
1749.59772949024
 20
822.9401744894275
 30
0.0
 11
1749.59772949024
 21
821.7198739776364
 31
0.0
  0
LINE
  5
228
330
2
100
AcDbEntity
  8
0
100
AcDbLine
 10
1751.86485116534
 20
790.4924774187057
 30
0.0
 11
1749.59772949024
 21
790.1339856717071
 31
0.0
  0
LINE
  5
229
330
2
100
AcDbEntity
  8
0
100
AcDbLine
 10
1751.86485116534
 20
779.1568690432053
 30
0.0
 11
1749.59772949024
 21
778.7983772962063
 31
0.0
  0
LINE
  5
22A
330
2
100
AcDbEntity
  8
0
100
AcDbLine
 10
1751.86485116534
 20
780.3771695549963
 30
0.0
 11
1749.59772949024
 21
780.0186778079976
 31
0.0
  0
LINE
  5
22B
330
2
100
AcDbEntity
  8
0
100
AcDbLine
 10
1751.86485116534
 20
786.7139412935389
 30
0.0
 11
1749.59772949024
 21
786.3554495465401
 31
0.0
  0
LINE
  5
22C
330
2
100
AcDbEntity
  8
0
100
AcDbLine
 10
1751.86485116534
 20
787.93424180533
 30
0.0
 11
1749.59772949024
 21
787.5757500583314
 31
0.0
  0
LINE
  5
22D
330
2
100
AcDbEntity
  8
0
100
AcDbLine
 10
1751.86485116534
 20
790.492477418706
 30
0.0
 11
1751.86485116534
 21
787.9342418053303
 31
0.0
  0
LINE
  5
22E
330
2
100
AcDbEntity
  8
0
100
AcDbLine
 10
1750.466014664821
 20
791.4915849763013
 30
0.0
 11
1749.59772949024
 21
791.3542861834983
 31
0.0
  0
LINE
  5
22F
330
2
100
AcDbEntity
  8
0
100
AcDbLine
 10
1751.86485116534
 20
786.7139412935389
 30
0.0
 11
1751.86485116534
 21
784.1557056801637
 31
0.0
  0
LINE
  5
230
330
2
100
AcDbEntity
  8
0
100
AcDbLine
 10
1751.86485116534
 20
782.9354051683722
 30
0.0
 11
1751.86485116534
 21
780.3771695549963
 31
0.0
  0
LINE
  5
231
330
2
100
AcDbEntity
  8
0
100
AcDbLine
 10
1751.86485116534
 20
779.1568690432053
 30
0.0
 11
1751.86485116534
 21
776.5986334298294
 31
0.0
  0
LINE
  5
232
330
2
100
AcDbEntity
  8
0
100
AcDbLine
 10
1749.59772949024
 20
791.3542861834983
 30
0.0
 11
1749.59772949024
 21
790.1339856717071
 31
0.0
  0
LINE
  5
233
330
2
100
AcDbEntity
  8
0
100
AcDbLine
 10
1749.59772949024
 20
787.5757500583314
 30
0.0
 11
1749.59772949024
 21
786.3554495465401
 31
0.0
  0
LINE
  5
234
330
2
100
AcDbEntity
  8
0
100
AcDbLine
 10
1749.59772949024
 20
780.0186778079976
 30
0.0
 11
1749.59772949024
 21
778.7983772962063
 31
0.0
  0
LINE
  5
235
330
2
100
AcDbEntity
  8
0
100
AcDbLine
 10
1751.86485116534
 20
829.635437974969
 30
0.0
 11
1751.86485116534
 21
827.0772023615933
 31
0.0
  0
LINE
  5
236
330
2
100
AcDbEntity
  8
0
100
AcDbLine
 10
1751.86485116534
 20
771.5997967928717
 30
0.0
 11
1749.59772949024
 21
771.2413050458726
 31
0.0
  0
LINE
  5
237
330
2
100
AcDbEntity
  8
0
100
AcDbLine
 10
1751.86485116534
 20
772.8200973046625
 30
0.0
 11
1749.59772949024
 21
772.4616055576638
 31
0.0
  0
LINE
  5
238
330
2
100
AcDbEntity
  8
0
100
AcDbLine
 10
1751.86485116534
 20
771.5997967928715
 30
0.0
 11
1751.86485116534
 21
769.0415611794955
 31
0.0
  0
LINE
  5
239
330
2
100
AcDbEntity
  8
0
100
AcDbLine
 10
1751.86485116534
 20
767.8212606677044
 30
0.0
 11
1751.86485116534
 21
765.2630250543289
 31
0.0
  0
LINE
  5
23A
330
2
100
AcDbEntity
  8
0
100
AcDbLine
 10
1749.59772949024
 20
772.4616055576638
 30
0.0
 11
1749.59772949024
 21
771.2413050458726
 31
0.0
  0
LINE
  5
23B
330
2
100
AcDbEntity
  8
0
100
AcDbLine
 10
1751.86485116534
 20
775.3783329180382
 30
0.0
 11
1751.86485116534
 21
772.8200973046625
 31
0.0
  0
LINE
  5
23C
330
2
100
AcDbEntity
  8
0
100
AcDbLine
 10
1760.93333786574
 20
765.476691530533
 30
0.0
 11
1760.933337865741
 21
762.918455917157
 31
0.0
  0
LINE
  5
23D
330
2
100
AcDbEntity
  8
0
100
AcDbLine
 10
1780.291775141375
 20
722.2255238053137
 30
0.0
 11
1849.143011137629
 21
722.2255238053137
 31
0.0
  0
CIRCLE
  5
23E
330
2
100
AcDbEntity
  8
0
100
AcDbCircle
 10
1814.717393139502
 20
660.7463943350697
 30
0.0
 40
5.289950575233655
  0
ARC
  5
23F
330
2
100
AcDbEntity
  8
0
100
AcDbCircle
 10
1831.914354857098
 20
657.7235654349363
 30
0.0
 40
5.289950575233655
100
AcDbArc
 50
0.0
 51
180.0
  0
ARC
  5
240
330
2
100
AcDbEntity
  8
0
100
AcDbCircle
 10
1797.520431421906
 20
657.7235654349363
 30
0.0
 40
5.289950575233655
100
AcDbArc
 50
0.0
 51
180.0
  0
LINE
  5
241
330
2
100
AcDbEntity
  8
0
100
AcDbLine
 10
1775.291775141375
 20
650.3281490405319
 30
0.0
 11
1775.291775141375
 21
725.8988715438698
 31
0.0
  0
LINE
  5
242
330
2
100
AcDbEntity
  8
0
100
AcDbLine
 10
1802.81038199714
 20
650.3281490405316
 30
0.0
 11
1792.230480846673
 21
650.3281490405316
 31
0.0
  0
ARC
  5
243
330
2
100
AcDbEntity
  8
0
100
AcDbCircle
 10
1797.520431421906
 20
648.6550787345354
 30
0.0
 40
5.289950575233655
100
AcDbArc
 50
180.0
 51
0.0
  0
ARC
  5
244
330
2
100
AcDbEntity
  8
0
100
AcDbCircle
 10
1797.520431421906
 20
578.3743068064316
 30
0.0
 40
5.289950575233655
100
AcDbArc
 50
0.0
 51
180.0
  0
ARC
  5
245
330
2
100
AcDbEntity
  8
0
100
AcDbCircle
 10
1797.520431421906
 20
569.3058201060305
 30
0.0
 40
5.289950575233655
100
AcDbArc
 50
180.0
 51
0.0
  0
ARC
  5
246
330
2
100
AcDbEntity
  8
0
100
AcDbCircle
 10
1797.520431421906
 20
622.2053258583671
 30
0.0
 40
5.289950575233655
100
AcDbArc
 50
180.0
 51
0.0
  0
ARC
  5
247
330
2
100
AcDbEntity
  8
0
100
AcDbCircle
 10
1797.520431421906
 20
604.8240596825997
 30
0.0
 40
5.289950575233655
100
AcDbArc
 50
0.0
 51
180.0
  0
ARC
  5
248
330
2
100
AcDbEntity
  8
0
100
AcDbCircle
 10
1797.520431421906
 20
595.755572982199
 30
0.0
 40
5.289950575233655
100
AcDbArc
 50
180.0
 51
0.0
  0
ARC
  5
249
330
2
100
AcDbEntity
  8
0
100
AcDbCircle
 10
1797.520431421906
 20
631.2738125587681
 30
0.0
 40
5.289950575233655
100
AcDbArc
 50
0.0
 51
180.0
  0
LINE
  5
24A
330
2
100
AcDbEntity
  8
0
100
AcDbLine
 10
1792.230480846673
 20
648.6550787345351
 30
0.0
 11
1792.230480846673
 21
657.7235654349363
 31
0.0
  0
LINE
  5
24B
330
2
100
AcDbEntity
  8
0
100
AcDbLine
 10
1792.230480846673
 20
569.3058201060305
 30
0.0
 11
1792.230480846673
 21
578.3743068064313
 31
0.0
  0
LINE
  5
24C
330
2
100
AcDbEntity
  8
0
100
AcDbLine
 10
1792.230480846673
 20
595.7555729821986
 30
0.0
 11
1792.230480846673
 21
604.8240596825997
 31
0.0
  0
LINE
  5
24D
330
2
100
AcDbEntity
  8
0
100
AcDbLine
 10
1792.230480846673
 20
622.2053258583671
 30
0.0
 11
1792.230480846673
 21
631.2738125587677
 31
0.0
  0
LINE
  5
24E
330
2
100
AcDbEntity
  8
0
100
AcDbLine
 10
1763.200459540841
 20
610.7379311249074
 30
0.0
 11
1760.93333786574
 21
610.3794393779085
 31
0.0
  0
LINE
  5
24F
330
2
100
AcDbEntity
  8
0
100
AcDbLine
 10
1763.200459540841
 20
611.9582316366985
 30
0.0
 11
1760.933337865741
 21
611.5997398896998
 31
0.0
  0
LINE
  5
250
330
2
100
AcDbEntity
  8
0
100
AcDbLine
 10
1763.200459540841
 20
618.2950033752411
 30
0.0
 11
1760.93333786574
 21
617.9365116282426
 31
0.0
  0
LINE
  5
251
330
2
100
AcDbEntity
  8
0
100
AcDbLine
 10
1763.200459540841
 20
619.5153038870323
 30
0.0
 11
1760.93333786574
 21
619.1568121400333
 31
0.0
  0
LINE
  5
252
330
2
100
AcDbEntity
  8
0
100
AcDbLine
 10
1763.200459540841
 20
625.8520756255749
 30
0.0
 11
1760.933337865741
 21
625.4935838785759
 31
0.0
  0
LINE
  5
253
330
2
100
AcDbEntity
  8
0
100
AcDbLine
 10
1763.200459540841
 20
627.072376137366
 30
0.0
 11
1760.933337865741
 21
626.7138843903674
 31
0.0
  0
LINE
  5
254
330
2
100
AcDbEntity
  8
0
100
AcDbLine
 10
1763.200459540841
 20
633.4091478759087
 30
0.0
 11
1760.933337865741
 21
633.0506561289099
 31
0.0
  0
LINE
  5
255
330
2
100
AcDbEntity
  8
0
100
AcDbLine
 10
1763.200459540841
 20
634.6294483876999
 30
0.0
 11
1760.933337865741
 21
634.270956640701
 31
0.0
  0
LINE
  5
256
330
2
100
AcDbEntity
  8
0
100
AcDbLine
 10
1760.933337865741
 20
636.3943328236769
 30
0.0
 11
1760.933337865741
 21
634.2709566407011
 31
0.0
  0
LINE
  5
257
330
2
100
AcDbEntity
  8
0
100
AcDbLine
 10
1760.933337865741
 20
633.0506561289099
 30
0.0
 11
1760.933337865741
 21
630.4924205155344
 31
0.0
  0
LINE
  5
258
330
2
100
AcDbEntity
  8
0
100
AcDbLine
 10
1760.933337865741
 20
629.2721200037431
 30
0.0
 11
1760.93333786574
 21
626.7138843903676
 31
0.0
  0
LINE
  5
259
330
2
100
AcDbEntity
  8
0
100
AcDbLine
 10
1760.93333786574
 20
625.4935838785761
 30
0.0
 11
1760.93333786574
 21
622.9353482652004
 31
0.0
  0
LINE
  5
25A
330
2
100
AcDbEntity
  8
0
100
AcDbLine
 10
1760.93333786574
 20
621.7150477534093
 30
0.0
 11
1760.93333786574
 21
619.1568121400337
 31
0.0
  0
LINE
  5
25B
330
2
100
AcDbEntity
  8
0
100
AcDbLine
 10
1760.93333786574
 20
617.9365116282427
 30
0.0
 11
1760.933337865741
 21
615.3782760148665
 31
0.0
  0
LINE
  5
25C
330
2
100
AcDbEntity
  8
0
100
AcDbLine
 10
1760.933337865741
 20
614.1579755030754
 30
0.0
 11
1760.93333786574
 21
611.5997398896998
 31
0.0
  0
LINE
  5
25D
330
2
100
AcDbEntity
  8
0
100
AcDbLine
 10
1760.93333786574
 20
610.3794393779085
 30
0.0
 11
1760.933337865741
 21
608.5869806429144
 31
0.0
  0
LINE
  5
25E
330
2
100
AcDbEntity
  8
0
100
AcDbLine
 10
1763.200459540841
 20
634.6294483876999
 30
0.0
 11
1763.200459540841
 21
633.4091478759087
 31
0.0
  0
LINE
  5
25F
330
2
100
AcDbEntity
  8
0
100
AcDbLine
 10
1763.200459540841
 20
611.9582316366985
 30
0.0
 11
1763.200459540841
 21
610.7379311249074
 31
0.0
  0
LINE
  5
260
330
2
100
AcDbEntity
  8
0
100
AcDbLine
 10
1763.200459540841
 20
627.072376137366
 30
0.0
 11
1763.200459540841
 21
625.8520756255749
 31
0.0
  0
LINE
  5
261
330
2
100
AcDbEntity
  8
0
100
AcDbLine
 10
1763.200459540841
 20
619.5153038870323
 30
0.0
 11
1763.200459540841
 21
618.2950033752411
 31
0.0
  0
LINE
  5
262
330
2
100
AcDbEntity
  8
0
100
AcDbLine
 10
1763.200459540841
 20
636.3943328236769
 30
0.0
 11
1763.200459540841
 21
650.3281490405319
 31
0.0
  0
LINE
  5
263
330
2
100
AcDbEntity
  8
0
100
AcDbLine
 10
1837.204305432331
 20
650.3281490405316
 30
0.0
 11
1826.624404281864
 21
650.3281490405316
 31
0.0
  0
LINE
  5
264
330
2
100
AcDbEntity
  8
0
100
AcDbLine
 10
1826.624404281864
 20
648.6550787345351
 30
0.0
 11
1826.624404281864
 21
657.7235654349363
 31
0.0
  0
LINE
  5
265
330
2
100
AcDbEntity
  8
0
100
AcDbLine
 10
1837.204305432331
 20
648.6550787345351
 30
0.0
 11
1837.204305432331
 21
657.7235654349363
 31
0.0
  0
ARC
  5
266
330
2
100
AcDbEntity
  8
0
100
AcDbCircle
 10
1831.914354857098
 20
648.6550787345354
 30
0.0
 40
5.289950575233655
100
AcDbArc
 50
180.0
 51
0.0
  0
ARC
  5
267
330
2
100
AcDbEntity
  8
0
100
AcDbCircle
 10
1831.914354857098
 20
578.3743068064316
 30
0.0
 40
5.289950575233655
100
AcDbArc
 50
0.0
 51
180.0
  0
CIRCLE
  5
268
330
2
100
AcDbEntity
  8
0
100
AcDbCircle
 10
1814.717393139502
 20
585.1756718317317
 30
0.0
 40
5.289950575233655
  0
CIRCLE
  5
269
330
2
100
AcDbEntity
  8
0
100
AcDbCircle
 10
1814.717393139502
 20
562.5044550807303
 30
0.0
 40
5.289950575233655
  0
ARC
  5
26A
330
2
100
AcDbEntity
  8
0
100
AcDbCircle
 10
1831.914354857098
 20
569.3058201060305
 30
0.0
 40
5.289950575233655
100
AcDbArc
 50
180.0
 51
0.0
  0
LINE
  5
26B
330
2
100
AcDbEntity
  8
0
100
AcDbLine
 10
1826.624404281864
 20
569.3058201060305
 30
0.0
 11
1826.624404281864
 21
578.3743068064313
 31
0.0
  0
LINE
  5
26C
330
2
100
AcDbEntity
  8
0
100
AcDbLine
 10
1837.204305432331
 20
569.3058201060305
 30
0.0
 11
1837.204305432331
 21
578.3743068064313
 31
0.0
  0
ARC
  5
26D
330
2
100
AcDbEntity
  8
0
100
AcDbCircle
 10
1831.914354857098
 20
622.2053258583671
 30
0.0
 40
5.289950575233655
100
AcDbArc
 50
180.0
 51
0.0
  0
CIRCLE
  5
26E
330
2
100
AcDbEntity
  8
0
100
AcDbCircle
 10
1814.717393139502
 20
607.846888582733
 30
0.0
 40
5.289950575233655
  0
ARC
  5
26F
330
2
100
AcDbEntity
  8
0
100
AcDbCircle
 10
1831.914354857098
 20
604.8240596825997
 30
0.0
 40
5.289950575233655
100
AcDbArc
 50
0.0
 51
180.0
  0
ARC
  5
270
330
2
100
AcDbEntity
  8
0
100
AcDbCircle
 10
1831.914354857098
 20
595.755572982199
 30
0.0
 40
5.289950575233655
100
AcDbArc
 50
180.0
 51
0.0
  0
LINE
  5
271
330
2
100
AcDbEntity
  8
0
100
AcDbLine
 10
1837.204305432331
 20
595.7555729821986
 30
0.0
 11
1837.204305432331
 21
604.8240596825997
 31
0.0
  0
LINE
  5
272
330
2
100
AcDbEntity
  8
0
100
AcDbLine
 10
1826.624404281864
 20
595.7555729821986
 30
0.0
 11
1826.624404281864
 21
604.8240596825997
 31
0.0
  0
LINE
  5
273
330
2
100
AcDbEntity
  8
0
100
AcDbLine
 10
1826.624404281864
 20
622.2053258583671
 30
0.0
 11
1826.624404281864
 21
631.2738125587677
 31
0.0
  0
LINE
  5
274
330
2
100
AcDbEntity
  8
0
100
AcDbLine
 10
1837.204305432331
 20
622.2053258583671
 30
0.0
 11
1837.204305432331
 21
631.2738125587677
 31
0.0
  0
CIRCLE
  5
275
330
2
100
AcDbEntity
  8
0
100
AcDbCircle
 10
1814.717393139502
 20
630.5181053337344
 30
0.0
 40
5.289950575233655
  0
ARC
  5
276
330
2
100
AcDbEntity
  8
0
100
AcDbCircle
 10
1831.914354857098
 20
631.2738125587681
 30
0.0
 40
5.289950575233655
100
AcDbArc
 50
0.0
 51
180.0
  0
LINE
  5
277
330
2
100
AcDbEntity
  8
0
100
AcDbLine
 10
1802.81038199714
 20
648.6550787345351
 30
0.0
 11
1802.81038199714
 21
657.7235654349363
 31
0.0
  0
LINE
  5
278
330
2
100
AcDbEntity
  8
0
100
AcDbLine
 10
1802.81038199714
 20
569.3058201060305
 30
0.0
 11
1802.81038199714
 21
578.3743068064313
 31
0.0
  0
LINE
  5
279
330
2
100
AcDbEntity
  8
0
100
AcDbLine
 10
1802.81038199714
 20
595.7555729821986
 30
0.0
 11
1802.81038199714
 21
604.8240596825997
 31
0.0
  0
LINE
  5
27A
330
2
100
AcDbEntity
  8
0
100
AcDbLine
 10
1802.81038199714
 20
622.2053258583671
 30
0.0
 11
1802.81038199714
 21
631.2738125587677
 31
0.0
  0
ARC
  5
27B
330
2
100
AcDbEntity
  8
0
100
AcDbCircle
 10
1797.520431421906
 20
684.1733183111048
 30
0.0
 40
5.289950575233655
100
AcDbArc
 50
0.0
 51
180.0
  0
ARC
  5
27C
330
2
100
AcDbEntity
  8
0
100
AcDbCircle
 10
1797.520431421906
 20
675.1048316107037
 30
0.0
 40
5.289950575233655
100
AcDbArc
 50
180.0
 51
0.0
  0
ARC
  5
27D
330
2
100
AcDbEntity
  8
0
100
AcDbCircle
 10
1797.520431421906
 20
710.6230711872728
 30
0.0
 40
5.289950575233655
100
AcDbArc
 50
0.0
 51
180.0
  0
ARC
  5
27E
330
2
100
AcDbEntity
  8
0
100
AcDbCircle
 10
1797.520431421906
 20
701.554584486872
 30
0.0
 40
5.289950575233655
100
AcDbArc
 50
180.0
 51
0.0
  0
LINE
  5
27F
330
2
100
AcDbEntity
  8
0
100
AcDbLine
 10
1792.230480846673
 20
675.1048316107035
 30
0.0
 11
1792.230480846673
 21
684.1733183111044
 31
0.0
  0
LINE
  5
280
330
2
100
AcDbEntity
  8
0
100
AcDbLine
 10
1792.230480846673
 20
701.5545844868718
 30
0.0
 11
1792.230480846673
 21
710.6230711872728
 31
0.0
  0
LINE
  5
281
330
2
100
AcDbEntity
  8
0
100
AcDbLine
 10
1780.291775141375
 20
722.2255238053137
 30
0.0
 11
1775.291775141375
 21
722.2255238053137
 31
0.0
  0
LINE
  5
282
330
2
100
AcDbEntity
  8
0
100
AcDbLine
 10
1760.933337865741
 20
757.9196192801991
 30
0.0
 11
1760.933337865741
 21
755.3613836668234
 31
0.0
  0
LINE
  5
283
330
2
100
AcDbEntity
  8
0
100
AcDbLine
 10
1763.200459540841
 20
736.8271947879877
 30
0.0
 11
1760.933337865741
 21
736.4687030409889
 31
0.0
  0
LINE
  5
284
330
2
100
AcDbEntity
  8
0
100
AcDbLine
 10
1763.200459540841
 20
735.6068942761964
 30
0.0
 11
1760.933337865741
 21
735.2484025291979
 31
0.0
  0
LINE
  5
285
330
2
100
AcDbEntity
  8
0
100
AcDbLine
 10
1763.200459540841
 20
743.1639665265302
 30
0.0
 11
1760.933337865741
 21
742.8054747795315
 31
0.0
  0
LINE
  5
286
330
2
100
AcDbEntity
  8
0
100
AcDbLine
 10
1763.200459540841
 20
744.3842670383214
 30
0.0
 11
1760.933337865741
 21
744.0257752913228
 31
0.0
  0
LINE
  5
287
330
2
100
AcDbEntity
  8
0
100
AcDbLine
 10
1763.200459540841
 20
750.7210387768641
 30
0.0
 11
1760.933337865741
 21
750.3625470298651
 31
0.0
  0
LINE
  5
288
330
2
100
AcDbEntity
  8
0
100
AcDbLine
 10
1763.200459540841
 20
751.9413392886552
 30
0.0
 11
1760.933337865741
 21
751.5828475416563
 31
0.0
  0
LINE
  5
289
330
2
100
AcDbEntity
  8
0
100
AcDbLine
 10
1760.933337865741
 20
754.1410831550322
 30
0.0
 11
1760.933337865741
 21
751.5828475416565
 31
0.0
  0
LINE
  5
28A
330
2
100
AcDbEntity
  8
0
100
AcDbLine
 10
1760.933337865741
 20
750.3625470298653
 30
0.0
 11
1760.933337865741
 21
747.8043114164896
 31
0.0
  0
LINE
  5
28B
330
2
100
AcDbEntity
  8
0
100
AcDbLine
 10
1760.933337865741
 20
746.5840109046985
 30
0.0
 11
1760.933337865741
 21
744.0257752913228
 31
0.0
  0
LINE
  5
28C
330
2
100
AcDbEntity
  8
0
100
AcDbLine
 10
1760.933337865741
 20
742.8054747795315
 30
0.0
 11
1760.933337865741
 21
740.2472391661558
 31
0.0
  0
LINE
  5
28D
330
2
100
AcDbEntity
  8
0
100
AcDbLine
 10
1760.933337865741
 20
739.0269386543646
 30
0.0
 11
1760.933337865741
 21
736.4687030409889
 31
0.0
  0
LINE
  5
28E
330
2
100
AcDbEntity
  8
0
100
AcDbLine
 10
1760.933337865741
 20
735.2484025291977
 30
0.0
 11
1760.933337865741
 21
732.6901669158218
 31
0.0
  0
LINE
  5
28F
330
2
100
AcDbEntity
  8
0
100
AcDbLine
 10
1763.200459540841
 20
744.3842670383214
 30
0.0
 11
1763.200459540841
 21
743.1639665265302
 31
0.0
  0
LINE
  5
290
330
2
100
AcDbEntity
  8
0
100
AcDbLine
 10
1763.200459540841
 20
751.9413392886552
 30
0.0
 11
1763.200459540841
 21
750.7210387768641
 31
0.0
  0
LINE
  5
291
330
2
100
AcDbEntity
  8
0
100
AcDbLine
 10
1763.200459540841
 20
736.8271947879877
 30
0.0
 11
1763.200459540841
 21
735.6068942761964
 31
0.0
  0
LINE
  5
292
330
2
100
AcDbEntity
  8
0
100
AcDbLine
 10
1763.200459540841
 20
758.2781110271979
 30
0.0
 11
1760.933337865741
 21
757.9196192801991
 31
0.0
  0
LINE
  5
293
330
2
100
AcDbEntity
  8
0
100
AcDbLine
 10
1763.200459540841
 20
759.4984115389891
 30
0.0
 11
1760.933337865741
 21
759.1399197919903
 31
0.0
  0
LINE
  5
294
330
2
100
AcDbEntity
  8
0
100
AcDbLine
 10
1760.933337865741
 20
761.698155405366
 30
0.0
 11
1760.933337865741
 21
759.1399197919903
 31
0.0
  0
LINE
  5
295
330
2
100
AcDbEntity
  8
0
100
AcDbLine
 10
1763.200459540841
 20
759.4984115389891
 30
0.0
 11
1763.200459540841
 21
758.2781110271979
 31
0.0
  0
ARC
  5
296
330
2
100
AcDbEntity
  8
0
100
AcDbCircle
 10
1756.39909451554
 20
704.7390692429353
 30
0.0
 40
26.44975287616828
100
AcDbArc
 50
44.415308597193
 51
53.1301023541555
  0
LINE
  5
297
330
2
100
AcDbEntity
  8
0
100
AcDbLine
 10
1763.200459540841
 20
728.0498220258627
 30
0.0
 11
1760.933337865741
 21
727.6913302788641
 31
0.0
  0
LINE
  5
298
330
2
100
AcDbEntity
  8
0
100
AcDbLine
 10
1763.200459540841
 20
729.2701225376539
 30
0.0
 11
1760.933337865741
 21
728.9116307906551
 31
0.0
  0
LINE
  5
299
330
2
100
AcDbEntity
  8
0
100
AcDbLine
 10
1760.933337865741
 20
731.4698664040308
 30
0.0
 11
1760.933337865741
 21
728.9116307906549
 31
0.0
  0
LINE
  5
29A
330
2
100
AcDbEntity
  8
0
100
AcDbLine
 10
1760.933337865741
 20
727.6913302788638
 30
0.0
 11
1760.933337865741
 21
725.8988715438698
 31
0.0
  0
LINE
  5
29B
330
2
100
AcDbEntity
  8
0
100
AcDbLine
 10
1763.200459540841
 20
729.2701225376539
 30
0.0
 11
1763.200459540841
 21
728.0498220258627
 31
0.0
  0
ARC
  5
29C
330
2
100
AcDbEntity
  8
0
100
AcDbCircle
 10
1831.914354857098
 20
684.1733183111048
 30
0.0
 40
5.289950575233655
100
AcDbArc
 50
0.0
 51
180.0
  0
CIRCLE
  5
29D
330
2
100
AcDbEntity
  8
0
100
AcDbCircle
 10
1814.717393139502
 20
683.417611086071
 30
0.0
 40
5.289950575233655
  0
LINE
  5
29E
330
2
100
AcDbEntity
  8
0
100
AcDbLine
 10
1837.204305432331
 20
675.1048316107035
 30
0.0
 11
1837.204305432331
 21
684.1733183111044
 31
0.0
  0
LINE
  5
29F
330
2
100
AcDbEntity
  8
0
100
AcDbLine
 10
1826.624404281864
 20
675.1048316107035
 30
0.0
 11
1826.624404281864
 21
684.1733183111044
 31
0.0
  0
ARC
  5
2A0
330
2
100
AcDbEntity
  8
0
100
AcDbCircle
 10
1831.914354857098
 20
675.1048316107037
 30
0.0
 40
5.289950575233655
100
AcDbArc
 50
180.0
 51
0.0
  0
CIRCLE
  5
2A1
330
2
100
AcDbEntity
  8
0
100
AcDbCircle
 10
1814.717393139502
 20
709.8673639622395
 30
0.0
 40
5.289950575233655
  0
ARC
  5
2A2
330
2
100
AcDbEntity
  8
0
100
AcDbCircle
 10
1831.914354857098
 20
710.6230711872728
 30
0.0
 40
5.289950575233655
100
AcDbArc
 50
0.0
 51
180.0
  0
ARC
  5
2A3
330
2
100
AcDbEntity
  8
0
100
AcDbCircle
 10
1831.914354857098
 20
701.554584486872
 30
0.0
 40
5.289950575233655
100
AcDbArc
 50
180.0
 51
0.0
  0
LINE
  5
2A4
330
2
100
AcDbEntity
  8
0
100
AcDbLine
 10
1826.624404281864
 20
701.5545844868718
 30
0.0
 11
1826.624404281864
 21
710.6230711872728
 31
0.0
  0
LINE
  5
2A5
330
2
100
AcDbEntity
  8
0
100
AcDbLine
 10
1837.204305432331
 20
701.5545844868718
 30
0.0
 11
1837.204305432331
 21
710.6230711872728
 31
0.0
  0
LINE
  5
2A6
330
2
100
AcDbEntity
  8
0
100
AcDbLine
 10
1802.81038199714
 20
675.1048316107035
 30
0.0
 11
1802.81038199714
 21
684.1733183111044
 31
0.0
  0
LINE
  5
2A7
330
2
100
AcDbEntity
  8
0
100
AcDbLine
 10
1802.81038199714
 20
701.5545844868718
 30
0.0
 11
1802.81038199714
 21
710.6230711872728
 31
0.0
  0
LINE
  5
2A8
330
2
100
AcDbEntity
  8
0
100
AcDbLine
 10
1849.143011137629
 20
650.3281490405314
 30
0.0
 11
1849.143011137629
 21
722.2255238053139
 31
0.0
  0
LINE
  5
2A9
330
2
100
AcDbEntity
  8
0
100
AcDbLine
 10
1760.93333786574
 20
842.405013338465
 30
0.0
 11
1760.93333786574
 21
839.8467777250896
 31
0.0
  0
LINE
  5
2AA
330
2
100
AcDbEntity
  8
0
100
AcDbLine
 10
1763.200459540841
 20
840.2052694720881
 30
0.0
 11
1763.200459540841
 21
838.9849689602968
 31
0.0
  0
LINE
  5
2AB
330
2
100
AcDbEntity
  8
0
100
AcDbLine
 10
1763.200459540841
 20
832.6481972217543
 30
0.0
 11
1763.200459540841
 21
831.427896709963
 31
0.0
  0
LINE
  5
2AC
330
2
100
AcDbEntity
  8
0
100
AcDbLine
 10
1760.933337865741
 20
834.8479410881312
 30
0.0
 11
1760.93333786574
 21
832.2897054747555
 31
0.0
  0
LINE
  5
2AD
330
2
100
AcDbEntity
  8
0
100
AcDbLine
 10
1760.93333786574
 20
838.6264772132985
 30
0.0
 11
1760.933337865741
 21
836.0682415999221
 31
0.0
  0
LINE
  5
2AE
330
2
100
AcDbEntity
  8
0
100
AcDbLine
 10
1763.200459540841
 20
840.2052694720881
 30
0.0
 11
1760.93333786574
 21
839.8467777250891
 31
0.0
  0
LINE
  5
2AF
330
2
100
AcDbEntity
  8
0
100
AcDbLine
 10
1763.200459540841
 20
838.9849689602968
 30
0.0
 11
1760.93333786574
 21
838.6264772132983
 31
0.0
  0
LINE
  5
2B0
330
2
100
AcDbEntity
  8
0
100
AcDbLine
 10
1763.200459540841
 20
832.6481972217543
 30
0.0
 11
1760.933337865741
 21
832.2897054747555
 31
0.0
  0
LINE
  5
2B1
330
2
100
AcDbEntity
  8
0
100
AcDbLine
 10
1763.200459540841
 20
831.427896709963
 30
0.0
 11
1760.93333786574
 21
831.0694049629644
 31
0.0
  0
LINE
  5
2B2
330
2
100
AcDbEntity
  8
0
100
AcDbLine
 10
1763.200459540841
 20
847.7623417224219
 30
0.0
 11
1763.200459540841
 21
846.5420412106308
 31
0.0
  0
LINE
  5
2B3
330
2
100
AcDbEntity
  8
0
100
AcDbLine
 10
1763.200459540841
 20
855.3194139727557
 30
0.0
 11
1763.200459540841
 21
854.0991134609646
 31
0.0
  0
LINE
  5
2B4
330
2
100
AcDbEntity
  8
0
100
AcDbLine
 10
1760.93333786574
 20
846.183549463632
 30
0.0
 11
1760.93333786574
 21
843.6253138502562
 31
0.0
  0
LINE
  5
2B5
330
2
100
AcDbEntity
  8
0
100
AcDbLine
 10
1760.933337865741
 20
849.9620855887988
 30
0.0
 11
1760.93333786574
 21
847.4038499754232
 31
0.0
  0
LINE
  5
2B6
330
2
100
AcDbEntity
  8
0
100
AcDbLine
 10
1760.933337865741
 20
853.7406217139658
 30
0.0
 11
1760.933337865741
 21
851.1823861005902
 31
0.0
  0
LINE
  5
2B7
330
2
100
AcDbEntity
  8
0
100
AcDbLine
 10
1760.933337865741
 20
857.0842984087327
 30
0.0
 11
1760.933337865741
 21
854.9609222257569
 31
0.0
  0
LINE
  5
2B8
330
2
100
AcDbEntity
  8
0
100
AcDbLine
 10
1763.200459540841
 20
855.3194139727557
 30
0.0
 11
1760.933337865741
 21
854.9609222257567
 31
0.0
  0
LINE
  5
2B9
330
2
100
AcDbEntity
  8
0
100
AcDbLine
 10
1763.200459540841
 20
854.0991134609646
 30
0.0
 11
1760.933337865741
 21
853.7406217139658
 31
0.0
  0
LINE
  5
2BA
330
2
100
AcDbEntity
  8
0
100
AcDbLine
 10
1763.200459540841
 20
847.7623417224219
 30
0.0
 11
1760.933337865741
 21
847.4038499754232
 31
0.0
  0
LINE
  5
2BB
330
2
100
AcDbEntity
  8
0
100
AcDbLine
 10
1763.200459540841
 20
846.5420412106308
 30
0.0
 11
1760.933337865741
 21
846.1835494636316
 31
0.0
  0
LINE
  5
2BC
330
2
100
AcDbEntity
  8
0
100
AcDbLine
 10
1763.200459540841
 20
794.8628359700854
 30
0.0
 11
1763.200459540841
 21
793.6425354582941
 31
0.0
  0
LINE
  5
2BD
330
2
100
AcDbEntity
  8
0
100
AcDbLine
 10
1760.933337865741
 20
793.2840437112952
 30
0.0
 11
1760.933337865741
 21
791.4915849763013
 31
0.0
  0
LINE
  5
2BE
330
2
100
AcDbEntity
  8
0
100
AcDbLine
 10
1760.933337865741
 20
797.0625798364623
 30
0.0
 11
1760.933337865741
 21
794.5043442230863
 31
0.0
  0
LINE
  5
2BF
330
2
100
AcDbEntity
  8
0
100
AcDbLine
 10
1763.200459540841
 20
794.8628359700854
 30
0.0
 11
1760.933337865741
 21
794.5043442230866
 31
0.0
  0
LINE
  5
2C0
330
2
100
AcDbEntity
  8
0
100
AcDbLine
 10
1763.200459540841
 20
793.6425354582941
 30
0.0
 11
1760.933337865741
 21
793.2840437112956
 31
0.0
  0
LINE
  5
2C1
330
2
100
AcDbEntity
  8
0
100
AcDbLine
 10
1763.200459540841
 20
825.0911249714205
 30
0.0
 11
1763.200459540841
 21
823.8708244596292
 31
0.0
  0
LINE
  5
2C2
330
2
100
AcDbEntity
  8
0
100
AcDbLine
 10
1760.933337865741
 20
827.2908688377974
 30
0.0
 11
1760.933337865741
 21
824.7326332244217
 31
0.0
  0
LINE
  5
2C3
330
2
100
AcDbEntity
  8
0
100
AcDbLine
 10
1763.200459540841
 20
825.0911249714205
 30
0.0
 11
1760.933337865741
 21
824.7326332244217
 31
0.0
  0
LINE
  5
2C4
330
2
100
AcDbEntity
  8
0
100
AcDbLine
 10
1763.200459540841
 20
823.8708244596292
 30
0.0
 11
1760.933337865741
 21
823.5123327126306
 31
0.0
  0
LINE
  5
2C5
330
2
100
AcDbEntity
  8
0
100
AcDbLine
 10
1763.200459540841
 20
802.4199082204191
 30
0.0
 11
1763.200459540841
 21
801.1996077086278
 31
0.0
  0
LINE
  5
2C6
330
2
100
AcDbEntity
  8
0
100
AcDbLine
 10
1763.200459540841
 20
817.5340527210867
 30
0.0
 11
1763.200459540841
 21
816.3137522092956
 31
0.0
  0
LINE
  5
2C7
330
2
100
AcDbEntity
  8
0
100
AcDbLine
 10
1763.200459540841
 20
809.9769804707529
 30
0.0
 11
1763.200459540841
 21
808.7566799589618
 31
0.0
  0
LINE
  5
2C8
330
2
100
AcDbEntity
  8
0
100
AcDbLine
 10
1760.933337865741
 20
800.8411159616292
 30
0.0
 11
1760.933337865741
 21
798.2828803482533
 31
0.0
  0
LINE
  5
2C9
330
2
100
AcDbEntity
  8
0
100
AcDbLine
 10
1760.933337865741
 20
804.6196520867962
 30
0.0
 11
1760.933337865741
 21
802.0614164734205
 31
0.0
  0
LINE
  5
2CA
330
2
100
AcDbEntity
  8
0
100
AcDbLine
 10
1760.933337865741
 20
808.398188211963
 30
0.0
 11
1760.933337865741
 21
805.8399525985873
 31
0.0
  0
LINE
  5
2CB
330
2
100
AcDbEntity
  8
0
100
AcDbLine
 10
1760.933337865741
 20
812.17672433713
 30
0.0
 11
1760.933337865741
 21
809.6184887237543
 31
0.0
  0
LINE
  5
2CC
330
2
100
AcDbEntity
  8
0
100
AcDbLine
 10
1760.933337865741
 20
815.9552604622968
 30
0.0
 11
1760.933337865741
 21
813.3970248489211
 31
0.0
  0
LINE
  5
2CD
330
2
100
AcDbEntity
  8
0
100
AcDbLine
 10
1760.933337865741
 20
819.7337965874636
 30
0.0
 11
1760.933337865741
 21
817.1755609740879
 31
0.0
  0
LINE
  5
2CE
330
2
100
AcDbEntity
  8
0
100
AcDbLine
 10
1763.200459540841
 20
817.5340527210867
 30
0.0
 11
1760.933337865741
 21
817.1755609740877
 31
0.0
  0
LINE
  5
2CF
330
2
100
AcDbEntity
  8
0
100
AcDbLine
 10
1763.200459540841
 20
816.3137522092956
 30
0.0
 11
1760.933337865741
 21
815.9552604622966
 31
0.0
  0
LINE
  5
2D0
330
2
100
AcDbEntity
  8
0
100
AcDbLine
 10
1763.200459540841
 20
809.9769804707529
 30
0.0
 11
1760.933337865741
 21
809.6184887237543
 31
0.0
  0
LINE
  5
2D1
330
2
100
AcDbEntity
  8
0
100
AcDbLine
 10
1763.200459540841
 20
808.7566799589618
 30
0.0
 11
1760.933337865741
 21
808.398188211963
 31
0.0
  0
LINE
  5
2D2
330
2
100
AcDbEntity
  8
0
100
AcDbLine
 10
1763.200459540841
 20
801.1996077086278
 30
0.0
 11
1760.933337865741
 21
800.8411159616294
 31
0.0
  0
LINE
  5
2D3
330
2
100
AcDbEntity
  8
0
100
AcDbLine
 10
1763.200459540841
 20
802.4199082204191
 30
0.0
 11
1760.933337865741
 21
802.0614164734205
 31
0.0
  0
LINE
  5
2D4
330
2
100
AcDbEntity
  8
0
100
AcDbLine
 10
1760.933337865741
 20
823.5123327126306
 30
0.0
 11
1760.933337865741
 21
820.9540970992549
 31
0.0
  0
LINE
  5
2D5
330
2
100
AcDbEntity
  8
0
100
AcDbLine
 10
1763.200459540841
 20
780.9493277781992
 30
0.0
 11
1760.933337865741
 21
780.5908360312002
 31
0.0
  0
LINE
  5
2D6
330
2
100
AcDbEntity
  8
0
100
AcDbLine
 10
1763.200459540841
 20
782.1696282899904
 30
0.0
 11
1760.933337865741
 21
781.8111365429918
 31
0.0
  0
LINE
  5
2D7
330
2
100
AcDbEntity
  8
0
100
AcDbLine
 10
1763.200459540841
 20
788.5064000285331
 30
0.0
 11
1760.933337865741
 21
788.1479082815343
 31
0.0
  0
LINE
  5
2D8
330
2
100
AcDbEntity
  8
0
100
AcDbLine
 10
1763.200459540841
 20
789.7267005403242
 30
0.0
 11
1760.933337865741
 21
789.3682087933253
 31
0.0
  0
LINE
  5
2D9
330
2
100
AcDbEntity
  8
0
100
AcDbLine
 10
1760.933337865741
 20
791.4915849763013
 30
0.0
 11
1760.933337865741
 21
789.3682087933255
 31
0.0
  0
LINE
  5
2DA
330
2
100
AcDbEntity
  8
0
100
AcDbLine
 10
1760.933337865741
 20
788.1479082815343
 30
0.0
 11
1760.933337865741
 21
785.5896726681589
 31
0.0
  0
LINE
  5
2DB
330
2
100
AcDbEntity
  8
0
100
AcDbLine
 10
1760.933337865741
 20
784.3693721563675
 30
0.0
 11
1760.93333786574
 21
781.8111365429919
 31
0.0
  0
LINE
  5
2DC
330
2
100
AcDbEntity
  8
0
100
AcDbLine
 10
1760.93333786574
 20
780.5908360312005
 30
0.0
 11
1760.93333786574
 21
778.0326004178248
 31
0.0
  0
LINE
  5
2DD
330
2
100
AcDbEntity
  8
0
100
AcDbLine
 10
1763.200459540841
 20
789.7267005403242
 30
0.0
 11
1763.200459540841
 21
788.5064000285331
 31
0.0
  0
LINE
  5
2DE
330
2
100
AcDbEntity
  8
0
100
AcDbLine
 10
1763.200459540841
 20
782.1696282899904
 30
0.0
 11
1763.200459540841
 21
780.9493277781992
 31
0.0
  0
LINE
  5
2DF
330
2
100
AcDbEntity
  8
0
100
AcDbLine
 10
1760.93333786574
 20
831.0694049629644
 30
0.0
 11
1760.933337865741
 21
828.5111693495885
 31
0.0
  0
LINE
  5
2E0
330
2
100
AcDbEntity
  8
0
100
AcDbLine
 10
1763.200459540841
 20
765.8351832775316
 30
0.0
 11
1760.93333786574
 21
765.476691530533
 31
0.0
  0
LINE
  5
2E1
330
2
100
AcDbEntity
  8
0
100
AcDbLine
 10
1763.200459540841
 20
767.0554837893229
 30
0.0
 11
1760.933337865741
 21
766.6969920423241
 31
0.0
  0
LINE
  5
2E2
330
2
100
AcDbEntity
  8
0
100
AcDbLine
 10
1763.200459540841
 20
773.3922555278654
 30
0.0
 11
1760.93333786574
 21
773.0337637808669
 31
0.0
  0
LINE
  5
2E3
330
2
100
AcDbEntity
  8
0
100
AcDbLine
 10
1763.200459540841
 20
774.6125560396567
 30
0.0
 11
1760.93333786574
 21
774.2540642926577
 31
0.0
  0
LINE
  5
2E4
330
2
100
AcDbEntity
  8
0
100
AcDbLine
 10
1760.93333786574
 20
773.0337637808672
 30
0.0
 11
1760.933337865741
 21
770.4755281674908
 31
0.0
  0
LINE
  5
2E5
330
2
100
AcDbEntity
  8
0
100
AcDbLine
 10
1760.933337865741
 20
769.2552276556998
 30
0.0
 11
1760.93333786574
 21
766.6969920423241
 31
0.0
  0
LINE
  5
2E6
330
2
100
AcDbEntity
  8
0
100
AcDbLine
 10
1763.200459540841
 20
767.0554837893229
 30
0.0
 11
1763.200459540841
 21
765.8351832775316
 31
0.0
  0
LINE
  5
2E7
330
2
100
AcDbEntity
  8
0
100
AcDbLine
 10
1763.200459540841
 20
774.6125560396567
 30
0.0
 11
1763.200459540841
 21
773.3922555278654
 31
0.0
  0
LINE
  5
2E8
330
2
100
AcDbEntity
  8
0
100
AcDbLine
 10
1760.93333786574
 20
776.8122999060336
 30
0.0
 11
1760.93333786574
 21
774.2540642926582
 31
0.0
  0
LINE
  5
2E9
330
2
100
AcDbEntity
  8
0
100
AcDbLine
 10
2252.533473199858
 20
498.404224866379
 30
0.0
 11
2337.091796058837
 21
616.0849079605559
 31
0.0
  0
MTEXT
  5
2EA
330
2
100
AcDbEntity
  8
0
100
AcDbMText
 10
2354.649020394796
 20
714.1462699849581
 30
0.0
 40
28.0
 41
497.4799019395915
 71
     1
 72
     5
  1
{\Ftxt.shx;HIGH STACKED GRILLE / SHUTTER (i.e MOUNTED ABOVE OTHER BUNDLE)}
  7
STYLE1
 73
     1
 44
1.0
  0
LINE
  5
2EB
330
2
100
AcDbEntity
  8
0
370
    40
100
AcDbLine
 10
2213.224915695519
 20
547.1087551737174
 30
0.0
 11
2228.930046375045
 21
639.3198361218448
 31
0.0
  0
MTEXT
  5
2EC
330
2
100
AcDbEntity
  8
0
100
AcDbMText
 10
2381.313856578067
 20
25.42726681276701
 30
0.0
 40
28.0
 41
726.4705
 71
     1
 72
     5
  1
{\Ftxt.shx;NORMAL POSITION}
  7
STYLE1
 73
     1
 44
1.0
  0
MTEXT
  5
2ED
330
2
100
AcDbEntity
  8
0
100
AcDbMText
 10
2355.128448790906
 20
472.5216050175204
 30
0.0
 40
28.0
 41
497.0004735434812
 71
     1
 72
     5
  1
{\Ftxt.shx;NOTE: WHERE STACKING NOT POSSIBLE A CLEARANCE MULLION WILL BE REQUIRED (WIDTH SUBJECT TO BUNDLE SIZE. SEE BELOW)}
  7
STYLE1
 73
     1
 44
1.0
  0
MTEXT
  5
2EE
330
2
100
AcDbEntity
  8
0
100
AcDbMText
 10
2330.719045600444
 20
-102.7418476143575
 30
0.0
 40
28.0
 41
388.1370999999999
 71
     1
 72
     5
  1
{\Ftxt.shx;MULLION TOP}
  7
STYLE1
 73
     1
 44
1.0
  0
MTEXT
  5
2EF
330
2
100
AcDbEntity
  8
0
100
AcDbMText
 10
2255.170634942731
 20
-306.7305902797397
 30
0.0
 40
28.0
 41
388.1370999999999
 71
     1
 72
     5
  1
{\Ftxt.shx;90° OR 135° etc. CORNER MULLION}
  7
STYLE1
 73
     1
 44
1.0
  0
LINE
  5
2F0
330
2
100
AcDbEntity
  8
DASHED
 62
     7
 48
60.0
100
AcDbLine
 10
1935.445571527973
 20
-92.20212737014731
 30
0.0
 11
1935.445571527973
 21
-389.2894155063185
 31
0.0
  0
LINE
  5
2F1
330
2
100
AcDbEntity
  8
0
100
AcDbLine
 10
1953.20296555255
 20
-227.9744104907022
 30
0.0
 11
1953.20296555255
 21
-385.5645494077323
 31
0.0
  0
LINE
  5
2F2
330
2
100
AcDbEntity
  8
0
370
    40
100
AcDbLine
 10
2103.076956471221
 20
-307.9453308003285
 30
0.0
 11
2148.28527476145
 21
-42.50927792980564
 31
0.0
  0
LEADER
  5
2F3
330
2
100
AcDbEntity
  8
0
100
AcDbLeader
  3
STANDARD
 76
     2
 10
1953.20296555255
 20
-341.9289921089521
 30
0.0
 10
2233.269191780789
 20
-341.9289921089521
 30
0.0
1001
ACAD
1000
DSTYLE
1002
{
1070
   147
1040
10.0
1070
    77
1070
     0
1002
}
  0
LEADER
  5
2F4
330
2
100
AcDbEntity
  8
0
100
AcDbLeader
  3
STANDARD
 76
     3
 10
2102.364011581987
 20
121.044896733938
 30
0.0
 10
2261.918921244034
 20
15.39573906122313
 30
0.0
 10
2339.259799784636
 20
15.39573906122313
 30
0.0
1001
ACAD
1000
DSTYLE
1002
{
1070
   147
1040
10.0
1070
    77
1070
     0
1002
}
  0
LEADER
  5
2F5
330
2
100
AcDbEntity
  8
0
100
AcDbLeader
  3
STANDARD
 76
     2
 10
1954.402864154198
 20
-117.4496671141507
 30
0.0
 10
2318.219438655174
 20
-117.4496671141507
 30
0.0
1001
ACAD
1000
DSTYLE
1002
{
1070
   147
1040
10.0
1070
    77
1070
     0
1002
}
  0
LINE
  5
2F6
330
2
100
AcDbEntity
  8
0
100
AcDbLine
 10
1935.445571527973
 20
-86.00212961013731
 30
0.0
 11
1935.445571527974
 21
216.7121948044676
 31
0.0
  0
LINE
  5
2F7
330
2
100
AcDbEntity
  8
0
370
    40
100
AcDbLine
 10
2150.400011917828
 20
-30.09281333043782
 30
0.0
 11
2181.810273276879
 21
154.329348565817
 31
0.0
  0
LINE
  5
2F8
330
2
100
AcDbEntity
  8
0
100
AcDbLine
 10
1953.202965552551
 20
-216.4237842395886
 30
0.0
 11
2118.664647602802
 21
-216.4237842395886
 31
0.0
  0
LINE
  5
2F9
330
2
100
AcDbEntity
  8
0
100
AcDbLine
 10
1990.98832680422
 20
-135.8530617362507
 30
0.0
 11
2132.387225332593
 21
-135.8530617362507
 31
0.0
  0
LINE
  5
2FA
330
2
100
AcDbEntity
  8
0
100
AcDbLine
 10
1990.98832680422
 20
-211.4237842395886
 30
0.0
 11
2119.516233470685
 21
-211.4237842395886
 31
0.0
  0
LINE
  5
2FB
330
2
100
AcDbEntity
  8
0
100
AcDbLine
 10
2140.877695192471
 20
-86.00212961013733
 30
0.0
 11
1935.445571527974
 21
-86.00212961013733
 31
0.0
  0
LINE
  5
2FC
330
2
100
AcDbEntity
  8
0
  6
DASHED
 48
60.0
100
AcDbLine
 10
2151.000730291861
 20
-26.56575636126229
 30
0.0
 11
1935.445571527973
 21
-26.56575636126229
 31
0.0
  0
LINE
  5
2FD
330
2
100
AcDbEntity
  8
0
100
AcDbLine
 10
1935.445571527973
 20
-86.00212961013744
 30
0.0
 11
1935.445571527973
 21
50.42701007755614
 31
0.0
  0
LINE
  5
2FE
330
2
100
AcDbEntity
  8
0
100
AcDbLine
 10
1953.20296555255
 20
-99.58217064570318
 30
0.0
 11
1953.20296555255
 21
-220.6882514279913
 31
0.0
  0
ARC
  5
2FF
330
2
100
AcDbEntity
  8
0
100
AcDbCircle
 10
1972.095646178385
 20
-191.0196891636875
 30
0.0
 40
26.44975287616828
100
AcDbArc
 50
44.415308597193
 51
135.584691402807
  0
LINE
  5
300
330
2
100
AcDbEntity
  8
0
100
AcDbLine
 10
1990.98832680422
 20
-211.4237842395886
 30
0.0
 11
1990.98832680422
 21
-135.8530617362507
 31
0.0
  0
LINE
  5
301
330
2
100
AcDbEntity
  8
0
100
AcDbLine
 10
1953.20296555255
 20
-211.4237842395886
 30
0.0
 11
1953.20296555255
 21
-135.8530617362507
 31
0.0
  0
ARC
  5
302
330
2
100
AcDbEntity
  8
0
100
AcDbCircle
 10
1972.095646178385
 20
-231.8278793154898
 30
0.0
 40
26.44975287616828
100
AcDbArc
 50
50.48234720282692
 51
129.517652797173
  0
ARC
  5
303
330
2
100
AcDbEntity
  8
0
100
AcDbCircle
 10
1972.095646178385
 20
-225.0265142901896
 30
0.0
 40
26.44975287616828
100
AcDbArc
 50
44.415308597193
 51
135.584691402807
  0
ARC
  5
304
330
2
100
AcDbEntity
  8
0
100
AcDbCircle
 10
1972.095646178385
 20
-218.2251492648891
 30
0.0
 40
26.44975287616828
100
AcDbArc
 50
44.415308597193
 51
135.584691402807
  0
ARC
  5
305
330
2
100
AcDbEntity
  8
0
100
AcDbCircle
 10
1972.095646178385
 20
-211.4237842395886
 30
0.0
 40
26.44975287616828
100
AcDbArc
 50
44.415308597193
 51
135.584691402807
  0
ARC
  5
306
330
2
100
AcDbEntity
  8
0
100
AcDbCircle
 10
1972.095646178385
 20
-204.6224192142882
 30
0.0
 40
26.44975287616828
100
AcDbArc
 50
44.415308597193
 51
135.584691402807
  0
LINE
  5
307
330
2
100
AcDbEntity
  8
0
100
AcDbLine
 10
1953.20296555255
 20
-211.4237842395886
 30
0.0
 11
1990.98832680422
 21
-211.4237842395886
 31
0.0
  0
ARC
  5
308
330
2
100
AcDbEntity
  8
0
100
AcDbCircle
 10
1972.095646178385
 20
-197.821054188988
 30
0.0
 40
26.44975287616828
100
AcDbArc
 50
44.415308597193
 51
135.584691402807
  0
LINE
  5
309
330
2
100
AcDbEntity
  8
0
100
AcDbLine
 10
1990.98832680422
 20
-135.8530617362507
 30
0.0
 11
1953.20296555255
 21
-135.8530617362507
 31
0.0
  0
ARC
  5
30A
330
2
100
AcDbEntity
  8
0
100
AcDbCircle
 10
1972.095646178385
 20
-170.6155940877862
 30
0.0
 40
26.44975287616828
100
AcDbArc
 50
44.415308597193
 51
135.584691402807
  0
ARC
  5
30B
330
2
100
AcDbEntity
  8
0
100
AcDbCircle
 10
1972.095646178385
 20
-163.8142290624857
 30
0.0
 40
26.44975287616828
100
AcDbArc
 50
44.415308597193
 51
135.584691402807
  0
ARC
  5
30C
330
2
100
AcDbEntity
  8
0
100
AcDbCircle
 10
1972.095646178385
 20
-177.4169591130867
 30
0.0
 40
26.44975287616828
100
AcDbArc
 50
44.415308597193
 51
135.584691402807
  0
ARC
  5
30D
330
2
100
AcDbEntity
  8
0
100
AcDbCircle
 10
1972.095646178385
 20
-184.218324138387
 30
0.0
 40
26.44975287616828
100
AcDbArc
 50
44.415308597193
 51
135.584691402807
  0
ARC
  5
30E
330
2
100
AcDbEntity
  8
0
100
AcDbCircle
 10
1972.095646178385
 20
-157.0128640371853
 30
0.0
 40
26.44975287616828
100
AcDbArc
 50
126.8698976458444
 51
135.584691402807
  0
ARC
  5
30F
330
2
100
AcDbEntity
  8
0
100
AcDbCircle
 10
1972.095646178385
 20
-157.0128640371853
 30
0.0
 40
26.44975287616828
100
AcDbArc
 50
44.415308597193
 51
53.1301023541555
  0
LINE
  5
310
330
2
100
AcDbEntity
  8
0
100
AcDbLine
 10
1926.528085602901
 20
41.35503259716506
 30
0.0
 11
1926.528085602901
 21
36.35503259716506
 31
0.0
  0
LINE
  5
311
330
2
100
AcDbEntity
  8
0
100
AcDbLine
 10
1926.528085602901
 20
46.35503259716506
 30
0.0
 11
1926.528085602901
 21
41.35503259716506
 31
0.0
  0
LINE
  5
312
330
2
100
AcDbEntity
  8
0
370
    40
100
AcDbLine
 10
2148.28527476145
 20
-42.5092779298061
 30
0.0
 11
2131.334229185378
 21
-37.03672577680527
 31
0.0
  0
LINE
  5
313
330
2
100
AcDbEntity
  8
0
370
    40
100
AcDbLine
 10
2131.334229185378
 20
-37.03672577680527
 30
0.0
 11
2168.163386322339
 21
-36.81090601930873
 31
0.0
  0
LINE
  5
314
330
2
100
AcDbEntity
  8
0
370
    40
100
AcDbLine
 10
2168.163386322339
 20
-36.81090601930873
 30
0.0
 11
2150.400011917828
 21
-30.09281333043782
 31
0.0
  0
LEADER
  5
315
330
2
100
AcDbEntity
  8
0
100
AcDbLeader
  3
STANDARD
 76
     2
 10
2068.259211225325
 20
498.404224866379
 30
0.0
 10
2252.533473199858
 20
498.404224866379
 30
0.0
1001
ACAD
1000
DSTYLE
1002
{
1070
   147
1040
10.0
1070
    77
1070
     0
1002
}
  0
LINE
  5
316
330
2
100
AcDbEntity
  8
0
100
AcDbLine
 10
2192.435143327908
 20
216.7121948044676
 30
0.0
 11
1935.445571527974
 21
216.7121948044676
 31
0.0
  0
LINE
  5
317
330
2
100
AcDbEntity
  8
0
  6
DASHED
 48
60.0
100
AcDbLine
 10
2182.312108228518
 20
157.2758215555925
 30
0.0
 11
1935.445571527973
 21
157.2758215555926
 31
0.0
  0
POINT
  5
318
330
2
100
AcDbEntity
  8
DEFPOINTS
  6
ByBlock
 62
     7
100
AcDbPoint
 10
1955.153855369282
 20
314.8573683048771
 30
0.0
  0
ARC
  5
319
330
2
100
AcDbEntity
  8
0
100
AcDbCircle
 10
2011.114703196247
 20
384.7869346720683
 30
0.0
 40
5.289950575233655
100
AcDbArc
 50
270.0
 51
90.0
  0
ARC
  5
31A
330
2
100
AcDbEntity
  8
0
100
AcDbCircle
 10
2011.114703196247
 20
419.1808581072598
 30
0.0
 40
5.289950575233655
100
AcDbArc
 50
270.0
 51
90.0
  0
ARC
  5
31B
330
2
100
AcDbEntity
  8
thread
100
AcDbCircle
 10
1955.153855369282
 20
470.4133172762635
 30
0.0
 40
17.3132021084454
100
AcDbArc
 50
224.2209168029053
 51
315.7790831970956
  0
ARC
  5
31C
330
2
100
AcDbEntity
  8
thread
100
AcDbCircle
 10
1955.153855369283
 20
467.4911623423936
 30
0.0
 40
19.236891231606
100
AcDbArc
 50
225.453014786235
 51
314.5469852137707
  0
LINE
  5
31D
330
2
100
AcDbEntity
  8
0
100
AcDbLine
 10
1976.428184197761
 20
461.1406244912073
 30
0.0
 11
1976.428184197762
 21
444.9655787579245
 31
0.0
  0
LINE
  5
31E
330
2
100
AcDbEntity
  8
0
100
AcDbLine
 10
1973.542650513019
 20
444.9655787579245
 30
0.0
 11
1973.542650513019
 21
458.5013041164589
 31
0.0
  0
LINE
  5
31F
330
2
100
AcDbEntity
  8
0
100
AcDbLine
 10
1936.765060225545
 20
444.9655787579245
 30
0.0
 11
1936.765060225545
 21
458.5013041164602
 31
0.0
  0
LINE
  5
320
330
2
100
AcDbEntity
  8
0
100
AcDbLine
 10
1933.879526540804
 20
461.1406244912068
 30
0.0
 11
1933.879526540803
 21
444.9655787579245
 31
0.0
  0
SPLINE
  5
321
330
2
100
AcDbEntity
  8
thread
100
AcDbSpline
210
0.0
220
0.0
230
1.0
 70
     8
 71
     3
 72
     9
 73
     5
 74
     0
 42
0.0000000001
 43
0.0000000001
 40
0.0
 40
0.0
 40
0.0
 40
0.0
 40
33.63406011768427
 40
48.27340821787401
 40
48.27340821787401
 40
48.27340821787401
 40
48.27340821787401
 10
2008.0553062562
 20
447.4958590764604
 30
0.0
 10
2001.451532707708
 20
459.2824979441202
 30
0.0
 10
1991.973442486982
 20
476.1993146348304
 30
0.0
 10
1978.72526320773
 20
469.8102286961884
 30
0.0
 10
1967.561466368039
 20
458.338626532754
 30
0.0
  0
SPLINE
  5
322
330
2
100
AcDbEntity
  8
thread
100
AcDbSpline
210
0.0
220
0.0
230
1.0
 70
     8
 71
     3
 72
     9
 73
     5
 74
     0
 42
0.0000000001
 43
0.0000000001
 40
0.0
 40
0.0
 40
0.0
 40
0.0
 40
29.07121157243826
 40
42.81782206453715
 40
42.81782206453715
 40
42.81782206453715
 40
42.81782206453715
 10
2003.965525635473
 20
444.965578757924
 30
0.0
 10
1998.389027222379
 20
455.5246347308057
 30
0.0
 10
1990.175626270719
 20
471.0766449622942
 30
0.0
 10
1980.178555360285
 20
465.1307383907187
 30
0.0
 10
1968.648417746934
 20
453.7815025912455
 30
0.0
  0
CIRCLE
  5
323
330
2
100
AcDbEntity
  8
0
100
AcDbCircle
 10
1968.795098594377
 20
401.9838963896643
 30
0.0
 40
5.289950575233655
  0
LINE
  5
324
330
2
100
AcDbEntity
  8
0
100
AcDbLine
 10
1971.618961389859
 20
436.3778198248559
 30
0.0
 11
1968.733427705118
 21
436.3778198248559
 31
0.0
  0
CIRCLE
  5
325
330
2
100
AcDbEntity
  8
0
100
AcDbCircle
 10
1946.123881843376
 20
401.9838963896643
 30
0.0
 40
5.289950575233655
  0
LINE
  5
326
330
2
100
AcDbEntity
  8
0
100
AcDbLine
 10
1949.146710743509
 20
390.076885247302
 30
0.0
 11
1958.21519744391
 21
390.076885247302
 31
0.0
  0
LINE
  5
327
330
2
100
AcDbEntity
  8
0
100
AcDbLine
 10
1949.146710743509
 20
379.4969840968349
 30
0.0
 11
1958.21519744391
 21
379.4969840968349
 31
0.0
  0
ARC
  5
328
330
2
100
AcDbEntity
  8
0
100
AcDbCircle
 10
1958.21519744391
 20
384.7869346720683
 30
0.0
 40
5.289950575233655
100
AcDbArc
 50
270.0
 51
90.0
  0
ARC
  5
329
330
2
100
AcDbEntity
  8
0
100
AcDbCircle
 10
1949.146710743509
 20
384.7869346720683
 30
0.0
 40
5.289950575233655
100
AcDbArc
 50
90.0
 51
270.0
  0
ARC
  5
32A
330
2
100
AcDbEntity
  8
0
100
AcDbCircle
 10
1958.21519744391
 20
419.1808581072598
 30
0.0
 40
5.289950575233655
100
AcDbArc
 50
270.0
 51
90.0
  0
LINE
  5
32B
330
2
100
AcDbEntity
  8
0
100
AcDbLine
 10
1949.146710743509
 20
424.4708086824934
 30
0.0
 11
1958.21519744391
 21
424.4708086824934
 31
0.0
  0
LINE
  5
32C
330
2
100
AcDbEntity
  8
0
100
AcDbLine
 10
1949.146710743509
 20
413.8909075320263
 30
0.0
 11
1958.21519744391
 21
413.8909075320263
 31
0.0
  0
ARC
  5
32D
330
2
100
AcDbEntity
  8
0
100
AcDbCircle
 10
1949.146710743509
 20
419.1808581072598
 30
0.0
 40
5.289950575233655
100
AcDbArc
 50
90.0
 51
270.0
  0
ARC
  5
32E
330
2
100
AcDbEntity
  8
0
100
AcDbCircle
 10
1931.765444567742
 20
419.1808581072598
 30
0.0
 40
5.289950575233655
100
AcDbArc
 50
270.0
 51
90.0
  0
ARC
  5
32F
330
2
100
AcDbEntity
  8
0
100
AcDbCircle
 10
1931.765444567742
 20
384.7869346720683
 30
0.0
 40
5.289950575233655
100
AcDbArc
 50
270.0
 51
90.0
  0
LINE
  5
330
330
2
100
AcDbEntity
  8
0
100
AcDbLine
 10
1931.955837417643
 20
436.3778198248559
 30
0.0
 11
1929.070303732902
 21
436.3778198248559
 31
0.0
  0
LINE
  5
331
330
2
100
AcDbEntity
  8
0
100
AcDbLine
 10
1933.879526540804
 20
428.9946538234548
 30
0.0
 11
1936.765060225545
 21
428.9946538234548
 31
0.0
  0
LINE
  5
332
330
2
100
AcDbEntity
  8
0
100
AcDbLine
 10
1936.765060225545
 20
428.9946538234548
 30
0.0
 11
1936.765060225545
 21
432.5304415785348
 31
0.0
  0
LINE
  5
333
330
2
100
AcDbEntity
  8
0
100
AcDbLine
 10
1933.879526540803
 20
432.5304415785348
 30
0.0
 11
1933.879526540803
 21
428.9946538234548
 31
0.0
  0
LINE
  5
334
330
2
100
AcDbEntity
  8
0
100
AcDbLine
 10
1930.032148294483
 20
432.5304415785348
 30
0.0
 11
1932.917681979224
 21
432.5304415785348
 31
0.0
  0
LINE
  5
335
330
2
100
AcDbEntity
  8
0
100
AcDbLine
 10
1940.612438471865
 20
432.5304415785348
 30
0.0
 11
1937.726904787125
 21
432.5304415785348
 31
0.0
  0
LINE
  5
336
330
2
100
AcDbEntity
  8
0
100
AcDbLine
 10
1930.032148294483
 20
436.3778198248559
 30
0.0
 11
1930.032148294483
 21
432.5304415785348
 31
0.0
  0
LINE
  5
337
330
2
100
AcDbEntity
  8
0
100
AcDbLine
 10
1940.612438471865
 20
436.3778198248559
 30
0.0
 11
1940.612438471865
 21
432.5304415785348
 31
0.0
  0
LWPOLYLINE
  5
338
330
2
100
AcDbEntity
  8
0
100
AcDbPolyline
 90
        5
 70
     0
 43
0.0
 10
1932.436759698433
 20
436.3778198248559
 10
1938.207827067915
 20
436.3778198248559
 10
1938.207827067915
 20
432.5304415785348
 10
1932.436759698433
 20
432.5304415785348
 10
1932.436759698433
 20
436.3778198248559
  0
CIRCLE
  5
339
330
2
100
AcDbEntity
  8
0
100
AcDbCircle
 10
1991.466315345379
 20
401.9838963896643
 30
0.0
 40
5.289950575233655
  0
LINE
  5
33A
330
2
100
AcDbEntity
  8
0
100
AcDbLine
 10
2002.046216495846
 20
390.076885247302
 30
0.0
 11
2011.114703196247
 21
390.076885247302
 31
0.0
  0
LINE
  5
33B
330
2
100
AcDbEntity
  8
0
100
AcDbLine
 10
2002.046216495846
 20
379.4969840968349
 30
0.0
 11
2011.114703196247
 21
379.4969840968349
 31
0.0
  0
ARC
  5
33C
330
2
100
AcDbEntity
  8
0
100
AcDbCircle
 10
1984.664950320078
 20
384.7869346720683
 30
0.0
 40
5.289950575233655
100
AcDbArc
 50
270.0
 51
90.0
  0
ARC
  5
33D
330
2
100
AcDbEntity
  8
0
100
AcDbCircle
 10
2002.046216495846
 20
384.7869346720683
 30
0.0
 40
5.289950575233655
100
AcDbArc
 50
90.0
 51
270.0
  0
LINE
  5
33E
330
2
100
AcDbEntity
  8
0
100
AcDbLine
 10
2002.046216495846
 20
424.4708086824934
 30
0.0
 11
2011.114703196247
 21
424.4708086824934
 31
0.0
  0
LINE
  5
33F
330
2
100
AcDbEntity
  8
0
100
AcDbLine
 10
2002.046216495846
 20
413.8909075320263
 30
0.0
 11
2011.114703196247
 21
413.8909075320263
 31
0.0
  0
ARC
  5
340
330
2
100
AcDbEntity
  8
0
100
AcDbCircle
 10
1984.664950320078
 20
419.1808581072598
 30
0.0
 40
5.289950575233655
100
AcDbArc
 50
270.0
 51
90.0
  0
ARC
  5
341
330
2
100
AcDbEntity
  8
0
100
AcDbCircle
 10
2002.046216495846
 20
419.1808581072598
 30
0.0
 40
5.289950575233655
100
AcDbArc
 50
90.0
 51
270.0
  0
ARC
  5
342
330
2
100
AcDbEntity
  8
0
100
AcDbCircle
 10
1975.596463619677
 20
384.7869346720683
 30
0.0
 40
5.289950575233655
100
AcDbArc
 50
90.0
 51
270.0
  0
ARC
  5
343
330
2
100
AcDbEntity
  8
0
100
AcDbCircle
 10
1975.596463619677
 20
419.1808581072598
 30
0.0
 40
5.289950575233655
100
AcDbArc
 50
90.0
 51
270.0
  0
LINE
  5
344
330
2
100
AcDbEntity
  8
0
100
AcDbLine
 10
1975.596463619677
 20
379.4969840968349
 30
0.0
 11
1984.664950320078
 21
379.4969840968349
 31
0.0
  0
LINE
  5
345
330
2
100
AcDbEntity
  8
0
100
AcDbLine
 10
1975.596463619677
 20
390.076885247302
 30
0.0
 11
1984.664950320078
 21
390.076885247302
 31
0.0
  0
LINE
  5
346
330
2
100
AcDbEntity
  8
0
100
AcDbLine
 10
1975.596463619677
 20
413.8909075320263
 30
0.0
 11
1984.664950320078
 21
413.8909075320263
 31
0.0
  0
LINE
  5
347
330
2
100
AcDbEntity
  8
0
100
AcDbLine
 10
1975.596463619677
 20
424.4708086824934
 30
0.0
 11
1984.664950320078
 21
424.4708086824934
 31
0.0
  0
LINE
  5
348
330
2
100
AcDbEntity
  8
0
100
AcDbLine
 10
1977.870951040131
 20
432.5304415785348
 30
0.0
 11
1980.275562444082
 21
432.5304415785348
 31
0.0
  0
LINE
  5
349
330
2
100
AcDbEntity
  8
thread
100
AcDbLine
 10
2008.0553062562
 20
447.4958590764604
 30
0.0
 11
2003.965525635473
 21
444.9655787579236
 31
0.0
  0
LINE
  5
34A
330
2
100
AcDbEntity
  8
0
100
AcDbLine
 10
1973.542650513019
 20
428.9946538234548
 30
0.0
 11
1976.428184197761
 21
428.9946538234548
 31
0.0
  0
LINE
  5
34B
330
2
100
AcDbEntity
  8
0
100
AcDbLine
 10
1973.54265051302
 20
428.9946538234548
 30
0.0
 11
1973.54265051302
 21
432.5304415785348
 31
0.0
  0
LINE
  5
34C
330
2
100
AcDbEntity
  8
0
100
AcDbLine
 10
1976.428184197762
 20
432.5304415785348
 30
0.0
 11
1976.428184197761
 21
428.9946538234548
 31
0.0
  0
LINE
  5
34D
330
2
100
AcDbEntity
  8
0
100
AcDbLine
 10
1977.870951040131
 20
432.5304415785348
 30
0.0
 11
1977.390028759341
 21
432.5304415785348
 31
0.0
  0
LINE
  5
34E
330
2
100
AcDbEntity
  8
0
100
AcDbLine
 10
1969.695272266699
 20
432.5304415785348
 30
0.0
 11
1972.58080595144
 21
432.5304415785348
 31
0.0
  0
LWPOLYLINE
  5
34F
330
2
100
AcDbEntity
  8
0
100
AcDbPolyline
 90
        5
 70
     0
 43
0.0
 10
1972.099883670649
 20
436.3778198248559
 10
1977.870951040131
 20
436.3778198248559
 10
1977.870951040131
 20
432.5304415785348
 10
1972.099883670649
 20
432.5304415785348
 10
1972.099883670649
 20
436.3778198248559
  0
LINE
  5
350
330
2
100
AcDbEntity
  8
0
100
AcDbLine
 10
1980.275562444082
 20
436.3778198248559
 30
0.0
 11
1980.275562444082
 21
432.5304415785348
 31
0.0
  0
LINE
  5
351
330
2
100
AcDbEntity
  8
0
100
AcDbLine
 10
1969.695272266699
 20
436.3778198248559
 30
0.0
 11
1969.695272266699
 21
432.5304415785348
 31
0.0
  0
ARC
  5
352
330
2
100
AcDbEntity
  8
0
100
AcDbCircle
 10
1955.153855369283
 20
472.7113200240806
 30
0.0
 40
21.27432882847848
100
AcDbArc
 50
0.0000000000013544
 51
179.9999999999986
  0
ARC
  5
353
330
2
100
AcDbEntity
  8
0
100
AcDbCircle
 10
1955.153855369283
 20
472.7113200240806
 30
0.0
 40
18.38879514373745
100
AcDbArc
 50
359.9999999999986
 51
179.9999999999986
  0
LINE
  5
354
330
2
100
AcDbEntity
  8
0
100
AcDbLine
 10
1936.765060225545
 20
464.2163296285821
 30
0.0
 11
1936.765060225545
 21
472.711320024081
 31
0.0
  0
LINE
  5
355
330
2
100
AcDbEntity
  8
0
100
AcDbLine
 10
1933.879526540804
 20
472.7113200240806
 30
0.0
 11
1933.879526540804
 21
466.7669557498229
 31
0.0
  0
LINE
  5
356
330
2
100
AcDbEntity
  8
0
100
AcDbLine
 10
1976.428184197761
 20
472.7113200240806
 30
0.0
 11
1976.428184197761
 21
466.7669557498252
 31
0.0
  0
LINE
  5
357
330
2
100
AcDbEntity
  8
0
100
AcDbLine
 10
1973.54265051302
 20
464.2163296285835
 30
0.0
 11
1973.54265051302
 21
472.71132002408
 31
0.0
  0
LINE
  5
358
330
2
100
AcDbEntity
  8
0
100
AcDbLine
 10
2021.271121541371
 20
436.3778198248557
 30
0.0
 11
2021.271121541371
 21
440.1563559500225
 31
0.0
  0
LINE
  5
359
330
2
100
AcDbEntity
  8
0
100
AcDbLine
 10
2021.271121541371
 20
436.3778198248557
 30
0.0
 11
2021.271121541371
 21
367.5899729544728
 31
0.0
  0
LINE
  5
35A
330
2
100
AcDbEntity
  8
0
370
    40
100
AcDbLine
 10
2191.044738880669
 20
208.5485761978334
 30
0.0
 11
2219.060658828636
 21
373.0412069739732
 31
0.0
  0
LINE
  5
35B
330
2
100
AcDbEntity
  8
0
370
    40
100
AcDbLine
 10
2188.930001724291
 20
196.1321115984656
 30
0.0
 11
2171.978956148219
 21
201.6046637514664
 31
0.0
  0
LINE
  5
35C
330
2
100
AcDbEntity
  8
0
370
    40
100
AcDbLine
 10
2181.810273276879
 20
154.329348565817
 30
0.0
 11
2188.930001724292
 21
196.1321115984654
 31
0.0
  0
LINE
  5
35D
330
2
100
AcDbEntity
  8
0
370
    40
100
AcDbLine
 10
2171.978956148219
 20
201.6046637514664
 30
0.0
 11
2208.808113285181
 21
201.8304835089625
 31
0.0
  0
LINE
  5
35E
330
2
100
AcDbEntity
  8
0
370
    40
100
AcDbLine
 10
2191.044738880668
 20
208.5485761978333
 30
0.0
 11
2197.848015601342
 21
248.4933250320721
 31
0.0
  0
LINE
  5
35F
330
2
100
AcDbEntity
  8
0
370
    40
100
AcDbLine
 10
2208.808113285181
 20
201.8304835089625
 30
0.0
 11
2191.044738880669
 21
208.5485761978334
 31
0.0
  0
MTEXT
  5
360
330
2
100
AcDbEntity
  8
0
100
AcDbMText
 10
2109.379913950351
 20
877.1483651021439
 30
0.0
 40
28.0
 41
0.0
 71
     1
 72
     1
  1
THREADED ROD \P(BY OTHERS)
 73
     1
 44
1.0
  0
POINT
  5
361
330
2
100
AcDbEntity
  8
DEFPOINTS
  6
ByBlock
 62
     7
100
AcDbPoint
 10
1955.153855369282
 20
616.6112632607055
 30
0.0
  0
POINT
  5
362
330
2
100
AcDbEntity
  8
DEFPOINTS
  6
ByBlock
 62
     7
100
AcDbPoint
 10
1955.153855369282
 20
616.6112632607055
 30
0.0
  0
LINE
  5
363
330
2
100
AcDbEntity
  8
0
370
    40
100
AcDbLine
 10
2238.164511978835
 20
693.5390637538612
 30
0.0
 11
2252.172471952818
 21
775.7853791419311
 31
0.0
  0
LINE
  5
364
330
2
100
AcDbEntity
  8
0
100
AcDbLine
 10
2176.746243064158
 20
650.3281490405319
 30
0.0
 11
2230.804951117202
 21
650.3281490405319
 31
0.0
  0
LINE
  5
365
330
2
100
AcDbEntity
  8
0
100
AcDbLine
 10
2173.723414164024
 20
725.8988715438698
 30
0.0
 11
2243.67594297911
 21
725.8988715438699
 31
0.0
  0
LINE
  5
366
330
2
100
AcDbEntity
  8
0
100
AcDbLine
 10
2176.746243064158
 20
650.3281490405319
 30
0.0
 11
2176.746243064158
 21
725.8988715438698
 31
0.0
  0
LINE
  5
367
330
2
100
AcDbEntity
  8
0
100
AcDbLine
 10
2138.960881812488
 20
650.3281490405319
 30
0.0
 11
2138.960881812488
 21
725.8988715438698
 31
0.0
  0
ARC
  5
368
330
2
100
AcDbEntity
  8
0
100
AcDbCircle
 10
2157.853562438323
 20
636.7254189899309
 30
0.0
 40
26.44975287616828
100
AcDbArc
 50
44.415308597193
 51
135.584691402807
  0
LINE
  5
369
330
2
100
AcDbEntity
  8
0
100
AcDbLine
 10
2138.960881812488
 20
650.3281490405319
 30
0.0
 11
2176.746243064158
 21
650.3281490405319
 31
0.0
  0
ARC
  5
36A
330
2
100
AcDbEntity
  8
0
100
AcDbCircle
 10
2157.853562438323
 20
629.9240539646307
 30
0.0
 40
26.44975287616828
100
AcDbArc
 50
50.48234720282692
 51
129.517652797173
  0
ARC
  5
36B
330
2
100
AcDbEntity
  8
0
100
AcDbCircle
 10
2157.853562438323
 20
704.7390692429353
 30
0.0
 40
26.44975287616828
100
AcDbArc
 50
126.8698976458444
 51
135.584691402807
  0
ARC
  5
36C
330
2
100
AcDbEntity
  8
0
100
AcDbCircle
 10
2157.853562438323
 20
650.3281490405319
 30
0.0
 40
26.44975287616828
100
AcDbArc
 50
44.415308597193
 51
135.584691402807
  0
ARC
  5
36D
330
2
100
AcDbEntity
  8
0
100
AcDbCircle
 10
2157.853562438323
 20
684.3349741670339
 30
0.0
 40
26.44975287616828
100
AcDbArc
 50
44.415308597193
 51
135.584691402807
  0
ARC
  5
36E
330
2
100
AcDbEntity
  8
0
100
AcDbCircle
 10
2157.853562438323
 20
663.9308790911326
 30
0.0
 40
26.44975287616828
100
AcDbArc
 50
44.415308597193
 51
135.584691402807
  0
ARC
  5
36F
330
2
100
AcDbEntity
  8
0
100
AcDbCircle
 10
2157.853562438323
 20
670.7322441164331
 30
0.0
 40
26.44975287616828
100
AcDbArc
 50
44.415308597193
 51
135.584691402807
  0
ARC
  5
370
330
2
100
AcDbEntity
  8
0
100
AcDbCircle
 10
2157.853562438323
 20
677.5336091417336
 30
0.0
 40
26.44975287616828
100
AcDbArc
 50
44.415308597193
 51
135.584691402807
  0
ARC
  5
371
330
2
100
AcDbEntity
  8
0
100
AcDbCircle
 10
2157.853562438323
 20
657.1295140658324
 30
0.0
 40
26.44975287616828
100
AcDbArc
 50
44.415308597193
 51
135.584691402807
  0
ARC
  5
372
330
2
100
AcDbEntity
  8
0
100
AcDbCircle
 10
2157.853562438323
 20
643.5267840152314
 30
0.0
 40
26.44975287616828
100
AcDbArc
 50
44.415308597193
 51
135.584691402807
  0
ARC
  5
373
330
2
100
AcDbEntity
  8
0
100
AcDbCircle
 10
2157.853562438323
 20
697.9377042176349
 30
0.0
 40
26.44975287616828
100
AcDbArc
 50
44.415308597193
 51
135.584691402807
  0
ARC
  5
374
330
2
100
AcDbEntity
  8
0
100
AcDbCircle
 10
2157.853562438323
 20
691.1363391923344
 30
0.0
 40
26.44975287616828
100
AcDbArc
 50
44.415308597193
 51
135.584691402807
  0
LINE
  5
375
330
2
100
AcDbEntity
  8
0
100
AcDbLine
 10
2176.746243064158
 20
725.8988715438698
 30
0.0
 11
2138.960881812488
 21
725.8988715438698
 31
0.0
  0
ARC
  5
376
330
2
100
AcDbEntity
  8
0
100
AcDbCircle
 10
2157.853562438323
 20
704.7390692429353
 30
0.0
 40
26.44975287616828
100
AcDbArc
 50
44.415308597193
 51
53.1301023541555
  0
LINE
  5
377
330
2
100
AcDbEntity
  8
0
100
AcDbLine
 10
2176.746243064158
 20
725.8988715438698
 30
0.0
 11
2182.298565593986
 21
725.8988715438698
 31
0.0
  0
LINE
  5
378
330
2
100
AcDbEntity
  8
0
370
    40
100
AcDbLine
 10
2228.930046375045
 20
639.3198361218448
 30
0.0
 11
2236.049774822458
 21
681.1225991544932
 31
0.0
  0
LINE
  5
379
330
2
100
AcDbEntity
  8
0
370
    40
100
AcDbLine
 10
2219.098729246385
 20
686.5951513074942
 30
0.0
 11
2255.927886383346
 21
686.8209710649903
 31
0.0
  0
LINE
  5
37A
330
2
100
AcDbEntity
  8
0
370
    40
100
AcDbLine
 10
2236.049774822457
 20
681.1225991544934
 30
0.0
 11
2219.098729246385
 21
686.5951513074942
 31
0.0
  0
LINE
  5
37B
330
2
100
AcDbEntity
  8
0
370
    40
100
AcDbLine
 10
2255.927886383346
 20
686.8209710649903
 30
0.0
 11
2238.164511978835
 21
693.5390637538612
 31
0.0
  0
LINE
  5
37C
330
2
100
AcDbEntity
  8
0
370
    40
100
AcDbLine
 10
2238.164511978834
 20
693.5390637538611
 30
0.0
 11
2244.967788699508
 21
733.4838125880999
 31
0.0
  0
ENDSEC
  0
SECTION
  2
OBJECTS
  0
DICTIONARY
  5
7
330
0
100
AcDbDictionary
281
     1
  3
ACAD_GROUP
350
22
  3
ACAD_LAYOUT
350
B
  3
ACAD_MLINESTYLE
350
23
  3
ACAD_PLOTSETTINGS
350
24
  3
ACAD_PLOTSTYLENAME
350
6
  3
AcDbVariableDictionary
350
37D
  0
DICTIONARY
  5
22
102
{ACAD_REACTORS
330
7
102
}
330
7
100
AcDbDictionary
281
     1
  0
DICTIONARY
  5
B
102
{ACAD_REACTORS
330
7
102
}
330
7
100
AcDbDictionary
281
     1
  3
mirage
350
F
  3
Model
350
A
  0
DICTIONARY
  5
23
102
{ACAD_REACTORS
330
7
102
}
330
7
100
AcDbDictionary
281
     1
  3
STANDARD
350
26
  0
DICTIONARY
  5
24
102
{ACAD_REACTORS
330
7
102
}
330
7
100
AcDbDictionary
281
     1
  0
ACDBDICTIONARYWDFLT
  5
6
102
{ACAD_REACTORS
330
7
102
}
330
7
100
AcDbDictionary
281
     1
  3
Normal
350
5
100
AcDbDictionaryWithDefault
340
5
  0
DICTIONARY
  5
37D
102
{ACAD_REACTORS
330
7
102
}
330
7
100
AcDbDictionary
281
     1
  3
DIMASSOC
350
37F
  3
HIDETEXT
350
37E
  0
LAYOUT
  5
F
102
{ACAD_REACTORS
330
B
102
}
330
B
100
AcDbPlotSettings
  1

  2
HP LaserJet 5N
  4
A4
  6

 40
6.043083190917968
 41
6.720414161682128
 42
7.821090698242187
 43
5.027069091796875
 44
210.0579986572265
 45
296.9259948730469
 46
0.0
 47
0.0
 48
0.0
 49
0.0
140
0.0
141
0.0
142
1.0
143
1.0
 70
   688
 72
     1
 73
     0
 74
     5
  7

 75
    16
147
1.0
148
0.0
149
0.0
100
AcDbLayout
  1
mirage
 70
     1
 71
     1
 10
-6.043083190917968
 20
-6.720414161682128
 11
204.0149154663085
 21
290.2055807113647
 12
0.0
 22
0.0
 32
0.0
 14
-84.0
 24
-0.1575368999165647
 34
0.0
 15
211.0941500469197
 25
282.033201554023
 35
0.0
146
0.0
 13
0.0
 23
0.0
 33
0.0
 16
1.0
 26
0.0
 36
0.0
 17
0.0
 27
1.0
 37
0.0
 76
     0
330
C
  0
LAYOUT
  5
A
102
{ACAD_REACTORS
330
B
102
}
330
B
100
AcDbPlotSettings
  1

  2
HP LaserJet 5N - Reception
  4
A4
  6

 40
6.043083190917968
 41
6.720414161682128
 42
7.821090698242187
 43
5.027069091796875
 44
210.0579986572265
 45
296.9259948730469
 46
0.0
 47
0.0
 48
1247.962481013386
 49
-462.2982024585817
140
3947.729282488846
141
1000.001337832762
142
1.0
143
9.466936292440527
 70
 11952
 72
     1
 73
     1
 74
     4
  7

 75
     0
147
0.1056307942833114
148
-1247.962481013386
149
462.2982024585817
100
AcDbLayout
  1
Model
 70
     1
 71
     0
 10
0.0
 20
0.0
 11
12.0
 21
9.0
 12
0.0
 22
0.0
 32
0.0
 14
0.0
 24
0.0
 34
0.0
 15
0.0
 25
0.0
 35
0.0
146
0.0
 13
0.0
 23
0.0
 33
0.0
 16
1.0
 26
0.0
 36
0.0
 17
0.0
 27
1.0
 37
0.0
 76
     0
330
2
  0
MLINESTYLE
  5
26
102
{ACAD_REACTORS
330
23
102
}
330
23
100
AcDbMlineStyle
  2
STANDARD
 70
     0
  3

 62
     0
 51
90.0
 52
90.0
 71
     2
 49
0.5
 62
   256
  6
BYLAYER
 49
-0.5
 62
   256
  6
BYLAYER
  0
ACDBPLACEHOLDER
  5
5
102
{ACAD_REACTORS
330
6
102
}
330
6
  0
DICTIONARYVAR
  5
37F
102
{ACAD_REACTORS
330
37D
102
}
330
37D
100
DictionaryVariables
280
     0
  1
1
  0
DICTIONARYVAR
  5
37E
102
{ACAD_REACTORS
330
37D
102
}
330
37D
100
DictionaryVariables
280
     0
  1
1
  0
ENDSEC
  0
EOF
