  0
SECTION
  2
HEADER
  9
$ACADVER
  1
AC1015
  9
$ACADMAINTVER
 70
    13
  9
$DWGCODEPAGE
  3
ANSI_1252
  9
$INSBASE
 10
1027.992100661707
 20
-3768.192094562268
 30
0.0
  9
$EXTMIN
 10
1027.992100661707
 20
-3768.192096610565
 30
0.0
  9
$EXTMAX
 10
3790.582488356962
 20
960.370711776728
 30
0.0
  9
$LIMMIN
 10
0.0
 20
0.0
  9
$LIMMAX
 10
297.0
 20
210.0
  9
$ORTHOMODE
 70
     0
  9
$REGENMODE
 70
     1
  9
$FILLMODE
 70
     1
  9
$QTEXTMODE
 70
     0
  9
$MIRRTEXT
 70
     1
  9
$LTSCALE
 40
1.0
  9
$ATTMODE
 70
     1
  9
$TEXTSIZE
 40
10.0
  9
$TRACEWID
 40
0.05
  9
$TEXTSTYLE
  7
STYLE1
  9
$CLAYER
  8
0
  9
$CELTYPE
  6
BYLAYER
  9
$CECOLOR
 62
   256
  9
$CELTSCALE
 40
1.0
  9
$DISPSILH
 70
     0
  9
$DIMSCALE
 40
1.5
  9
$DIMASZ
 40
15.0
  9
$DIMEXO
 40
10.0
  9
$DIMDLI
 40
3.75
  9
$DIMRND
 40
0.0
  9
$DIMDLE
 40
0.0
  9
$DIMEXE
 40
10.0
  9
$DIMTP
 40
0.0
  9
$DIMTM
 40
0.0
  9
$DIMTXT
 40
17.0
  9
$DIMCEN
 40
2.5
  9
$DIMTSZ
 40
0.0
  9
$DIMTOL
 70
     0
  9
$DIMLIM
 70
     0
  9
$DIMTIH
 70
     1
  9
$DIMTOH
 70
     1
  9
$DIMSE1
 70
     0
  9
$DIMSE2
 70
     0
  9
$DIMTAD
 70
     0
  9
$DIMZIN
 70
     0
  9
$DIMBLK
  1

  9
$DIMASO
 70
     1
  9
$DIMSHO
 70
     1
  9
$DIMPOST
  1

  9
$DIMAPOST
  1

  9
$DIMALT
 70
     0
  9
$DIMALTD
 70
     2
  9
$DIMALTF
 40
25.4
  9
$DIMLFAC
 40
1.0
  9
$DIMTOFL
 70
     0
  9
$DIMTVP
 40
0.0
  9
$DIMTIX
 70
     0
  9
$DIMSOXD
 70
     0
  9
$DIMSAH
 70
     0
  9
$DIMBLK1
  1

  9
$DIMBLK2
  1

  9
$DIMSTYLE
  2
STANDARD
  9
$DIMCLRD
 70
     0
  9
$DIMCLRE
 70
     0
  9
$DIMCLRT
 70
     0
  9
$DIMTFAC
 40
1.0
  9
$DIMGAP
 40
10.0
  9
$DIMJUST
 70
     0
  9
$DIMSD1
 70
     0
  9
$DIMSD2
 70
     0
  9
$DIMTOLJ
 70
     1
  9
$DIMTZIN
 70
     0
  9
$DIMALTZ
 70
     0
  9
$DIMALTTZ
 70
     0
  9
$DIMUPT
 70
     0
  9
$DIMDEC
 70
     4
  9
$DIMTDEC
 70
     4
  9
$DIMALTU
 70
     2
  9
$DIMALTTD
 70
     2
  9
$DIMTXSTY
  7
STANDARD
  9
$DIMAUNIT
 70
     0
  9
$DIMADEC
 70
     0
  9
$DIMALTRND
 40
0.0
  9
$DIMAZIN
 70
     0
  9
$DIMDSEP
 70
    46
  9
$DIMATFIT
 70
     3
  9
$DIMFRAC
 70
     0
  9
$DIMLDRBLK
  1

  9
$DIMLUNIT
 70
     2
  9
$DIMLWD
 70
    -2
  9
$DIMLWE
 70
    -2
  9
$DIMTMOVE
 70
     0
  9
$LUNITS
 70
     2
  9
$LUPREC
 70
     4
  9
$SKETCHINC
 40
0.1
  9
$FILLETRAD
 40
2.0
  9
$AUNITS
 70
     0
  9
$AUPREC
 70
     0
  9
$MENU
  1
acad
  9
$ELEVATION
 40
0.0
  9
$PELEVATION
 40
0.0
  9
$THICKNESS
 40
0.0
  9
$LIMCHECK
 70
     0
  9
$CHAMFERA
 40
10.0
  9
$CHAMFERB
 40
10.0
  9
$CHAMFERC
 40
20.0
  9
$CHAMFERD
 40
0.0
  9
$SKPOLY
 70
     0
  9
$TDCREATE
 40
2452461.345466435
  9
$TDUCREATE
 40
2452460.928799768
  9
$TDUPDATE
 40
2453647.411549618
  9
$TDUUPDATE
 40
2453646.994882951
  9
$TDINDWG
 40
1.4603312616
  9
$TDUSRTIMER
 40
1.4603312616
  9
$USRTIMER
 70
     1
  9
$ANGBASE
 50
0.0
  9
$ANGDIR
 70
     0
  9
$PDMODE
 70
     0
  9
$PDSIZE
 40
0.0
  9
$PLINEWID
 40
0.0
  9
$SPLFRAME
 70
     0
  9
$SPLINETYPE
 70
     6
  9
$SPLINESEGS
 70
    50
  9
$HANDSEED
  5
54A
  9
$SURFTAB1
 70
     6
  9
$SURFTAB2
 70
     6
  9
$SURFTYPE
 70
     6
  9
$SURFU
 70
     6
  9
$SURFV
 70
     6
  9
$UCSBASE
  2

  9
$UCSNAME
  2

  9
$UCSORG
 10
0.0
 20
0.0
 30
0.0
  9
$UCSXDIR
 10
1.0
 20
0.0
 30
0.0
  9
$UCSYDIR
 10
0.0
 20
1.0
 30
0.0
  9
$UCSORTHOREF
  2

  9
$UCSORTHOVIEW
 70
     0
  9
$UCSORGTOP
 10
0.0
 20
0.0
 30
0.0
  9
$UCSORGBOTTOM
 10
0.0
 20
0.0
 30
0.0
  9
$UCSORGLEFT
 10
0.0
 20
0.0
 30
0.0
  9
$UCSORGRIGHT
 10
0.0
 20
0.0
 30
0.0
  9
$UCSORGFRONT
 10
0.0
 20
0.0
 30
0.0
  9
$UCSORGBACK
 10
0.0
 20
0.0
 30
0.0
  9
$PUCSBASE
  2

  9
$PUCSNAME
  2

  9
$PUCSORG
 10
0.0
 20
0.0
 30
0.0
  9
$PUCSXDIR
 10
1.0
 20
0.0
 30
0.0
  9
$PUCSYDIR
 10
0.0
 20
1.0
 30
0.0
  9
$PUCSORTHOREF
  2

  9
$PUCSORTHOVIEW
 70
     0
  9
$PUCSORGTOP
 10
0.0
 20
0.0
 30
0.0
  9
$PUCSORGBOTTOM
 10
0.0
 20
0.0
 30
0.0
  9
$PUCSORGLEFT
 10
0.0
 20
0.0
 30
0.0
  9
$PUCSORGRIGHT
 10
0.0
 20
0.0
 30
0.0
  9
$PUCSORGFRONT
 10
0.0
 20
0.0
 30
0.0
  9
$PUCSORGBACK
 10
0.0
 20
0.0
 30
0.0
  9
$USERI1
 70
     0
  9
$USERI2
 70
     0
  9
$USERI3
 70
     0
  9
$USERI4
 70
     0
  9
$USERI5
 70
     0
  9
$USERR1
 40
0.0
  9
$USERR2
 40
0.0
  9
$USERR3
 40
0.0
  9
$USERR4
 40
0.0
  9
$USERR5
 40
0.0
  9
$WORLDVIEW
 70
     1
  9
$SHADEDGE
 70
     3
  9
$SHADEDIF
 70
    70
  9
$TILEMODE
 70
     1
  9
$MAXACTVP
 70
    16
  9
$PINSBASE
 10
0.0
 20
0.0
 30
0.0
  9
$PLIMCHECK
 70
     0
  9
$PEXTMIN
 10
-84.0
 20
-0.1575368999165647
 30
0.0
  9
$PEXTMAX
 10
211.0941500469197
 20
282.033201554023
 30
0.0
  9
$PLIMMIN
 10
-6.043083190917968
 20
-6.720414161682128
  9
$PLIMMAX
 10
204.0149154663085
 20
290.2055807113647
  9
$UNITMODE
 70
     0
  9
$VISRETAIN
 70
     0
  9
$PLINEGEN
 70
     0
  9
$PSLTSCALE
 70
     1
  9
$TREEDEPTH
 70
  3020
  9
$CMLSTYLE
  2
STANDARD
  9
$CMLJUST
 70
     0
  9
$CMLSCALE
 40
20.0
  9
$PROXYGRAPHICS
 70
     1
  9
$MEASUREMENT
 70
     0
  9
$CELWEIGHT
370
    -1
  9
$ENDCAPS
280
     0
  9
$JOINSTYLE
280
     0
  9
$LWDISPLAY
290
     0
  9
$INSUNITS
 70
     0
  9
$HYPERLINKBASE
  1

  9
$STYLESHEET
  1

  9
$XEDIT
290
     1
  9
$CEPSNTYPE
380
     0
  9
$PSTYLEMODE
290
     1
  9
$FINGERPRINTGUID
  2
{19245959-ED00-4CA9-B29A-3CAC91204687}
  9
$VERSIONGUID
  2
{7CC904FB-3B18-478A-88A3-8F0894739536}
  9
$EXTNAMES
290
     1
  9
$PSVPSCALE
 40
0.0
  9
$OLESTARTUP
290
     0
  0
ENDSEC
  0
SECTION
  2
CLASSES
  0
CLASS
  1
ACDBDICTIONARYWDFLT
  2
AcDbDictionaryWithDefault
  3
AutoCAD 2000
 90
        0
280
     0
281
     0
  0
CLASS
  1
ACDBPLACEHOLDER
  2
AcDbPlaceHolder
  3
AutoCAD 2000
 90
        0
280
     0
281
     0
  0
CLASS
  1
LAYOUT
  2
AcDbLayout
  3
AutoCAD 2000
 90
        0
280
     0
281
     0
  0
CLASS
  1
DICTIONARYVAR
  2
AcDbDictionaryVar
  3
AutoCAD 2000
 90
        0
280
     0
281
     0
  0
ENDSEC
  0
SECTION
  2
TABLES
  0
TABLE
  2
VPORT
  5
535
330
0
100
AcDbSymbolTable
 70
     4
  0
VPORT
  5
549
330
535
100
AcDbSymbolTableRecord
100
AcDbViewportTableRecord
  2
*Active
 70
     0
 10
0.0
 20
0.0
 11
1.0
 21
1.0
 12
1528.441817060404
 22
-196.1126667097469
 13
0.0
 23
0.0
 14
10.0
 24
10.0
 15
10.0
 25
10.0
 16
0.0
 26
0.0
 36
1.0
 17
0.0
 27
0.0
 37
0.0
 40
2623.234145305265
 41
1.786259541984732
 42
50.0
 43
0.0
 44
0.0
 50
0.0
 51
0.0
 71
     0
 72
  5000
 73
     1
 74
     0
 75
     0
 76
     0
 77
     0
 78
     0
281
     0
 65
     1
110
0.0
120
0.0
130
0.0
111
1.0
121
0.0
131
0.0
112
0.0
122
1.0
132
0.0
 79
     0
146
0.0
  0
ENDTAB
  0
TABLE
  2
LTYPE
  5
530
330
0
100
AcDbSymbolTable
 70
     2
  0
LTYPE
  5
531
330
530
100
AcDbSymbolTableRecord
100
AcDbLinetypeTableRecord
  2
BYBLOCK
 70
     0
  3

 72
    65
 73
     0
 40
0.0
  0
LTYPE
  5
532
330
530
100
AcDbSymbolTableRecord
100
AcDbLinetypeTableRecord
  2
BYLAYER
 70
     0
  3

 72
    65
 73
     0
 40
0.0
  0
LTYPE
  5
8
330
530
100
AcDbSymbolTableRecord
100
AcDbLinetypeTableRecord
  2
CONTINUOUS
 70
     0
  3
Solid line
 72
    65
 73
     0
 40
0.0
  0
LTYPE
  5
23F
330
530
100
AcDbSymbolTableRecord
100
AcDbLinetypeTableRecord
  2
DASHED
 70
     0
  3
__ __ __ __ __ __ __ __ __ __ __ __ __ __ __ __
 72
    65
 73
     2
 40
0.75
 49
0.5
 74
     0
 49
-0.25
 74
     0
  0
ENDTAB
  0
TABLE
  2
LAYER
  5
52D
330
0
100
AcDbSymbolTable
 70
     5
  0
LAYER
  5
4
330
52D
100
AcDbSymbolTableRecord
100
AcDbLayerTableRecord
  2
0
 70
     0
 62
     7
  6
CONTINUOUS
370
    -3
390
5
  0
LAYER
  5
23E
330
52D
100
AcDbSymbolTableRecord
100
AcDbLayerTableRecord
  2
DASHED
 70
     0
 62
     7
  6
DASHED
370
    -3
390
5
  0
LAYER
  5
80
330
52D
100
AcDbSymbolTableRecord
100
AcDbLayerTableRecord
  2
DIMENSION
 70
     0
 62
     7
  6
CONTINUOUS
370
    -3
390
5
  0
LAYER
  5
13
330
52D
100
AcDbSymbolTableRecord
100
AcDbLayerTableRecord
  2
DEFPOINTS
 70
     0
 62
     7
  6
CONTINUOUS
290
     0
370
    -3
390
5
  0
LAYER
  5
320
330
52D
100
AcDbSymbolTableRecord
100
AcDbLayerTableRecord
  2
thread
 70
     0
 62
     7
  6
CONTINUOUS
370
    13
390
5
  0
ENDTAB
  0
TABLE
  2
STYLE
  5
52E
330
0
100
AcDbSymbolTable
 70
     2
  0
STYLE
  5
9
330
52E
100
AcDbSymbolTableRecord
100
AcDbTextStyleTableRecord
  2
STANDARD
 70
     0
 40
0.0
 41
1.0
 50
0.0
 71
     0
 42
5.0
  3
txt
  4

  0
STYLE
  5
1A
330
52E
100
AcDbSymbolTableRecord
100
AcDbTextStyleTableRecord
  2
STYLE1
 70
     0
 40
0.0
 41
1.0
 50
0.0
 71
     0
 42
10.0
  3
ARIAL.TTF
  4

1001
ACAD
1000
Arial
1071
       34
  0
ENDTAB
  0
TABLE
  2
VIEW
  5
533
330
0
100
AcDbSymbolTable
 70
     0
  0
ENDTAB
  0
TABLE
  2
UCS
  5
534
330
0
100
AcDbSymbolTable
 70
     0
  0
ENDTAB
  0
TABLE
  2
APPID
  5
537
330
0
100
AcDbSymbolTable
 70
     1
  0
APPID
  5
18
330
537
100
AcDbSymbolTableRecord
100
AcDbRegAppTableRecord
  2
ACAD
 70
     0
  0
ENDTAB
  0
TABLE
  2
DIMSTYLE
  5
538
330
0
100
AcDbSymbolTable
 70
     3
100
AcDbDimStyleTable
 71
     3
340
A
340
539
340
53A
  0
DIMSTYLE
105
A
102
{ACAD_REACTORS
330
3DF
330
1B
330
3
330
1B8
330
1C6
330
1E4
330
8E
330
A4
330
A7
330
8D
330
2E8
330
241
330
45D
330
452
330
441
330
515
330
443
330
203
330
200
330
451
330
442
330
29
102
}
330
538
100
AcDbSymbolTableRecord
100
AcDbDimStyleTableRecord
  2
STANDARD
 70
     0
 40
1.5
 41
15.0
 42
10.0
 43
3.75
 44
10.0
140
17.0
141
2.5
147
10.0
340
9
  0
DIMSTYLE
105
539
330
538
100
AcDbSymbolTableRecord
100
AcDbDimStyleTableRecord
  2
ISO-25
 70
     0
 41
2.5
 42
0.625
 43
3.75
 44
1.25
 74
     0
 77
     1
 78
     8
140
2.5
141
2.5
143
0.0394
145
1.0
147
0.625
172
     1
340
9
  0
DIMSTYLE
105
53A
330
538
100
AcDbSymbolTableRecord
100
AcDbDimStyleTableRecord
  2
luke
 70
     0
 41
30.0
 42
2.0
 43
3.75
 44
5.0
 73
     0
 74
     0
 77
     1
 78
     8
140
15.0
141
2.5
143
0.03937007874016
147
10.0
171
     3
271
     1
272
     1
274
     3
283
     0
284
     8
289
     0
340
9
  0
ENDTAB
  0
TABLE
  2
BLOCK_RECORD
  5
1
330
0
100
AcDbSymbolTable
 70
     6
  0
BLOCK_RECORD
  5
2
330
1
100
AcDbSymbolTableRecord
100
AcDbBlockTableRecord
  2
*MODEL_SPACE
340
527
  0
BLOCK_RECORD
  5
529
330
1
100
AcDbSymbolTableRecord
100
AcDbBlockTableRecord
  2
*Paper_Space
340
52C
  0
BLOCK_RECORD
  5
1C
330
1
100
AcDbSymbolTableRecord
100
AcDbBlockTableRecord
  2
*D0
340
0
  0
BLOCK_RECORD
  5
B
330
1
100
AcDbSymbolTableRecord
100
AcDbBlockTableRecord
  2
*D1
340
0
  0
BLOCK_RECORD
  5
1B9
330
1
100
AcDbSymbolTableRecord
100
AcDbBlockTableRecord
  2
*D2
340
0
  0
BLOCK_RECORD
  5
1C7
330
1
100
AcDbSymbolTableRecord
100
AcDbBlockTableRecord
  2
*D3
340
0
  0
BLOCK_RECORD
  5
1E5
330
1
100
AcDbSymbolTableRecord
100
AcDbBlockTableRecord
  2
*D4
340
0
  0
BLOCK_RECORD
  5
3E0
330
1
100
AcDbSymbolTableRecord
100
AcDbBlockTableRecord
  2
*D5
340
0
  0
ENDTAB
  0
ENDSEC
  0
SECTION
  2
BLOCKS
  0
BLOCK
  5
525
330
2
100
AcDbEntity
  8
0
100
AcDbBlockBegin
  2
*MODEL_SPACE
 70
     0
 10
0.0
 20
0.0
 30
0.0
  3
*MODEL_SPACE
  1

  0
ENDBLK
  5
526
330
2
100
AcDbEntity
  8
0
100
AcDbBlockEnd
  0
BLOCK
  5
52A
330
529
100
AcDbEntity
 67
     1
  8
0
100
AcDbBlockBegin
  2
*Paper_Space
 70
     0
 10
0.0
 20
0.0
 30
0.0
  3
*Paper_Space
  1

  0
ENDBLK
  5
52B
330
529
100
AcDbEntity
 67
     1
  8
0
100
AcDbBlockEnd
  0
BLOCK
  5
26
330
1C
100
AcDbEntity
  8
0
100
AcDbBlockBegin
  2
*D0
 70
     1
 10
0.0
 20
0.0
 30
0.0
  3
*D0
  1

  0
LINE
  5
1D
330
1C
100
AcDbEntity
  8
0
 62
     0
370
    -2
100
AcDbLine
 10
1452.67092870619
 20
-1269.691709824489
 30
0.0
 11
1452.67092870619
 21
-1227.022271999548
 31
0.0
  0
LINE
  5
1E
330
1C
100
AcDbEntity
  8
0
 62
     0
370
    -2
100
AcDbLine
 10
1851.134724008895
 20
-1269.691709824489
 30
0.0
 11
1851.134724008895
 21
-1227.022271999548
 31
0.0
  0
LINE
  5
1F
330
1C
100
AcDbEntity
  8
0
 62
     0
370
    -2
100
AcDbLine
 10
1475.17092870619
 20
-1242.022271999548
 30
0.0
 11
1828.634724008895
 21
-1242.022271999548
 31
0.0
  0
MTEXT
  5
20
330
1C
100
AcDbEntity
  8
0
 62
     0
100
AcDbMText
 10
2481.144314713742
 20
-3750.432535491601
 30
0.0
 40
25.5
 41
0.0
 71
     5
 72
     1
  1
\A1;398.4638
 73
     1
 44
1.0
  0
SOLID
  5
21
330
1C
100
AcDbEntity
  8
0
 62
     0
100
AcDbTrace
 10
1475.17092870619
 20
-1238.272271999548
 30
0.0
 11
1475.17092870619
 21
-1245.772271999548
 31
0.0
 12
1452.67092870619
 22
-1242.022271999548
 32
0.0
 13
1452.67092870619
 23
-1242.022271999548
 33
0.0
  0
SOLID
  5
22
330
1C
100
AcDbEntity
  8
0
 62
     0
100
AcDbTrace
 10
1828.634724008895
 20
-1238.272271999548
 30
0.0
 11
1828.634724008895
 21
-1245.772271999548
 31
0.0
 12
1851.134724008895
 22
-1242.022271999548
 32
0.0
 13
1851.134724008895
 23
-1242.022271999548
 33
0.0
  0
POINT
  5
23
330
1C
100
AcDbEntity
  8
DEFPOINTS
 62
     0
100
AcDbPoint
 10
1452.67092870619
 20
-1284.691709824489
 30
0.0
  0
POINT
  5
24
330
1C
100
AcDbEntity
  8
DEFPOINTS
 62
     0
100
AcDbPoint
 10
1851.134724008895
 20
-1284.691709824489
 30
0.0
  0
POINT
  5
25
330
1C
100
AcDbEntity
  8
DEFPOINTS
 62
     0
100
AcDbPoint
 10
1851.134724008895
 20
-1242.022271999548
 30
0.0
  0
ENDBLK
  5
27
330
1C
100
AcDbEntity
  8
0
100
AcDbBlockEnd
  0
BLOCK
  5
16
330
B
100
AcDbEntity
  8
0
100
AcDbBlockBegin
  2
*D1
 70
     1
 10
0.0
 20
0.0
 30
0.0
  3
*D1
  1

  0
LINE
  5
C
330
B
100
AcDbEntity
  8
0
 62
     0
370
    -2
100
AcDbLine
 10
1333.87092870619
 20
-965.2504354145225
 30
0.0
 11
1333.87092870619
 21
-893.9168876974354
 31
0.0
  0
LINE
  5
D
330
B
100
AcDbEntity
  8
0
 62
     0
370
    -2
100
AcDbLine
 10
1969.934724008896
 20
-965.2504354145225
 30
0.0
 11
1969.934724008896
 21
-893.9168876974354
 31
0.0
  0
LINE
  5
E
330
B
100
AcDbEntity
  8
0
 62
     0
370
    -2
100
AcDbLine
 10
1356.37092870619
 20
-908.9168876974353
 30
0.0
 11
1947.434724008896
 21
-908.9168876974353
 31
0.0
  0
MTEXT
  5
F
330
B
100
AcDbEntity
  8
0
 62
     0
100
AcDbMText
 10
2693.086602123647
 20
-3755.442096610566
 30
0.0
 40
25.5
 41
0.0
 71
     5
 72
     1
  1
\A1;636.0638
 73
     1
 44
1.0
  0
SOLID
  5
10
330
B
100
AcDbEntity
  8
0
 62
     0
100
AcDbTrace
 10
1356.37092870619
 20
-905.1668876974353
 30
0.0
 11
1356.37092870619
 21
-912.6668876974354
 31
0.0
 12
1333.87092870619
 22
-908.9168876974353
 32
0.0
 13
1333.87092870619
 23
-908.9168876974353
 33
0.0
  0
SOLID
  5
11
330
B
100
AcDbEntity
  8
0
 62
     0
100
AcDbTrace
 10
1947.434724008896
 20
-905.1668876974353
 30
0.0
 11
1947.434724008896
 21
-912.6668876974354
 31
0.0
 12
1969.934724008896
 22
-908.9168876974353
 32
0.0
 13
1969.934724008896
 23
-908.9168876974353
 33
0.0
  0
POINT
  5
12
330
B
100
AcDbEntity
  8
DEFPOINTS
 62
     0
100
AcDbPoint
 10
1333.87092870619
 20
-980.2504354145225
 30
0.0
  0
POINT
  5
14
330
B
100
AcDbEntity
  8
DEFPOINTS
 62
     0
100
AcDbPoint
 10
1969.934724008896
 20
-980.2504354145225
 30
0.0
  0
POINT
  5
15
330
B
100
AcDbEntity
  8
DEFPOINTS
 62
     0
100
AcDbPoint
 10
1969.934724008896
 20
-908.9168876974353
 30
0.0
  0
ENDBLK
  5
17
330
B
100
AcDbEntity
  8
0
100
AcDbBlockEnd
  0
BLOCK
  5
1C4
330
1B9
100
AcDbEntity
  8
0
100
AcDbBlockBegin
  2
*D2
 70
     1
 10
0.0
 20
0.0
 30
0.0
  3
*D2
  1

  0
LINE
  5
1BA
330
1B9
100
AcDbEntity
  8
0
 62
     0
370
    -2
100
AcDbLine
 10
2654.421141452434
 20
-1270.891709824489
 30
0.0
 11
2654.421141452434
 21
-1211.902980605048
 31
0.0
  0
LINE
  5
1BB
330
1B9
100
AcDbEntity
  8
0
 62
     0
370
    -2
100
AcDbLine
 10
2773.221141452433
 20
-1269.691709824489
 30
0.0
 11
2773.221141452433
 21
-1211.902980605048
 31
0.0
  0
LINE
  5
1BC
330
1B9
100
AcDbEntity
  8
0
 62
     0
370
    -2
100
AcDbLine
 10
2631.921141452433
 20
-1226.902980605048
 30
0.0
 11
2609.421141452433
 21
-1226.902980605048
 31
0.0
  0
LINE
  5
1BD
330
1B9
100
AcDbEntity
  8
0
 62
     0
370
    -2
100
AcDbLine
 10
2795.721141452434
 20
-1226.902980605048
 30
0.0
 11
2818.221141452433
 21
-1226.902980605048
 31
0.0
  0
MTEXT
  5
1BE
330
1B9
100
AcDbEntity
  8
0
 62
     0
100
AcDbMText
 10
2711.176859873258
 20
-1203.760971143497
 30
0.0
 40
25.5
 41
0.0
 71
     5
 72
     1
  1
\A1;48
 73
     1
 44
1.0
  0
SOLID
  5
1BF
330
1B9
100
AcDbEntity
  8
0
 62
     0
100
AcDbTrace
 10
2631.921141452433
 20
-1223.152980605048
 30
0.0
 11
2631.921141452433
 21
-1230.652980605048
 31
0.0
 12
2654.421141452434
 22
-1226.902980605048
 32
0.0
 13
2654.421141452434
 23
-1226.902980605048
 33
0.0
  0
SOLID
  5
1C0
330
1B9
100
AcDbEntity
  8
0
 62
     0
100
AcDbTrace
 10
2795.721141452434
 20
-1223.152980605048
 30
0.0
 11
2795.721141452434
 21
-1230.652980605048
 31
0.0
 12
2773.221141452433
 22
-1226.902980605048
 32
0.0
 13
2773.221141452433
 23
-1226.902980605048
 33
0.0
  0
POINT
  5
1C1
330
1B9
100
AcDbEntity
  8
DEFPOINTS
 62
     0
100
AcDbPoint
 10
2654.421141452434
 20
-1285.891709824489
 30
0.0
  0
POINT
  5
1C2
330
1B9
100
AcDbEntity
  8
DEFPOINTS
 62
     0
100
AcDbPoint
 10
2773.221141452433
 20
-1284.691709824489
 30
0.0
  0
POINT
  5
1C3
330
1B9
100
AcDbEntity
  8
DEFPOINTS
 62
     0
100
AcDbPoint
 10
2773.221141452433
 20
-1226.902980605048
 30
0.0
  0
ENDBLK
  5
1C5
330
1B9
100
AcDbEntity
  8
0
100
AcDbBlockEnd
  0
BLOCK
  5
1D2
330
1C7
100
AcDbEntity
  8
0
100
AcDbBlockBegin
  2
*D3
 70
     1
 10
0.0
 20
0.0
 30
0.0
  3
*D3
  1

  0
LINE
  5
1C8
330
1C7
100
AcDbEntity
  8
0
 62
     0
370
    -2
100
AcDbLine
 10
2784.621141452433
 20
-1281.091709824489
 30
0.0
 11
2854.486401455712
 21
-1281.091709824489
 31
0.0
  0
LINE
  5
1C9
330
1C7
100
AcDbEntity
  8
0
 62
     0
370
    -2
100
AcDbLine
 10
2784.621141452433
 20
-1353.091709824489
 30
0.0
 11
2854.486401455712
 21
-1353.091709824489
 31
0.0
  0
LINE
  5
1CA
330
1C7
100
AcDbEntity
  8
0
 62
     0
370
    -2
100
AcDbLine
 10
2839.486401455712
 20
-1258.591709824489
 30
0.0
 11
2839.486401455712
 21
-1236.091709824489
 31
0.0
  0
LINE
  5
1CB
330
1C7
100
AcDbEntity
  8
0
 62
     0
370
    -2
100
AcDbLine
 10
2839.486401455712
 20
-1375.591709824489
 30
0.0
 11
2839.486401455712
 21
-1398.091709824489
 31
0.0
  0
SOLID
  5
1CC
330
1C7
100
AcDbEntity
  8
0
 62
     0
100
AcDbTrace
 10
2835.736401455712
 20
-1258.591709824489
 30
0.0
 11
2843.236401455712
 21
-1258.591709824489
 31
0.0
 12
2839.486401455712
 22
-1281.091709824489
 32
0.0
 13
2839.486401455712
 23
-1281.091709824489
 33
0.0
  0
SOLID
  5
1CD
330
1C7
100
AcDbEntity
  8
0
 62
     0
100
AcDbTrace
 10
2835.736401455712
 20
-1375.591709824489
 30
0.0
 11
2843.236401455712
 21
-1375.591709824489
 31
0.0
 12
2839.486401455712
 22
-1353.091709824489
 32
0.0
 13
2839.486401455712
 23
-1353.091709824489
 33
0.0
  0
MTEXT
  5
1CE
330
1C7
100
AcDbEntity
  8
0
 62
     0
100
AcDbMText
 10
2839.486401455713
 20
-1317.091709824489
 30
0.0
 40
25.5
 41
0.0
 71
     5
 72
     1
  1
\A1;30
 73
     1
 44
1.0
  0
POINT
  5
1CF
330
1C7
100
AcDbEntity
  8
DEFPOINTS
 62
     0
100
AcDbPoint
 10
2769.621141452434
 20
-1281.091709824489
 30
0.0
  0
POINT
  5
1D0
330
1C7
100
AcDbEntity
  8
DEFPOINTS
 62
     0
100
AcDbPoint
 10
2769.621141452434
 20
-1353.091709824489
 30
0.0
  0
POINT
  5
1D1
330
1C7
100
AcDbEntity
  8
DEFPOINTS
 62
     0
100
AcDbPoint
 10
2839.486401455712
 20
-1353.091709824489
 30
0.0
  0
ENDBLK
  5
1D3
330
1C7
100
AcDbEntity
  8
0
100
AcDbBlockEnd
  0
BLOCK
  5
1F0
330
1E5
100
AcDbEntity
  8
0
100
AcDbBlockBegin
  2
*D4
 70
     1
 10
0.0
 20
0.0
 30
0.0
  3
*D4
  1

  0
LINE
  5
1E6
330
1E5
100
AcDbEntity
  8
0
 62
     0
370
    -2
100
AcDbLine
 10
3107.165596293179
 20
-1269.691709824489
 30
0.0
 11
3107.165596293179
 21
-1215.281036053539
 31
0.0
  0
LINE
  5
1E7
330
1E5
100
AcDbEntity
  8
0
 62
     0
370
    -2
100
AcDbLine
 10
3390.365596293178
 20
-1269.691709824489
 30
0.0
 11
3390.365596293178
 21
-1215.281036053539
 31
0.0
  0
LINE
  5
1E8
330
1E5
100
AcDbEntity
  8
0
 62
     0
370
    -2
100
AcDbLine
 10
3129.665596293179
 20
-1230.281036053539
 30
0.0
 11
3208.265596293179
 21
-1230.281036053539
 31
0.0
  0
LINE
  5
1E9
330
1E5
100
AcDbEntity
  8
0
 62
     0
370
    -2
100
AcDbLine
 10
3367.865596293179
 20
-1230.281036053539
 30
0.0
 11
3289.265596293179
 21
-1230.281036053539
 31
0.0
  0
SOLID
  5
1EA
330
1E5
100
AcDbEntity
  8
0
 62
     0
100
AcDbTrace
 10
3129.665596293179
 20
-1226.531036053539
 30
0.0
 11
3129.665596293179
 21
-1234.031036053539
 31
0.0
 12
3107.165596293179
 22
-1230.281036053539
 32
0.0
 13
3107.165596293179
 23
-1230.281036053539
 33
0.0
  0
SOLID
  5
1EB
330
1E5
100
AcDbEntity
  8
0
 62
     0
100
AcDbTrace
 10
3367.865596293179
 20
-1226.531036053539
 30
0.0
 11
3367.865596293179
 21
-1234.031036053539
 31
0.0
 12
3390.365596293178
 22
-1230.281036053539
 32
0.0
 13
3390.365596293178
 23
-1230.281036053539
 33
0.0
  0
MTEXT
  5
1EC
330
1E5
100
AcDbEntity
  8
0
 62
     0
100
AcDbMText
 10
3248.765596293178
 20
-1230.281036053539
 30
0.0
 40
25.5
 41
0.0
 71
     5
 72
     1
  1
\A1;115
 73
     1
 44
1.0
  0
POINT
  5
1ED
330
1E5
100
AcDbEntity
  8
DEFPOINTS
 62
     0
100
AcDbPoint
 10
3107.165596293179
 20
-1284.691709824489
 30
0.0
  0
POINT
  5
1EE
330
1E5
100
AcDbEntity
  8
DEFPOINTS
 62
     0
100
AcDbPoint
 10
3390.365596293178
 20
-1284.691709824489
 30
0.0
  0
POINT
  5
1EF
330
1E5
100
AcDbEntity
  8
DEFPOINTS
 62
     0
100
AcDbPoint
 10
3390.365596293178
 20
-1230.281036053539
 30
0.0
  0
ENDBLK
  5
1F1
330
1E5
100
AcDbEntity
  8
0
100
AcDbBlockEnd
  0
BLOCK
  5
3EC
330
3E0
100
AcDbEntity
  8
0
100
AcDbBlockBegin
  2
*D5
 70
     1
 10
0.0
 20
0.0
 30
0.0
  3
*D5
  1

  0
LINE
  5
3E1
330
3E0
100
AcDbEntity
  8
0
 62
     0
370
    -2
100
AcDbLine
 10
2842.861073013112
 20
116.1287129420952
 30
0.0
 11
2786.224451243601
 21
116.1287129420952
 31
0.0
  0
LINE
  5
3E2
330
3E0
100
AcDbEntity
  8
0
 62
     0
370
    -2
100
AcDbLine
 10
2841.327575117015
 20
102.9816280566319
 30
0.0
 11
2786.224451243601
 21
102.9816280566319
 31
0.0
  0
LINE
  5
3E3
330
3E0
100
AcDbEntity
  8
0
 62
     0
370
    -2
100
AcDbLine
 10
2801.224451243601
 20
138.6287129420952
 30
0.0
 11
2801.224451243601
 21
161.1287129420952
 31
0.0
  0
LINE
  5
3E4
330
3E0
100
AcDbEntity
  8
0
 62
     0
370
    -2
100
AcDbLine
 10
2801.224451243601
 20
80.48162805663197
 30
0.0
 11
2801.224451243601
 21
13.96131010432828
 31
0.0
  0
LINE
  5
3E5
330
3E0
100
AcDbEntity
  8
0
 62
     0
370
    -2
100
AcDbLine
 10
2801.224451243601
 20
13.96131010432828
 30
0.0
 11
2778.724451243601
 21
13.96131010432828
 31
0.0
  0
SOLID
  5
3E6
330
3E0
100
AcDbEntity
  8
0
 62
     0
100
AcDbTrace
 10
2797.474451243601
 20
138.6287129420952
 30
0.0
 11
2804.974451243601
 21
138.6287129420952
 31
0.0
 12
2801.224451243601
 22
116.1287129420952
 32
0.0
 13
2801.224451243601
 23
116.1287129420952
 33
0.0
  0
SOLID
  5
3E7
330
3E0
100
AcDbEntity
  8
0
 62
     0
100
AcDbTrace
 10
2797.474451243601
 20
80.48162805663197
 30
0.0
 11
2804.974451243601
 21
80.48162805663197
 31
0.0
 12
2801.224451243601
 22
102.9816280566319
 32
0.0
 13
2801.224451243601
 23
102.9816280566319
 33
0.0
  0
MTEXT
  5
3E8
330
3E0
100
AcDbEntity
  8
0
 62
     0
100
AcDbMText
 10
2636.224451243601
 20
13.96131010432873
 30
0.0
 40
25.5
 41
0.0
 71
     5
 72
     1
  1
\A1;APPROX. 3mm
 73
     1
 44
1.0
  0
POINT
  5
3E9
330
3E0
100
AcDbEntity
  8
DEFPOINTS
 62
     0
100
AcDbPoint
 10
2857.861073013112
 20
116.1287129420952
 30
0.0
  0
POINT
  5
3EA
330
3E0
100
AcDbEntity
  8
DEFPOINTS
 62
     0
100
AcDbPoint
 10
2856.327575117014
 20
102.9816280566319
 30
0.0
  0
POINT
  5
3EB
330
3E0
100
AcDbEntity
  8
DEFPOINTS
 62
     0
100
AcDbPoint
 10
2801.224451243601
 20
102.9816280566319
 30
0.0
  0
ENDBLK
  5
3ED
330
3E0
100
AcDbEntity
  8
0
100
AcDbBlockEnd
  0
ENDSEC
  0
SECTION
  2
ENTITIES
  0
DIMENSION
  5
3
330
2
100
AcDbEntity
  8
0
100
AcDbDimension
  2
*D1
 10
1969.934724008896
 20
-908.9168876974353
 30
0.0
 11
2693.086602123647
 21
-3755.442096610566
 31
0.0
 70
   128
 71
     5
 42
636.0637953027053
  3
STANDARD
100
AcDbAlignedDimension
 13
1333.87092870619
 23
-980.2504354145225
 33
0.0
 14
1969.934724008896
 24
-980.2504354145225
 34
0.0
100
AcDbRotatedDimension
1001
ACAD
1000
DSTYLE
1002
{
1070
   279
1070
     2
1002
}
  0
MTEXT
  5
19
330
2
100
AcDbEntity
  8
0
100
AcDbMText
 10
1252.590424157627
 20
-819.8056966387193
 30
0.0
 40
28.0
 41
857.0406634838921
 71
     1
 72
     5
  1
{\Ftxt.shx;BACK OF GUIDE TO BACK OF GUIDE}
  7
STYLE1
 73
     1
 44
1.0
  0
DIMENSION
  5
1B
330
2
100
AcDbEntity
  8
0
100
AcDbDimension
  2
*D0
 10
1851.134724008895
 20
-1242.022271999548
 30
0.0
 11
2481.144314713742
 21
-3750.432535491601
 31
0.0
 70
   128
 71
     5
 42
398.4637953027052
  3
STANDARD
100
AcDbAlignedDimension
 13
1452.67092870619
 23
-1284.691709824489
 33
0.0
 14
1851.134724008895
 24
-1284.691709824489
 34
0.0
100
AcDbRotatedDimension
1001
ACAD
1000
DSTYLE
1002
{
1070
   279
1070
     2
1002
}
  0
MTEXT
  5
28
330
2
100
AcDbEntity
  8
0
100
AcDbMText
 10
1241.844361433857
 20
-1156.136195287751
 30
0.0
 40
28.0
 41
870.056079380709
 71
     1
 72
     5
  1
{\Ftxt.shx;FRONT OF GUIDE TO FRONT OF GUIDE}
  7
STYLE1
 73
     1
 44
1.0
  0
LEADER
  5
29
330
2
100
AcDbEntity
  8
0
100
AcDbLeader
  3
STANDARD
 76
     3
 10
1831.897914832646
 20
154.6718672762335
 30
0.0
 10
1721.595409092887
 20
79.95935923197612
 30
0.0
 10
1586.988960928502
 20
79.95935923197613
 30
0.0
1001
ACAD
1000
DSTYLE
1002
{
1070
   147
1040
10.0
1070
    77
1070
     0
1002
}
  0
LINE
  5
2A
330
2
100
AcDbEntity
  8
0
100
AcDbLine
 10
1797.766593417128
 20
436.3778198248559
 30
0.0
 11
1787.274269426684
 21
436.3778198248559
 31
0.0
  0
ARC
  5
2B
330
2
100
AcDbEntity
  8
0
100
AcDbCircle
 10
1792.520431421906
 20
710.6230711872731
 30
0.0
 40
5.289950575233655
100
AcDbArc
 50
0.0
 51
180.0
  0
ARC
  5
2C
330
2
100
AcDbEntity
  8
0
100
AcDbCircle
 10
1792.520431421906
 20
701.5545844868722
 30
0.0
 40
5.289950575233655
100
AcDbArc
 50
180.0
 51
0.0
  0
ARC
  5
2D
330
2
100
AcDbEntity
  8
0
100
AcDbCircle
 10
1792.520431421906
 20
657.7235654349366
 30
0.0
 40
5.289950575233655
100
AcDbArc
 50
0.0
 51
180.0
  0
ARC
  5
2E
330
2
100
AcDbEntity
  8
0
100
AcDbCircle
 10
1792.520431421906
 20
675.104831610704
 30
0.0
 40
5.289950575233655
100
AcDbArc
 50
180.0
 51
0.0
  0
ARC
  5
2F
330
2
100
AcDbEntity
  8
0
100
AcDbCircle
 10
1792.520431421906
 20
631.2738125587683
 30
0.0
 40
5.289950575233655
100
AcDbArc
 50
0.0
 51
180.0
  0
ARC
  5
30
330
2
100
AcDbEntity
  8
0
100
AcDbCircle
 10
1792.520431421906
 20
622.2053258583675
 30
0.0
 40
5.289950575233655
100
AcDbArc
 50
180.0
 51
0.0
  0
ARC
  5
31
330
2
100
AcDbEntity
  8
0
100
AcDbCircle
 10
1792.520431421906
 20
604.8240596826
 30
0.0
 40
5.289950575233655
100
AcDbArc
 50
0.0
 51
180.0
  0
ARC
  5
32
330
2
100
AcDbEntity
  8
0
100
AcDbCircle
 10
1792.520431421906
 20
648.6550787345357
 30
0.0
 40
5.289950575233655
100
AcDbArc
 50
180.0
 51
0.0
  0
ARC
  5
33
330
2
100
AcDbEntity
  8
0
100
AcDbCircle
 10
1792.520431421906
 20
684.1733183111049
 30
0.0
 40
5.289950575233655
100
AcDbArc
 50
0.0
 51
180.0
  0
ARC
  5
34
330
2
100
AcDbEntity
  8
0
100
AcDbCircle
 10
1792.520431421906
 20
595.7555729821991
 30
0.0
 40
5.289950575233655
100
AcDbArc
 50
180.0
 51
0.0
  0
ARC
  5
35
330
2
100
AcDbEntity
  8
0
100
AcDbCircle
 10
1792.520431421906
 20
578.3743068064318
 30
0.0
 40
5.289950575233655
100
AcDbArc
 50
0.0
 51
180.0
  0
ARC
  5
36
330
2
100
AcDbEntity
  8
0
100
AcDbCircle
 10
1792.520431421906
 20
569.3058201060308
 30
0.0
 40
5.289950575233655
100
AcDbArc
 50
180.0
 51
0.0
  0
ARC
  5
37
330
2
100
AcDbEntity
  8
0
100
AcDbCircle
 10
1792.520431421906
 20
551.9245539302635
 30
0.0
 40
5.289950575233655
100
AcDbArc
 50
0.0
 51
180.0
  0
ARC
  5
38
330
2
100
AcDbEntity
  8
0
100
AcDbCircle
 10
1792.520431421906
 20
542.8560672298626
 30
0.0
 40
5.289950575233655
100
AcDbArc
 50
180.0
 51
0.0
  0
ARC
  5
39
330
2
100
AcDbEntity
  8
0
100
AcDbCircle
 10
1792.520431421906
 20
525.4748010540952
 30
0.0
 40
5.289950575233655
100
AcDbArc
 50
0.0
 51
180.0
  0
ARC
  5
3A
330
2
100
AcDbEntity
  8
0
100
AcDbCircle
 10
1792.520431421906
 20
499.0250481779269
 30
0.0
 40
5.289950575233655
100
AcDbArc
 50
0.0
 51
180.0
  0
ARC
  5
3B
330
2
100
AcDbEntity
  8
0
100
AcDbCircle
 10
1792.520431421906
 20
489.9565614775259
 30
0.0
 40
5.289950575233655
100
AcDbArc
 50
180.0
 51
0.0
  0
ARC
  5
3C
330
2
100
AcDbEntity
  8
0
100
AcDbCircle
 10
1792.520431421906
 20
437.0570557251894
 30
0.0
 40
5.289950575233655
100
AcDbArc
 50
180.0
 51
0.0
  0
ARC
  5
3D
330
2
100
AcDbEntity
  8
0
100
AcDbCircle
 10
1792.520431421906
 20
463.5068086013578
 30
0.0
 40
5.289950575233655
100
AcDbArc
 50
180.0
 51
0.0
  0
ARC
  5
3E
330
2
100
AcDbEntity
  8
0
100
AcDbCircle
 10
1792.520431421906
 20
446.1255424255903
 30
0.0
 40
5.289950575233655
100
AcDbArc
 50
0.0
 51
180.0
  0
ARC
  5
3F
330
2
100
AcDbEntity
  8
0
100
AcDbCircle
 10
1792.520431421906
 20
472.5752953017586
 30
0.0
 40
5.289950575233655
100
AcDbArc
 50
0.0
 51
180.0
  0
ARC
  5
40
330
2
100
AcDbEntity
  8
0
100
AcDbCircle
 10
1792.520431421906
 20
516.4063143536943
 30
0.0
 40
5.289950575233655
100
AcDbArc
 50
180.0
 51
0.0
  0
LINE
  5
41
330
2
100
AcDbEntity
  8
0
100
AcDbLine
 10
1775.291775141375
 20
722.2255238053139
 30
0.0
 11
1844.143011137629
 21
722.2255238053139
 31
0.0
  0
ARC
  5
42
330
2
100
AcDbEntity
  8
0
100
AcDbCircle
 10
1792.520431421906
 20
393.2260366732538
 30
0.0
 40
5.289950575233655
100
AcDbArc
 50
0.0
 51
180.0
  0
ARC
  5
43
330
2
100
AcDbEntity
  8
0
100
AcDbCircle
 10
1792.520431421906
 20
419.675789549422
 30
0.0
 40
5.289950575233655
100
AcDbArc
 50
0.0
 51
180.0
  0
ARC
  5
44
330
2
100
AcDbEntity
  8
0
100
AcDbCircle
 10
1792.520431421906
 20
410.6073028490212
 30
0.0
 40
5.289950575233655
100
AcDbArc
 50
180.0
 51
0.0
  0
ARC
  5
45
330
2
100
AcDbEntity
  8
0
100
AcDbCircle
 10
1792.520431421906
 20
384.1575499728529
 30
0.0
 40
5.289950575233655
100
AcDbArc
 50
180.0
 51
0.0
  0
LINE
  5
46
330
2
100
AcDbEntity
  8
0
100
AcDbLine
 10
2016.271121541371
 20
367.5899729544729
 30
0.0
 11
1775.291775141375
 21
367.5899729544729
 31
0.0
  0
LINE
  5
47
330
2
100
AcDbEntity
  8
0
100
AcDbLine
 10
1844.143011137629
 20
367.5899729544729
 30
0.0
 11
1775.291775141375
 21
367.5899729544729
 31
0.0
  0
LINE
  5
48
330
2
100
AcDbEntity
  8
0
100
AcDbLine
 10
1787.230480846673
 20
650.3281490405316
 30
0.0
 11
1797.81038199714
 21
650.3281490405316
 31
0.0
  0
LINE
  5
49
330
2
100
AcDbEntity
  8
0
100
AcDbLine
 10
2138.960881812488
 20
725.8988715438698
 30
0.0
 11
1775.291775141375
 21
725.8988715438698
 31
0.0
  0
ARC
  5
4A
330
2
100
AcDbEntity
  8
0
100
AcDbCircle
 10
1794.18445576721
 20
155.8033422563476
 30
0.0
 40
26.44975287616828
100
AcDbArc
 50
44.415308597193
 51
135.584691402807
  0
ARC
  5
4B
330
2
100
AcDbEntity
  8
0
100
AcDbCircle
 10
1794.18445576721
 20
169.4060723069485
 30
0.0
 40
26.44975287616828
100
AcDbArc
 50
44.415308597193
 51
135.584691402807
  0
ARC
  5
4C
330
2
100
AcDbEntity
  8
0
100
AcDbCircle
 10
1794.18445576721
 20
162.6047072816481
 30
0.0
 40
26.44975287616828
100
AcDbArc
 50
44.415308597193
 51
135.584691402807
  0
LINE
  5
4D
330
2
100
AcDbEntity
  8
0
100
AcDbLine
 10
1813.077136393044
 20
197.3672396331834
 30
0.0
 11
1775.291775141375
 21
197.3672396331834
 31
0.0
  0
ARC
  5
4E
330
2
100
AcDbEntity
  8
0
100
AcDbCircle
 10
1794.18445576721
 20
135.3992471804462
 30
0.0
 40
26.44975287616828
100
AcDbArc
 50
44.415308597193
 51
135.584691402807
  0
ARC
  5
4F
330
2
100
AcDbEntity
  8
0
100
AcDbCircle
 10
1794.18445576721
 20
142.2006122057467
 30
0.0
 40
26.44975287616828
100
AcDbArc
 50
44.415308597193
 51
135.584691402807
  0
ARC
  5
50
330
2
100
AcDbEntity
  8
0
100
AcDbCircle
 10
1794.18445576721
 20
128.597882155146
 30
0.0
 40
26.44975287616828
100
AcDbArc
 50
44.415308597193
 51
135.584691402807
  0
ARC
  5
51
330
2
100
AcDbEntity
  8
0
100
AcDbCircle
 10
1794.18445576721
 20
121.7965171298456
 30
0.0
 40
26.44975287616828
100
AcDbArc
 50
44.415308597193
 51
135.584691402807
  0
ARC
  5
52
330
2
100
AcDbEntity
  8
0
100
AcDbCircle
 10
1794.18445576721
 20
114.9951521045451
 30
0.0
 40
26.44975287616828
100
AcDbArc
 50
44.415308597193
 51
135.584691402807
  0
LINE
  5
53
102
{ACAD_REACTORS
330
59
102
}
330
2
100
AcDbEntity
  8
0
100
AcDbLine
 10
1775.291775141375
 20
121.7965171298456
 30
0.0
 11
1813.077136393044
 21
121.7965171298456
 31
0.0
  0
ARC
  5
54
330
2
100
AcDbEntity
  8
0
100
AcDbCircle
 10
1794.18445576721
 20
108.1937870792446
 30
0.0
 40
26.44975287616828
100
AcDbArc
 50
44.415308597193
 51
135.584691402807
  0
ARC
  5
55
330
2
100
AcDbEntity
  8
0
100
AcDbCircle
 10
1794.18445576721
 20
101.3924220539444
 30
0.0
 40
26.44975287616828
100
AcDbArc
 50
50.48234720282692
 51
129.517652797173
  0
ARC
  5
56
330
2
100
AcDbEntity
  8
0
100
AcDbCircle
 10
1794.18445576721
 20
149.0019772310471
 30
0.0
 40
26.44975287616828
100
AcDbArc
 50
44.415308597193
 51
135.584691402807
  0
LINE
  5
57
330
2
100
AcDbEntity
  8
0
100
AcDbLine
 10
1759.923164192337
 20
121.7965171298454
 30
0.0
 11
1825.600883880142
 21
121.7965171298454
 31
0.0
  0
LINE
  5
58
102
{ACAD_REACTORS
330
59
102
}
330
2
100
AcDbEntity
  8
0
100
AcDbLine
 10
1731.954091359878
 20
116.1287129420952
 30
0.0
 11
1845.464865278289
 21
116.1287129420952
 31
0.0
  0
HATCH
  5
59
330
2
100
AcDbEntity
  8
0
100
AcDbHatch
 10
0.0
 20
0.0
 30
0.0
210
0.0
220
0.0
230
1.0
  2
ANSI31
 70
     0
 71
     1
 91
        1
 92
        7
 72
     0
 73
     1
 93
        6
 10
1775.291775141375
 20
121.7965171298456
 10
1737.506413889706
 20
121.7965171298455
 10
1731.954091359878
 20
116.1287129420952
 10
1845.46486527829
 20
116.1287129420952
 10
1845.46486527829
 20
121.7965171298456
 10
1813.077136393044
 20
121.7965171298456
 97
        6
330
2ED
330
53
330
89
330
8A
330
58
330
240
 75
     0
 76
     1
 52
0.0
 41
75.57072250333795
 77
     0
 78
     1
 53
45.0
 43
2145.594019556356
 44
-674.4956265024676
 45
-6.679571292659635
 46
6.679571292659636
 79
     0
 47
0.0455969464001412
 98
        1
 10
1785.592650368589
 20
120.464889555246
  0
LWPOLYLINE
  5
5A
330
2
100
AcDbEntity
  8
0
100
AcDbPolyline
 90
        4
 70
     1
 43
0.0
 10
1050.864448816417
 20
-1387.806437879535
 10
1616.046004999017
 20
-1387.806437879535
 10
1616.046004999017
 20
-1456.9486302235
 10
1050.864448816417
 20
-1456.9486302235
  0
MTEXT
  5
5B
330
2
100
AcDbEntity
  8
0
100
AcDbMText
 10
1584.41537526981
 20
-1444.07495770781
 30
0.0
 40
28.0
 41
0.0
 71
     9
 72
     1
  1
SCALE: NOT TO SCALE
 73
     1
 44
1.0
  0
HATCH
  5
5C
330
2
100
AcDbEntity
  8
0
100
AcDbHatch
 10
0.0
 20
0.0
 30
0.0
210
0.0
220
0.0
230
1.0
  2
SOLID
 70
     1
 71
     1
 91
        2
 92
        7
 72
     1
 73
     1
 93
       10
 10
1449.07092870619
 20
-1281.091709824489
 42
0.0
 10
1338.67092870619
 20
-1281.091709824489
 42
0.4142135623731091
 10
1333.87092870619
 20
-1285.891709824489
 42
0.0
 10
1333.87092870619
 20
-1348.291709824489
 42
0.4142135623730951
 10
1338.67092870619
 20
-1353.091709824489
 42
0.0
 10
1449.07092870619
 20
-1353.091709824489
 42
1.0
 10
1449.07092870619
 20
-1345.891709824489
 42
0.0
 10
1341.070928706191
 20
-1345.891709824489
 42
0.0
 10
1341.070928706191
 20
-1288.291709824489
 42
0.0
 10
1449.07092870619
 20
-1288.291709824489
 42
1.0
 97
       10
330
5E
330
66
330
64
330
65
330
60
330
67
330
5F
330
63
330
5D
330
68
 92
       22
 72
     0
 73
     1
 93
        4
 10
1369.796276754591
 20
-1288.291709824489
 10
1362.596276754591
 20
-1288.291709824489
 10
1362.596276754591
 20
-1345.891709824489
 10
1369.796276754591
 20
-1345.891709824489
 97
        4
330
5D
330
62
330
5F
330
61
 75
     0
 76
     1
 47
0.7694126625518862
 98
        2
 10
1413.180698644889
 20
-1283.375295179981
 10
1366.357296413417
 20
-1301.841201114787
  0
LINE
  5
5D
102
{ACAD_REACTORS
330
5C
102
}
330
2
100
AcDbEntity
  8
0
100
AcDbLine
 10
1341.070928706191
 20
-1288.291709824489
 30
0.0
 11
1449.07092870619
 21
-1288.291709824489
 31
0.0
  0
LINE
  5
5E
102
{ACAD_REACTORS
330
5C
102
}
330
2
100
AcDbEntity
  8
0
100
AcDbLine
 10
1449.07092870619
 20
-1281.091709824489
 30
0.0
 11
1338.67092870619
 21
-1281.091709824489
 31
0.0
  0
LINE
  5
5F
102
{ACAD_REACTORS
330
5C
102
}
330
2
100
AcDbEntity
  8
0
100
AcDbLine
 10
1449.07092870619
 20
-1345.891709824489
 30
0.0
 11
1341.070928706191
 21
-1345.891709824489
 31
0.0
  0
LINE
  5
60
102
{ACAD_REACTORS
330
5C
102
}
330
2
100
AcDbEntity
  8
0
100
AcDbLine
 10
1338.67092870619
 20
-1353.091709824489
 30
0.0
 11
1449.07092870619
 21
-1353.091709824489
 31
0.0
  0
LINE
  5
61
102
{ACAD_REACTORS
330
5C
102
}
330
2
100
AcDbEntity
  8
0
100
AcDbLine
 10
1369.796276754591
 20
-1288.291709824489
 30
0.0
 11
1369.796276754591
 21
-1345.891709824489
 31
0.0
  0
LINE
  5
62
102
{ACAD_REACTORS
330
5C
102
}
330
2
100
AcDbEntity
  8
0
100
AcDbLine
 10
1362.596276754591
 20
-1288.291709824489
 30
0.0
 11
1362.596276754591
 21
-1345.891709824489
 31
0.0
  0
LINE
  5
63
102
{ACAD_REACTORS
330
5C
102
}
330
2
100
AcDbEntity
  8
0
100
AcDbLine
 10
1341.070928706191
 20
-1345.891709824489
 30
0.0
 11
1341.070928706191
 21
-1288.291709824489
 31
0.0
  0
LINE
  5
64
102
{ACAD_REACTORS
330
5C
102
}
330
2
100
AcDbEntity
  8
0
100
AcDbLine
 10
1333.87092870619
 20
-1285.891709824489
 30
0.0
 11
1333.87092870619
 21
-1348.291709824489
 31
0.0
  0
ARC
  5
65
102
{ACAD_REACTORS
330
5C
102
}
330
2
100
AcDbEntity
  8
0
100
AcDbCircle
 10
1338.67092870619
 20
-1348.291709824489
 30
0.0
 40
4.8
100
AcDbArc
 50
180.0
 51
270.0
  0
ARC
  5
66
102
{ACAD_REACTORS
330
5C
102
}
330
2
100
AcDbEntity
  8
0
100
AcDbCircle
 10
1338.67092870619
 20
-1285.891709824489
 30
0.0
 40
4.8
100
AcDbArc
 50
90.0
 51
180.0
  0
ARC
  5
67
102
{ACAD_REACTORS
330
5C
102
}
330
2
100
AcDbEntity
  8
0
100
AcDbCircle
 10
1449.07092870619
 20
-1349.491709824489
 30
0.0
 40
3.6
100
AcDbArc
 50
270.0
 51
90.0
  0
ARC
  5
68
102
{ACAD_REACTORS
330
5C
102
}
330
2
100
AcDbEntity
  8
0
100
AcDbCircle
 10
1449.07092870619
 20
-1284.691709824489
 30
0.0
 40
3.6
100
AcDbArc
 50
270.0
 51
90.0
  0
LINE
  5
69
330
2
100
AcDbEntity
  8
0
100
AcDbLine
 10
1775.291775141375
 20
367.5899729544729
 30
0.0
 11
1775.291775141375
 21
722.2255238053139
 31
0.0
  0
LINE
  5
6A
102
{ACAD_REACTORS
330
6C
102
}
330
2
100
AcDbEntity
  8
0
100
AcDbLine
 10
1737.506413889706
 20
121.7965171298454
 30
0.0
 11
1737.506413889706
 21
661.2925629986747
 31
0.0
  0
LINE
  5
6B
102
{ACAD_REACTORS
330
6C
102
}
330
2
100
AcDbEntity
  8
0
100
AcDbLine
 10
1731.954091359878
 20
116.1287129420952
 30
0.0
 11
1731.954091359878
 21
725.8988715438698
 31
0.0
  0
HATCH
  5
6C
330
2
100
AcDbEntity
  8
0
100
AcDbHatch
 10
0.0
 20
0.0
 30
0.0
210
0.0
220
0.0
230
1.0
  2
ANSI31
 70
     0
 71
     1
 91
        1
 92
        7
 72
     0
 73
     1
 93
        6
 10
1737.506413889706
 20
661.2925629986747
 10
1737.506413889706
 20
725.8988715438698
 10
1731.954091359878
 20
725.8988715438698
 10
1731.954091359878
 20
116.1287129420955
 10
1737.506413889706
 20
121.7965171298457
 10
1737.506413889706
 20
197.3672396331834
 97
        6
330
A9
330
109
330
6B
330
8A
330
82
330
6A
 75
     0
 76
     1
 52
0.0
 41
75.57072250333795
 77
     0
 78
     1
 53
45.0
 43
2145.594019556356
 44
-674.4956265024676
 45
-6.679571292659635
 46
6.679571292659636
 79
     0
 47
0.1775957219635982
 98
        1
 10
1734.808095269883
 20
623.7994154482079
  0
MTEXT
  5
6D
330
2
100
AcDbEntity
  8
0
100
AcDbMText
 10
1027.992100661707
 20
-6.171360402342509
 30
0.0
 40
28.0
 41
664.7483571694939
 71
     1
 72
     5
  1
{\Ftxt.shx;NOTE:\PWHERE STACKING NOT POSSIBLE A CLEARANCE MULLION WILL BE REQUIRED (WIDTH SUBJECT TO BUNDLE SIZE)}
  7
STYLE1
 73
     1
 44
1.0
  0
MTEXT
  5
6E
330
2
100
AcDbEntity
  8
0
100
AcDbMText
 10
1030.811206523139
 20
104.9393687376241
 30
0.0
 40
28.0
 41
561.3805301152997
 71
     1
 72
     5
  1
{\Ftxt.shx;SUPPORT FOR MULLION TOP FIXING }
  7
STYLE1
 73
     1
 44
1.0
  0
MTEXT
  5
6F
330
2
100
AcDbEntity
  8
0
100
AcDbMText
 10
1593.709616632926
 20
200.5855613551466
 30
0.0
 40
28.0
 41
0.0
 71
     9
 72
     1
  1
STRUCTURAL FRAMEWORK \P(BY OTHERS)
 73
     1
 44
1.0
  0
MTEXT
  5
70
330
2
100
AcDbEntity
  8
0
100
AcDbMText
 10
1039.826546277814
 20
519.4255927057056
 30
0.0
 40
28.0
 41
0.0
 71
     1
 72
     1
  1
MIRAGE STANDARD 90X40\PDEXION ANGLE BRACKET \PFIXED TO TIMBER \PSTRUCTURE
 73
     1
 44
1.0
  0
LWPOLYLINE
  5
71
330
2
100
AcDbEntity
  8
0
100
AcDbPolyline
 90
        4
 70
     1
 43
0.0
 10
1477.115681841838
 20
-328.0730805782423
 10
1778.040625594199
 20
-328.0730805782423
 10
1778.040625594199
 20
-415.6243888908666
 10
1477.115681841838
 20
-415.6243888908666
  0
HATCH
  5
72
330
2
100
AcDbEntity
  8
0
100
AcDbHatch
 10
0.0
 20
0.0
 30
0.0
210
0.0
220
0.0
230
1.0
  2
SOLID
 70
     1
 71
     1
 91
        2
 92
        7
 72
     1
 73
     1
 93
       10
 10
1449.07092870619
 20
-975.4504354145225
 42
0.0
 10
1338.67092870619
 20
-975.4504354145225
 42
0.4142135623731091
 10
1333.87092870619
 20
-980.2504354145225
 42
0.0
 10
1333.87092870619
 20
-1042.650435414522
 42
0.4142135623730951
 10
1338.67092870619
 20
-1047.450435414522
 42
0.0
 10
1449.07092870619
 20
-1047.450435414522
 42
1.0
 10
1449.07092870619
 20
-1040.250435414522
 42
0.0
 10
1341.070928706191
 20
-1040.250435414522
 42
0.0
 10
1341.070928706191
 20
-982.6504354145226
 42
0.0
 10
1449.07092870619
 20
-982.6504354145226
 42
1.0
 97
       10
330
73
330
7C
330
79
330
7B
330
74
330
7D
330
75
330
7A
330
76
330
7E
 92
       22
 72
     0
 73
     1
 93
        4
 10
1362.596276754591
 20
-1040.250435414522
 10
1369.796276754591
 20
-1040.250435414522
 10
1369.796276754591
 20
-982.6504354145226
 10
1362.596276754591
 20
-982.6504354145226
 97
        4
330
76
330
77
330
75
330
78
 75
     0
 76
     1
 47
0.784522515195445
 98
        2
 10
1427.32843546869
 20
-977.8398463891276
 10
1366.079286886869
 20
-1002.944570085217
  0
LINE
  5
73
102
{ACAD_REACTORS
330
72
102
}
330
2
100
AcDbEntity
  8
0
100
AcDbLine
 10
1449.07092870619
 20
-975.4504354145225
 30
0.0
 11
1338.67092870619
 21
-975.4504354145225
 31
0.0
  0
LINE
  5
74
102
{ACAD_REACTORS
330
72
102
}
330
2
100
AcDbEntity
  8
0
100
AcDbLine
 10
1338.67092870619
 20
-1047.450435414522
 30
0.0
 11
1449.07092870619
 21
-1047.450435414522
 31
0.0
  0
LINE
  5
75
102
{ACAD_REACTORS
330
72
102
}
330
2
100
AcDbEntity
  8
0
100
AcDbLine
 10
1449.07092870619
 20
-1040.250435414522
 30
0.0
 11
1341.070928706191
 21
-1040.250435414522
 31
0.0
  0
LINE
  5
76
102
{ACAD_REACTORS
330
72
102
}
330
2
100
AcDbEntity
  8
0
100
AcDbLine
 10
1341.070928706191
 20
-982.6504354145226
 30
0.0
 11
1449.07092870619
 21
-982.6504354145226
 31
0.0
  0
LINE
  5
77
102
{ACAD_REACTORS
330
72
102
}
330
2
100
AcDbEntity
  8
0
100
AcDbLine
 10
1362.596276754591
 20
-982.6504354145226
 30
0.0
 11
1362.596276754591
 21
-1040.250435414522
 31
0.0
  0
LINE
  5
78
102
{ACAD_REACTORS
330
72
102
}
330
2
100
AcDbEntity
  8
0
100
AcDbLine
 10
1369.796276754591
 20
-982.6504354145226
 30
0.0
 11
1369.796276754591
 21
-1040.250435414522
 31
0.0
  0
LINE
  5
79
102
{ACAD_REACTORS
330
72
102
}
330
2
100
AcDbEntity
  8
0
100
AcDbLine
 10
1333.87092870619
 20
-980.2504354145225
 30
0.0
 11
1333.87092870619
 21
-1042.650435414522
 31
0.0
  0
LINE
  5
7A
102
{ACAD_REACTORS
330
72
102
}
330
2
100
AcDbEntity
  8
0
100
AcDbLine
 10
1341.070928706191
 20
-1040.250435414522
 30
0.0
 11
1341.070928706191
 21
-982.6504354145226
 31
0.0
  0
ARC
  5
7B
102
{ACAD_REACTORS
330
72
102
}
330
2
100
AcDbEntity
  8
0
100
AcDbCircle
 10
1338.67092870619
 20
-1042.650435414522
 30
0.0
 40
4.8
100
AcDbArc
 50
180.0
 51
270.0
  0
ARC
  5
7C
102
{ACAD_REACTORS
330
72
102
}
330
2
100
AcDbEntity
  8
0
100
AcDbCircle
 10
1338.67092870619
 20
-980.2504354145225
 30
0.0
 40
4.8
100
AcDbArc
 50
90.0
 51
180.0
  0
ARC
  5
7D
102
{ACAD_REACTORS
330
72
102
}
330
2
100
AcDbEntity
  8
0
100
AcDbCircle
 10
1449.07092870619
 20
-1043.850435414522
 30
0.0
 40
3.6
100
AcDbArc
 50
270.0
 51
90.0
  0
ARC
  5
7E
102
{ACAD_REACTORS
330
72
102
}
330
2
100
AcDbEntity
  8
0
100
AcDbCircle
 10
1449.07092870619
 20
-979.0504354145227
 30
0.0
 40
3.6
100
AcDbArc
 50
270.0
 51
90.0
  0
MTEXT
  5
7F
330
2
100
AcDbEntity
  8
DIMENSION
 62
     7
100
AcDbMText
 10
1518.174865552323
 20
-352.2990523365931
 30
0.0
 40
35.0
 41
265.56
 71
     1
 72
     5
  1
{\fArial|b1|i0|c0|p34;OUTSIDE}
 73
     1
 44
1.0
  0
ARC
  5
81
330
2
100
AcDbEntity
  8
0
100
AcDbCircle
 10
1756.39909451554
 20
128.597882155146
 30
0.0
 40
26.44975287616828
100
AcDbArc
 50
44.415308597193
 51
135.584691402807
  0
LINE
  5
82
102
{ACAD_REACTORS
330
6C
102
}
330
2
100
AcDbEntity
  8
0
100
AcDbLine
 10
1737.506413889706
 20
121.7965171298456
 30
0.0
 11
1737.506413889706
 21
197.3672396331834
 31
0.0
  0
LINE
  5
83
330
2
100
AcDbEntity
  8
0
100
AcDbLine
 10
1775.291775141375
 20
121.7965171298456
 30
0.0
 11
1775.291775141375
 21
197.3672396331834
 31
0.0
  0
LINE
  5
84
330
2
100
AcDbEntity
  8
0
100
AcDbLine
 10
1775.291775141375
 20
121.7965171298456
 30
0.0
 11
1775.291775141375
 21
197.3672396331834
 31
0.0
  0
ARC
  5
85
330
2
100
AcDbEntity
  8
0
100
AcDbCircle
 10
1756.39909451554
 20
101.3924220539444
 30
0.0
 40
26.44975287616828
100
AcDbArc
 50
50.48234720282692
 51
129.517652797173
  0
ARC
  5
86
330
2
100
AcDbEntity
  8
0
100
AcDbCircle
 10
1756.39909451554
 20
121.7965171298456
 30
0.0
 40
26.44975287616828
100
AcDbArc
 50
44.415308597193
 51
135.584691402807
  0
ARC
  5
87
330
2
100
AcDbEntity
  8
0
100
AcDbCircle
 10
1756.39909451554
 20
114.9951521045451
 30
0.0
 40
26.44975287616828
100
AcDbArc
 50
44.415308597193
 51
135.584691402807
  0
ARC
  5
88
330
2
100
AcDbEntity
  8
0
100
AcDbCircle
 10
1756.39909451554
 20
108.1937870792446
 30
0.0
 40
26.44975287616828
100
AcDbArc
 50
44.415308597193
 51
135.584691402807
  0
LINE
  5
89
102
{ACAD_REACTORS
330
59
102
}
330
2
100
AcDbEntity
  8
0
100
AcDbLine
 10
1737.506413889706
 20
121.7965171298456
 30
0.0
 11
1775.291775141375
 21
121.7965171298456
 31
0.0
  0
LINE
  5
8A
102
{ACAD_REACTORS
330
6C
330
59
102
}
330
2
100
AcDbEntity
  8
0
100
AcDbLine
 10
1737.506413889706
 20
121.7965171298454
 30
0.0
 11
1731.954091359878
 21
116.1287129420952
 31
0.0
  0
LINE
  5
8B
330
2
100
AcDbEntity
  8
0
100
AcDbLine
 10
1737.506413889706
 20
121.7965171298454
 30
0.0
 11
1737.506413889707
 21
138.0442224680632
 31
0.0
  0
LINE
  5
8C
330
2
100
AcDbEntity
  8
0
100
AcDbLine
 10
1753.754119227924
 20
121.7965171298454
 30
0.0
 11
1737.506413889706
 21
121.7965171298454
 31
0.0
  0
LEADER
  5
8D
330
2
100
AcDbEntity
  8
0
100
AcDbLeader
  3
STANDARD
 76
     2
 10
1792.723095956866
 20
497.0272325805633
 30
0.0
 10
1623.492929539375
 20
497.7809824305227
 30
0.0
1001
ACAD
1000
DSTYLE
1002
{
1070
   147
1040
10.0
1070
    77
1070
     0
1002
}
  0
LEADER
  5
8E
330
2
100
AcDbEntity
  8
0
100
AcDbLeader
  3
STANDARD
 76
     2
 10
1767.438876550997
 20
233.3336870838666
 30
0.0
 10
1628.480459104386
 20
233.3336870838666
 30
0.0
1001
ACAD
1000
DSTYLE
1002
{
1070
   147
1040
10.0
1070
    77
1070
     0
1002
}
  0
LINE
  5
8F
330
2
100
AcDbEntity
  8
0
100
AcDbLine
 10
1775.291775141375
 20
197.3672396331834
 30
0.0
 11
1775.291775141375
 21
367.5899729544729
 31
0.0
  0
ARC
  5
90
330
2
100
AcDbEntity
  8
0
100
AcDbCircle
 10
1756.39909451554
 20
155.8033422563476
 30
0.0
 40
26.44975287616828
100
AcDbArc
 50
44.415308597193
 51
135.584691402807
  0
ARC
  5
91
330
2
100
AcDbEntity
  8
0
100
AcDbCircle
 10
1756.39909451554
 20
169.4060723069485
 30
0.0
 40
26.44975287616828
100
AcDbArc
 50
44.415308597193
 51
135.584691402807
  0
ARC
  5
92
330
2
100
AcDbEntity
  8
0
100
AcDbCircle
 10
1756.39909451554
 20
162.6047072816481
 30
0.0
 40
26.44975287616828
100
AcDbArc
 50
44.415308597193
 51
135.584691402807
  0
LINE
  5
93
330
2
100
AcDbEntity
  8
0
100
AcDbLine
 10
1775.291775141375
 20
197.3672396331834
 30
0.0
 11
1737.506413889706
 21
197.3672396331834
 31
0.0
  0
ARC
  5
94
330
2
100
AcDbEntity
  8
0
100
AcDbCircle
 10
1756.39909451554
 20
142.2006122057467
 30
0.0
 40
26.44975287616828
100
AcDbArc
 50
44.415308597193
 51
135.584691402807
  0
ARC
  5
95
330
2
100
AcDbEntity
  8
0
100
AcDbCircle
 10
1756.39909451554
 20
135.3992471804462
 30
0.0
 40
26.44975287616828
100
AcDbArc
 50
44.415308597193
 51
135.584691402807
  0
ARC
  5
96
330
2
100
AcDbEntity
  8
0
100
AcDbCircle
 10
1756.39909451554
 20
149.0019772310471
 30
0.0
 40
26.44975287616828
100
AcDbArc
 50
44.415308597193
 51
135.584691402807
  0
ARC
  5
97
330
2
100
AcDbEntity
  8
0
100
AcDbCircle
 10
1756.39909451554
 20
176.207437332249
 30
0.0
 40
26.44975287616828
100
AcDbArc
 50
126.8698976458444
 51
135.584691402807
  0
ARC
  5
98
330
2
100
AcDbEntity
  8
0
100
AcDbCircle
 10
1756.39909451554
 20
176.207437332249
 30
0.0
 40
26.44975287616828
100
AcDbArc
 50
44.415308597193
 51
53.1301023541555
  0
ARC
  5
99
330
2
100
AcDbEntity
  8
0
100
AcDbCircle
 10
1794.18445576721
 20
176.207437332249
 30
0.0
 40
26.44975287616828
100
AcDbArc
 50
126.8698976458444
 51
135.584691402807
  0
LINE
  5
9A
330
2
100
AcDbEntity
  8
0
100
AcDbLine
 10
1787.230480846673
 20
437.0570557251892
 30
0.0
 11
1787.230480846673
 21
446.1255424255901
 31
0.0
  0
LINE
  5
9B
330
2
100
AcDbEntity
  8
0
100
AcDbLine
 10
1787.230480846673
 20
410.6073028490209
 30
0.0
 11
1787.230480846673
 21
419.6757895494219
 31
0.0
  0
LINE
  5
9C
330
2
100
AcDbEntity
  8
0
100
AcDbLine
 10
1787.230480846673
 20
384.1575499728526
 30
0.0
 11
1787.230480846673
 21
393.2260366732535
 31
0.0
  0
LINE
  5
9D
330
2
100
AcDbEntity
  8
0
100
AcDbLine
 10
1775.291775141375
 20
367.5899729544729
 30
0.0
 11
1775.291775141375
 21
436.3778198248559
 31
0.0
  0
LINE
  5
9E
330
2
100
AcDbEntity
  8
0
100
AcDbLine
 10
1787.230480846673
 20
516.4063143536941
 30
0.0
 11
1787.230480846673
 21
525.4748010540949
 31
0.0
  0
LINE
  5
9F
330
2
100
AcDbEntity
  8
0
100
AcDbLine
 10
1787.230480846673
 20
542.8560672298624
 30
0.0
 11
1787.230480846673
 21
551.9245539302633
 31
0.0
  0
LINE
  5
A0
330
2
100
AcDbEntity
  8
0
100
AcDbLine
 10
1787.230480846673
 20
489.9565614775258
 30
0.0
 11
1787.230480846673
 21
499.0250481779266
 31
0.0
  0
LINE
  5
A1
330
2
100
AcDbEntity
  8
0
100
AcDbLine
 10
1787.230480846673
 20
463.5068086013575
 30
0.0
 11
1787.230480846673
 21
472.5752953017584
 31
0.0
  0
MTEXT
  5
A2
330
2
100
AcDbEntity
  8
0
100
AcDbMText
 10
1033.091620705808
 20
852.0024374236326
 30
0.0
 40
28.0
 41
0.0
 71
     1
 72
     1
  1
THREADED ROD \P(BY OTHERS)
 73
     1
 44
1.0
  0
MTEXT
  5
A3
330
2
100
AcDbEntity
  8
0
100
AcDbMText
 10
1035.599275978915
 20
709.3729474636238
 30
0.0
 40
28.0
 41
0.0
 71
     1
 72
     1
  1
STRUCTURAL TIMBER BEAM \PFIXED TO STRUCTURE \PABOVE (BY OTHERS)
 73
     1
 44
1.0
  0
LEADER
  5
A4
330
2
100
AcDbEntity
  8
0
100
AcDbLeader
  3
STANDARD
 76
     2
 10
1749.59772949024
 20
808.7482520067194
 30
0.0
 10
1397.314558154339
 20
808.7482520067194
 30
0.0
1001
ACAD
1000
DSTYLE
1002
{
1070
   147
1040
10.0
1070
    77
1070
     0
1002
}
  0
LINE
  5
A5
330
2
100
AcDbEntity
  8
0
100
AcDbLine
 10
1751.86485116534
 20
771.5997967928715
 30
0.0
 11
1751.86485116534
 21
769.0415611794955
 31
0.0
  0
LINE
  5
A6
330
2
100
AcDbEntity
  8
0
100
AcDbLine
 10
1760.93333786574
 20
773.0337637808672
 30
0.0
 11
1760.933337865741
 21
770.4755281674908
 31
0.0
  0
LEADER
  5
A7
330
2
100
AcDbEntity
  8
0
100
AcDbLeader
  3
STANDARD
 76
     2
 10
1748.579552245707
 20
689.2432150790971
 30
0.0
 10
1655.453330271553
 20
689.2432150790971
 30
0.0
1001
ACAD
1000
DSTYLE
1002
{
1070
   147
1040
10.0
1070
    77
1070
     0
1002
}
  0
ARC
  5
A8
330
2
100
AcDbEntity
  8
0
100
AcDbCircle
 10
1756.39909451554
 20
643.5267840152314
 30
0.0
 40
26.44975287616828
100
AcDbArc
 50
44.415308597193
 51
135.584691402807
  0
LINE
  5
A9
102
{ACAD_REACTORS
330
6C
102
}
330
2
100
AcDbEntity
  8
0
100
AcDbLine
 10
1737.506413889706
 20
650.3281490405319
 30
0.0
 11
1737.506413889706
 21
725.8988715438698
 31
0.0
  0
LINE
  5
AA
330
2
100
AcDbEntity
  8
0
100
AcDbLine
 10
1775.291775141375
 20
650.3281490405319
 30
0.0
 11
1775.291775141375
 21
725.8988715438698
 31
0.0
  0
ARC
  5
AB
330
2
100
AcDbEntity
  8
0
100
AcDbCircle
 10
1756.39909451554
 20
629.9240539646307
 30
0.0
 40
26.44975287616828
100
AcDbArc
 50
50.48234720282692
 51
129.517652797173
  0
LINE
  5
AC
330
2
100
AcDbEntity
  8
0
100
AcDbLine
 10
1749.59772949024
 20
636.3943328236769
 30
0.0
 11
1763.200459540841
 21
636.3943328236769
 31
0.0
  0
LINE
  5
AD
330
2
100
AcDbEntity
  8
0
100
AcDbLine
 10
1760.933337865741
 20
608.5869806429144
 30
0.0
 11
1751.86485116534
 21
608.5869806429144
 31
0.0
  0
LINE
  5
AE
330
2
100
AcDbEntity
  8
0
100
AcDbLine
 10
1737.506413889706
 20
650.3281490405319
 30
0.0
 11
1775.291775141375
 21
650.3281490405319
 31
0.0
  0
ARC
  5
AF
330
2
100
AcDbEntity
  8
0
100
AcDbCircle
 10
1756.39909451554
 20
636.7254189899309
 30
0.0
 40
26.44975287616828
100
AcDbArc
 50
44.415308597193
 51
135.584691402807
  0
LINE
  5
B0
330
2
100
AcDbEntity
  8
0
100
AcDbLine
 10
1751.86485116534
 20
635.3952252660814
 30
0.0
 11
1749.59772949024
 21
635.0367335190827
 31
0.0
  0
LINE
  5
B1
330
2
100
AcDbEntity
  8
0
100
AcDbLine
 10
1751.86485116534
 20
608.9454723899132
 30
0.0
 11
1749.59772949024
 21
608.5869806429144
 31
0.0
  0
LINE
  5
B2
330
2
100
AcDbEntity
  8
0
100
AcDbLine
 10
1751.86485116534
 20
610.1657729017046
 30
0.0
 11
1749.59772949024
 21
609.8072811547056
 31
0.0
  0
LINE
  5
B3
330
2
100
AcDbEntity
  8
0
100
AcDbLine
 10
1751.86485116534
 20
616.5025446402474
 30
0.0
 11
1749.59772949024
 21
616.1440528932482
 31
0.0
  0
LINE
  5
B4
330
2
100
AcDbEntity
  8
0
100
AcDbLine
 10
1751.86485116534
 20
617.7228451520382
 30
0.0
 11
1749.59772949024
 21
617.3643534050394
 31
0.0
  0
LINE
  5
B5
330
2
100
AcDbEntity
  8
0
100
AcDbLine
 10
1751.86485116534
 20
624.059616890581
 30
0.0
 11
1749.59772949024
 21
623.7011251435819
 31
0.0
  0
LINE
  5
B6
330
2
100
AcDbEntity
  8
0
100
AcDbLine
 10
1751.86485116534
 20
625.279917402372
 30
0.0
 11
1749.59772949024
 21
624.9214256553732
 31
0.0
  0
LINE
  5
B7
330
2
100
AcDbEntity
  8
0
100
AcDbLine
 10
1751.86485116534
 20
631.6166891409145
 30
0.0
 11
1749.59772949024
 21
631.2581973939158
 31
0.0
  0
LINE
  5
B8
330
2
100
AcDbEntity
  8
0
100
AcDbLine
 10
1751.86485116534
 20
632.8369896527058
 30
0.0
 11
1749.59772949024
 21
632.4784979057071
 31
0.0
  0
LINE
  5
B9
330
2
100
AcDbEntity
  8
0
100
AcDbLine
 10
1751.86485116534
 20
635.3952252660816
 30
0.0
 11
1751.86485116534
 21
632.8369896527059
 31
0.0
  0
LINE
  5
BA
330
2
100
AcDbEntity
  8
0
100
AcDbLine
 10
1750.466014664821
 20
636.3943328236769
 30
0.0
 11
1749.59772949024
 21
636.2570340308739
 31
0.0
  0
LINE
  5
BB
330
2
100
AcDbEntity
  8
0
100
AcDbLine
 10
1751.86485116534
 20
631.6166891409145
 30
0.0
 11
1751.86485116534
 21
629.0584535275392
 31
0.0
  0
LINE
  5
BC
330
2
100
AcDbEntity
  8
0
100
AcDbLine
 10
1751.86485116534
 20
627.8381530157479
 30
0.0
 11
1751.86485116534
 21
625.279917402372
 31
0.0
  0
LINE
  5
BD
330
2
100
AcDbEntity
  8
0
100
AcDbLine
 10
1751.86485116534
 20
624.059616890581
 30
0.0
 11
1751.86485116534
 21
621.501381277205
 31
0.0
  0
LINE
  5
BE
330
2
100
AcDbEntity
  8
0
100
AcDbLine
 10
1751.86485116534
 20
620.2810807654138
 30
0.0
 11
1751.86485116534
 21
617.7228451520382
 31
0.0
  0
LINE
  5
BF
330
2
100
AcDbEntity
  8
0
100
AcDbLine
 10
1751.86485116534
 20
616.5025446402471
 30
0.0
 11
1751.86485116534
 21
613.9443090268712
 31
0.0
  0
LINE
  5
C0
330
2
100
AcDbEntity
  8
0
100
AcDbLine
 10
1751.86485116534
 20
612.72400851508
 30
0.0
 11
1751.86485116534
 21
610.1657729017046
 31
0.0
  0
LINE
  5
C1
330
2
100
AcDbEntity
  8
0
100
AcDbLine
 10
1749.59772949024
 20
636.2570340308739
 30
0.0
 11
1749.59772949024
 21
635.0367335190827
 31
0.0
  0
LINE
  5
C2
330
2
100
AcDbEntity
  8
0
100
AcDbLine
 10
1749.59772949024
 20
632.4784979057071
 30
0.0
 11
1749.59772949024
 21
631.2581973939158
 31
0.0
  0
LINE
  5
C3
330
2
100
AcDbEntity
  8
0
100
AcDbLine
 10
1749.59772949024
 20
609.8072811547056
 30
0.0
 11
1749.59772949024
 21
608.5869806429144
 31
0.0
  0
LINE
  5
C4
330
2
100
AcDbEntity
  8
0
100
AcDbLine
 10
1749.59772949024
 20
624.9214256553732
 30
0.0
 11
1749.59772949024
 21
623.7011251435819
 31
0.0
  0
LINE
  5
C5
330
2
100
AcDbEntity
  8
0
100
AcDbLine
 10
1749.59772949024
 20
617.3643534050394
 30
0.0
 11
1749.59772949024
 21
616.1440528932482
 31
0.0
  0
LINE
  5
C6
330
2
100
AcDbEntity
  8
0
100
AcDbLine
 10
1751.86485116534
 20
608.9454723899132
 30
0.0
 11
1751.86485116534
 21
608.5869806429144
 31
0.0
  0
LINE
  5
C7
330
2
100
AcDbEntity
  8
0
100
AcDbLine
 10
1749.59772949024
 20
636.3943328236769
 30
0.0
 11
1749.59772949024
 21
650.3281490405319
 31
0.0
  0
LINE
  5
C8
330
2
100
AcDbEntity
  8
0
100
AcDbLine
 10
1787.230480846673
 20
648.6550787345355
 30
0.0
 11
1787.230480846673
 21
657.7235654349363
 31
0.0
  0
LINE
  5
C9
330
2
100
AcDbEntity
  8
0
100
AcDbLine
 10
1787.230480846673
 20
622.2053258583672
 30
0.0
 11
1787.230480846673
 21
631.2738125587681
 31
0.0
  0
LINE
  5
CA
330
2
100
AcDbEntity
  8
0
100
AcDbLine
 10
1787.230480846673
 20
569.3058201060306
 30
0.0
 11
1787.230480846673
 21
578.3743068064316
 31
0.0
  0
LINE
  5
CB
330
2
100
AcDbEntity
  8
0
100
AcDbLine
 10
1787.230480846673
 20
595.7555729821989
 30
0.0
 11
1787.230480846673
 21
604.8240596825999
 31
0.0
  0
LINE
  5
CC
330
2
100
AcDbEntity
  8
0
100
AcDbLine
 10
1763.200459540841
 20
610.7379311249074
 30
0.0
 11
1760.93333786574
 21
610.3794393779085
 31
0.0
  0
LINE
  5
CD
330
2
100
AcDbEntity
  8
0
100
AcDbLine
 10
1763.200459540841
 20
611.9582316366985
 30
0.0
 11
1760.933337865741
 21
611.5997398896998
 31
0.0
  0
LINE
  5
CE
330
2
100
AcDbEntity
  8
0
100
AcDbLine
 10
1763.200459540841
 20
618.2950033752411
 30
0.0
 11
1760.93333786574
 21
617.9365116282426
 31
0.0
  0
LINE
  5
CF
330
2
100
AcDbEntity
  8
0
100
AcDbLine
 10
1763.200459540841
 20
619.5153038870323
 30
0.0
 11
1760.93333786574
 21
619.1568121400333
 31
0.0
  0
LINE
  5
D0
330
2
100
AcDbEntity
  8
0
100
AcDbLine
 10
1763.200459540841
 20
625.8520756255749
 30
0.0
 11
1760.933337865741
 21
625.4935838785759
 31
0.0
  0
LINE
  5
D1
330
2
100
AcDbEntity
  8
0
100
AcDbLine
 10
1763.200459540841
 20
627.072376137366
 30
0.0
 11
1760.933337865741
 21
626.7138843903674
 31
0.0
  0
LINE
  5
D2
330
2
100
AcDbEntity
  8
0
100
AcDbLine
 10
1763.200459540841
 20
633.4091478759087
 30
0.0
 11
1760.933337865741
 21
633.0506561289099
 31
0.0
  0
LINE
  5
D3
330
2
100
AcDbEntity
  8
0
100
AcDbLine
 10
1763.200459540841
 20
634.6294483876999
 30
0.0
 11
1760.933337865741
 21
634.270956640701
 31
0.0
  0
LINE
  5
D4
330
2
100
AcDbEntity
  8
0
100
AcDbLine
 10
1760.933337865741
 20
636.3943328236769
 30
0.0
 11
1760.933337865741
 21
634.2709566407011
 31
0.0
  0
LINE
  5
D5
330
2
100
AcDbEntity
  8
0
100
AcDbLine
 10
1760.933337865741
 20
633.0506561289099
 30
0.0
 11
1760.933337865741
 21
630.4924205155344
 31
0.0
  0
LINE
  5
D6
330
2
100
AcDbEntity
  8
0
100
AcDbLine
 10
1760.933337865741
 20
629.2721200037431
 30
0.0
 11
1760.93333786574
 21
626.7138843903676
 31
0.0
  0
LINE
  5
D7
330
2
100
AcDbEntity
  8
0
100
AcDbLine
 10
1760.93333786574
 20
625.4935838785761
 30
0.0
 11
1760.93333786574
 21
622.9353482652004
 31
0.0
  0
LINE
  5
D8
330
2
100
AcDbEntity
  8
0
100
AcDbLine
 10
1760.93333786574
 20
621.7150477534093
 30
0.0
 11
1760.93333786574
 21
619.1568121400337
 31
0.0
  0
LINE
  5
D9
330
2
100
AcDbEntity
  8
0
100
AcDbLine
 10
1760.93333786574
 20
617.9365116282427
 30
0.0
 11
1760.933337865741
 21
615.3782760148665
 31
0.0
  0
LINE
  5
DA
330
2
100
AcDbEntity
  8
0
100
AcDbLine
 10
1760.933337865741
 20
614.1579755030754
 30
0.0
 11
1760.93333786574
 21
611.5997398896998
 31
0.0
  0
LINE
  5
DB
330
2
100
AcDbEntity
  8
0
100
AcDbLine
 10
1760.93333786574
 20
610.3794393779085
 30
0.0
 11
1760.933337865741
 21
608.5869806429144
 31
0.0
  0
LINE
  5
DC
330
2
100
AcDbEntity
  8
0
100
AcDbLine
 10
1763.200459540841
 20
634.6294483876999
 30
0.0
 11
1763.200459540841
 21
633.4091478759087
 31
0.0
  0
LINE
  5
DD
330
2
100
AcDbEntity
  8
0
100
AcDbLine
 10
1763.200459540841
 20
611.9582316366985
 30
0.0
 11
1763.200459540841
 21
610.7379311249074
 31
0.0
  0
LINE
  5
DE
330
2
100
AcDbEntity
  8
0
100
AcDbLine
 10
1763.200459540841
 20
627.072376137366
 30
0.0
 11
1763.200459540841
 21
625.8520756255749
 31
0.0
  0
LINE
  5
DF
330
2
100
AcDbEntity
  8
0
100
AcDbLine
 10
1763.200459540841
 20
619.5153038870323
 30
0.0
 11
1763.200459540841
 21
618.2950033752411
 31
0.0
  0
LINE
  5
E0
330
2
100
AcDbEntity
  8
0
100
AcDbLine
 10
1763.200459540841
 20
636.3943328236769
 30
0.0
 11
1763.200459540841
 21
650.3281490405319
 31
0.0
  0
LINE
  5
E1
330
2
100
AcDbEntity
  8
0
100
AcDbLine
 10
1760.933337865741
 20
725.8988715438698
 30
0.0
 11
1751.86485116534
 21
725.8988715438698
 31
0.0
  0
ARC
  5
E2
330
2
100
AcDbEntity
  8
0
100
AcDbCircle
 10
1756.39909451554
 20
684.3349741670339
 30
0.0
 40
26.44975287616828
100
AcDbArc
 50
44.415308597193
 51
135.584691402807
  0
ARC
  5
E3
330
2
100
AcDbEntity
  8
0
100
AcDbCircle
 10
1756.39909451554
 20
670.7322441164331
 30
0.0
 40
26.44975287616828
100
AcDbArc
 50
44.415308597193
 51
135.584691402807
  0
ARC
  5
E4
330
2
100
AcDbEntity
  8
0
100
AcDbCircle
 10
1756.39909451554
 20
677.5336091417336
 30
0.0
 40
26.44975287616828
100
AcDbArc
 50
44.415308597193
 51
135.584691402807
  0
ARC
  5
E5
330
2
100
AcDbEntity
  8
0
100
AcDbCircle
 10
1756.39909451554
 20
697.9377042176349
 30
0.0
 40
26.44975287616828
100
AcDbArc
 50
44.415308597193
 51
135.584691402807
  0
ARC
  5
E6
330
2
100
AcDbEntity
  8
0
100
AcDbCircle
 10
1756.39909451554
 20
691.1363391923344
 30
0.0
 40
26.44975287616828
100
AcDbArc
 50
44.415308597193
 51
135.584691402807
  0
LINE
  5
E7
330
2
100
AcDbEntity
  8
0
100
AcDbLine
 10
1775.291775141375
 20
725.8988715438698
 30
0.0
 11
1737.506413889706
 21
725.8988715438698
 31
0.0
  0
ARC
  5
E8
330
2
100
AcDbEntity
  8
0
100
AcDbCircle
 10
1756.39909451554
 20
657.1295140658324
 30
0.0
 40
26.44975287616828
100
AcDbArc
 50
44.415308597193
 51
135.584691402807
  0
ARC
  5
E9
330
2
100
AcDbEntity
  8
0
100
AcDbCircle
 10
1756.39909451554
 20
650.3281490405319
 30
0.0
 40
26.44975287616828
100
AcDbArc
 50
44.415308597193
 51
135.584691402807
  0
ARC
  5
EA
330
2
100
AcDbEntity
  8
0
100
AcDbCircle
 10
1756.39909451554
 20
663.9308790911326
 30
0.0
 40
26.44975287616828
100
AcDbArc
 50
44.415308597193
 51
135.584691402807
  0
LINE
  5
EB
330
2
100
AcDbEntity
  8
0
100
AcDbLine
 10
1749.59772949024
 20
757.3474610569961
 30
0.0
 11
1749.59772949024
 21
756.1271605452049
 31
0.0
  0
LINE
  5
EC
330
2
100
AcDbEntity
  8
0
100
AcDbLine
 10
1751.86485116534
 20
735.0347360529935
 30
0.0
 11
1749.59772949024
 21
734.6762443059948
 31
0.0
  0
LINE
  5
ED
330
2
100
AcDbEntity
  8
0
100
AcDbLine
 10
1751.86485116534
 20
733.8144355412023
 30
0.0
 11
1749.59772949024
 21
733.4559437942036
 31
0.0
  0
LINE
  5
EE
330
2
100
AcDbEntity
  8
0
100
AcDbLine
 10
1751.86485116534
 20
741.3715077915361
 30
0.0
 11
1749.59772949024
 21
741.0130160445373
 31
0.0
  0
LINE
  5
EF
330
2
100
AcDbEntity
  8
0
100
AcDbLine
 10
1751.86485116534
 20
742.5918083033276
 30
0.0
 11
1749.59772949024
 21
742.2333165563286
 31
0.0
  0
LINE
  5
F0
330
2
100
AcDbEntity
  8
0
100
AcDbLine
 10
1751.86485116534
 20
748.9285800418699
 30
0.0
 11
1749.59772949024
 21
748.5700882948711
 31
0.0
  0
LINE
  5
F1
330
2
100
AcDbEntity
  8
0
100
AcDbLine
 10
1751.86485116534
 20
750.1488805536616
 30
0.0
 11
1749.59772949024
 21
749.7903888066624
 31
0.0
  0
LINE
  5
F2
330
2
100
AcDbEntity
  8
0
100
AcDbLine
 10
1751.86485116534
 20
756.4856522922037
 30
0.0
 11
1749.59772949024
 21
756.1271605452049
 31
0.0
  0
LINE
  5
F3
330
2
100
AcDbEntity
  8
0
100
AcDbLine
 10
1751.86485116534
 20
756.4856522922037
 30
0.0
 11
1751.86485116534
 21
753.9274166788283
 31
0.0
  0
LINE
  5
F4
330
2
100
AcDbEntity
  8
0
100
AcDbLine
 10
1751.86485116534
 20
737.5929716663695
 30
0.0
 11
1751.86485116534
 21
735.0347360529938
 31
0.0
  0
LINE
  5
F5
330
2
100
AcDbEntity
  8
0
100
AcDbLine
 10
1751.86485116534
 20
741.3715077915361
 30
0.0
 11
1751.86485116534
 21
738.8132721781609
 31
0.0
  0
LINE
  5
F6
330
2
100
AcDbEntity
  8
0
100
AcDbLine
 10
1751.86485116534
 20
745.1500439167032
 30
0.0
 11
1751.86485116534
 21
742.5918083033272
 31
0.0
  0
LINE
  5
F7
330
2
100
AcDbEntity
  8
0
100
AcDbLine
 10
1751.86485116534
 20
748.9285800418697
 30
0.0
 11
1751.86485116534
 21
746.3703444284945
 31
0.0
  0
LINE
  5
F8
330
2
100
AcDbEntity
  8
0
100
AcDbLine
 10
1751.86485116534
 20
752.707116167037
 30
0.0
 11
1751.86485116534
 21
750.148880553661
 31
0.0
  0
LINE
  5
F9
330
2
100
AcDbEntity
  8
0
100
AcDbLine
 10
1749.59772949024
 20
742.2333165563286
 30
0.0
 11
1749.59772949024
 21
741.0130160445373
 31
0.0
  0
LINE
  5
FA
330
2
100
AcDbEntity
  8
0
100
AcDbLine
 10
1749.59772949024
 20
749.7903888066624
 30
0.0
 11
1749.59772949024
 21
748.5700882948711
 31
0.0
  0
LINE
  5
FB
330
2
100
AcDbEntity
  8
0
100
AcDbLine
 10
1749.59772949024
 20
734.6762443059948
 30
0.0
 11
1749.59772949024
 21
733.4559437942036
 31
0.0
  0
LINE
  5
FC
330
2
100
AcDbEntity
  8
0
100
AcDbLine
 10
1751.86485116534
 20
757.7059528039954
 30
0.0
 11
1749.59772949024
 21
757.3474610569961
 31
0.0
  0
LINE
  5
FD
330
2
100
AcDbEntity
  8
0
100
AcDbLine
 10
1751.86485116534
 20
764.0427245425375
 30
0.0
 11
1749.59772949024
 21
763.6842327955388
 31
0.0
  0
LINE
  5
FE
330
2
100
AcDbEntity
  8
0
100
AcDbLine
 10
1751.86485116534
 20
765.2630250543289
 30
0.0
 11
1749.59772949024
 21
764.9045333073299
 31
0.0
  0
LINE
  5
FF
330
2
100
AcDbEntity
  8
0
100
AcDbLine
 10
1751.86485116534
 20
767.8212606677044
 30
0.0
 11
1751.86485116534
 21
765.2630250543289
 31
0.0
  0
LINE
  5
100
330
2
100
AcDbEntity
  8
0
100
AcDbLine
 10
1751.86485116534
 20
764.0427245425375
 30
0.0
 11
1751.86485116534
 21
761.4844889291618
 31
0.0
  0
LINE
  5
101
330
2
100
AcDbEntity
  8
0
100
AcDbLine
 10
1751.86485116534
 20
760.2641884173711
 30
0.0
 11
1751.86485116534
 21
757.7059528039951
 31
0.0
  0
LINE
  5
102
330
2
100
AcDbEntity
  8
0
100
AcDbLine
 10
1749.59772949024
 20
764.9045333073299
 30
0.0
 11
1749.59772949024
 21
763.6842327955388
 31
0.0
  0
LINE
  5
103
330
2
100
AcDbEntity
  8
0
100
AcDbLine
 10
1751.86485116534
 20
726.2573632908686
 30
0.0
 11
1749.59772949024
 21
725.8988715438698
 31
0.0
  0
LINE
  5
104
330
2
100
AcDbEntity
  8
0
100
AcDbLine
 10
1751.86485116534
 20
727.47766380266
 30
0.0
 11
1749.59772949024
 21
727.1191720556609
 31
0.0
  0
LINE
  5
105
330
2
100
AcDbEntity
  8
0
100
AcDbLine
 10
1751.86485116534
 20
730.0358994160359
 30
0.0
 11
1751.86485116534
 21
727.47766380266
 31
0.0
  0
LINE
  5
106
330
2
100
AcDbEntity
  8
0
100
AcDbLine
 10
1751.86485116534
 20
726.2573632908686
 30
0.0
 11
1751.86485116534
 21
725.8988715438698
 31
0.0
  0
LINE
  5
107
330
2
100
AcDbEntity
  8
0
100
AcDbLine
 10
1749.59772949024
 20
727.1191720556609
 30
0.0
 11
1749.59772949024
 21
725.8988715438698
 31
0.0
  0
LINE
  5
108
330
2
100
AcDbEntity
  8
0
100
AcDbLine
 10
1751.86485116534
 20
733.8144355412025
 30
0.0
 11
1751.86485116534
 21
731.2561999278268
 31
0.0
  0
LINE
  5
109
102
{ACAD_REACTORS
330
6C
102
}
330
2
100
AcDbEntity
  8
0
100
AcDbLine
 10
1737.506413889706
 20
725.8988715438698
 30
0.0
 11
1731.954091359878
 21
725.8988715438698
 31
0.0
  0
ARC
  5
10A
330
2
100
AcDbEntity
  8
0
100
AcDbCircle
 10
1756.39909451554
 20
704.7390692429353
 30
0.0
 40
26.44975287616828
100
AcDbArc
 50
126.8698976458444
 51
135.584691402807
  0
LINE
  5
10B
330
2
100
AcDbEntity
  8
0
100
AcDbLine
 10
1787.230480846673
 20
701.554584486872
 30
0.0
 11
1787.230480846673
 21
710.623071187273
 31
0.0
  0
LINE
  5
10C
330
2
100
AcDbEntity
  8
0
100
AcDbLine
 10
1787.230480846673
 20
675.1048316107037
 30
0.0
 11
1787.230480846673
 21
684.1733183111046
 31
0.0
  0
LINE
  5
10D
330
2
100
AcDbEntity
  8
0
100
AcDbLine
 10
1760.933337865741
 20
757.9196192801991
 30
0.0
 11
1760.933337865741
 21
755.3613836668234
 31
0.0
  0
LINE
  5
10E
330
2
100
AcDbEntity
  8
0
100
AcDbLine
 10
1763.200459540841
 20
736.8271947879877
 30
0.0
 11
1760.933337865741
 21
736.4687030409889
 31
0.0
  0
LINE
  5
10F
330
2
100
AcDbEntity
  8
0
100
AcDbLine
 10
1763.200459540841
 20
735.6068942761964
 30
0.0
 11
1760.933337865741
 21
735.2484025291979
 31
0.0
  0
LINE
  5
110
330
2
100
AcDbEntity
  8
0
100
AcDbLine
 10
1763.200459540841
 20
743.1639665265302
 30
0.0
 11
1760.933337865741
 21
742.8054747795315
 31
0.0
  0
LINE
  5
111
330
2
100
AcDbEntity
  8
0
100
AcDbLine
 10
1763.200459540841
 20
744.3842670383214
 30
0.0
 11
1760.933337865741
 21
744.0257752913228
 31
0.0
  0
LINE
  5
112
330
2
100
AcDbEntity
  8
0
100
AcDbLine
 10
1763.200459540841
 20
750.7210387768641
 30
0.0
 11
1760.933337865741
 21
750.3625470298651
 31
0.0
  0
LINE
  5
113
330
2
100
AcDbEntity
  8
0
100
AcDbLine
 10
1763.200459540841
 20
751.9413392886552
 30
0.0
 11
1760.933337865741
 21
751.5828475416563
 31
0.0
  0
LINE
  5
114
330
2
100
AcDbEntity
  8
0
100
AcDbLine
 10
1760.933337865741
 20
754.1410831550322
 30
0.0
 11
1760.933337865741
 21
751.5828475416565
 31
0.0
  0
LINE
  5
115
330
2
100
AcDbEntity
  8
0
100
AcDbLine
 10
1760.933337865741
 20
750.3625470298653
 30
0.0
 11
1760.933337865741
 21
747.8043114164896
 31
0.0
  0
LINE
  5
116
330
2
100
AcDbEntity
  8
0
100
AcDbLine
 10
1760.933337865741
 20
746.5840109046985
 30
0.0
 11
1760.933337865741
 21
744.0257752913228
 31
0.0
  0
LINE
  5
117
330
2
100
AcDbEntity
  8
0
100
AcDbLine
 10
1760.933337865741
 20
742.8054747795315
 30
0.0
 11
1760.933337865741
 21
740.2472391661558
 31
0.0
  0
LINE
  5
118
330
2
100
AcDbEntity
  8
0
100
AcDbLine
 10
1760.933337865741
 20
739.0269386543646
 30
0.0
 11
1760.933337865741
 21
736.4687030409889
 31
0.0
  0
LINE
  5
119
330
2
100
AcDbEntity
  8
0
100
AcDbLine
 10
1760.933337865741
 20
735.2484025291977
 30
0.0
 11
1760.933337865741
 21
732.6901669158218
 31
0.0
  0
LINE
  5
11A
330
2
100
AcDbEntity
  8
0
100
AcDbLine
 10
1763.200459540841
 20
744.3842670383214
 30
0.0
 11
1763.200459540841
 21
743.1639665265302
 31
0.0
  0
LINE
  5
11B
330
2
100
AcDbEntity
  8
0
100
AcDbLine
 10
1763.200459540841
 20
751.9413392886552
 30
0.0
 11
1763.200459540841
 21
750.7210387768641
 31
0.0
  0
LINE
  5
11C
330
2
100
AcDbEntity
  8
0
100
AcDbLine
 10
1763.200459540841
 20
736.8271947879877
 30
0.0
 11
1763.200459540841
 21
735.6068942761964
 31
0.0
  0
LINE
  5
11D
330
2
100
AcDbEntity
  8
0
100
AcDbLine
 10
1763.200459540841
 20
758.2781110271979
 30
0.0
 11
1760.933337865741
 21
757.9196192801991
 31
0.0
  0
LINE
  5
11E
330
2
100
AcDbEntity
  8
0
100
AcDbLine
 10
1763.200459540841
 20
759.4984115389891
 30
0.0
 11
1760.933337865741
 21
759.1399197919903
 31
0.0
  0
LINE
  5
11F
330
2
100
AcDbEntity
  8
0
100
AcDbLine
 10
1763.200459540841
 20
765.8351832775316
 30
0.0
 11
1760.93333786574
 21
765.476691530533
 31
0.0
  0
LINE
  5
120
330
2
100
AcDbEntity
  8
0
100
AcDbLine
 10
1763.200459540841
 20
767.0554837893229
 30
0.0
 11
1760.933337865741
 21
766.6969920423241
 31
0.0
  0
LINE
  5
121
330
2
100
AcDbEntity
  8
0
100
AcDbLine
 10
1760.933337865741
 20
769.2552276556998
 30
0.0
 11
1760.93333786574
 21
766.6969920423241
 31
0.0
  0
LINE
  5
122
330
2
100
AcDbEntity
  8
0
100
AcDbLine
 10
1760.93333786574
 20
765.476691530533
 30
0.0
 11
1760.933337865741
 21
762.918455917157
 31
0.0
  0
LINE
  5
123
330
2
100
AcDbEntity
  8
0
100
AcDbLine
 10
1760.933337865741
 20
761.698155405366
 30
0.0
 11
1760.933337865741
 21
759.1399197919903
 31
0.0
  0
LINE
  5
124
330
2
100
AcDbEntity
  8
0
100
AcDbLine
 10
1763.200459540841
 20
759.4984115389891
 30
0.0
 11
1763.200459540841
 21
758.2781110271979
 31
0.0
  0
LINE
  5
125
330
2
100
AcDbEntity
  8
0
100
AcDbLine
 10
1763.200459540841
 20
767.0554837893229
 30
0.0
 11
1763.200459540841
 21
765.8351832775316
 31
0.0
  0
ARC
  5
126
330
2
100
AcDbEntity
  8
0
100
AcDbCircle
 10
1756.39909451554
 20
704.7390692429353
 30
0.0
 40
26.44975287616828
100
AcDbArc
 50
44.415308597193
 51
53.1301023541555
  0
LINE
  5
127
330
2
100
AcDbEntity
  8
0
100
AcDbLine
 10
1763.200459540841
 20
728.0498220258627
 30
0.0
 11
1760.933337865741
 21
727.6913302788641
 31
0.0
  0
LINE
  5
128
330
2
100
AcDbEntity
  8
0
100
AcDbLine
 10
1763.200459540841
 20
729.2701225376539
 30
0.0
 11
1760.933337865741
 21
728.9116307906551
 31
0.0
  0
LINE
  5
129
330
2
100
AcDbEntity
  8
0
100
AcDbLine
 10
1760.933337865741
 20
731.4698664040308
 30
0.0
 11
1760.933337865741
 21
728.9116307906549
 31
0.0
  0
LINE
  5
12A
330
2
100
AcDbEntity
  8
0
100
AcDbLine
 10
1760.933337865741
 20
727.6913302788638
 30
0.0
 11
1760.933337865741
 21
725.8988715438698
 31
0.0
  0
LINE
  5
12B
330
2
100
AcDbEntity
  8
0
100
AcDbLine
 10
1763.200459540841
 20
729.2701225376539
 30
0.0
 11
1763.200459540841
 21
728.0498220258627
 31
0.0
  0
LINE
  5
12C
330
2
100
AcDbEntity
  8
0
100
AcDbLine
 10
1749.59772949024
 20
857.0842984087327
 30
0.0
 11
1763.200459540841
 21
857.0842984087327
 31
0.0
  0
LINE
  5
12D
330
2
100
AcDbEntity
  8
0
100
AcDbLine
 10
1751.86485116534
 20
840.9710463504696
 30
0.0
 11
1751.86485116534
 21
838.4128107370939
 31
0.0
  0
LINE
  5
12E
330
2
100
AcDbEntity
  8
0
100
AcDbLine
 10
1749.59772949024
 20
838.0543189900953
 30
0.0
 11
1749.59772949024
 21
836.834018478304
 31
0.0
  0
LINE
  5
12F
330
2
100
AcDbEntity
  8
0
100
AcDbLine
 10
1749.59772949024
 20
830.4972467397615
 30
0.0
 11
1749.59772949024
 21
829.2769462279702
 31
0.0
  0
LINE
  5
130
330
2
100
AcDbEntity
  8
0
100
AcDbLine
 10
1751.86485116534
 20
833.4139741001358
 30
0.0
 11
1751.86485116534
 21
830.8557384867604
 31
0.0
  0
LINE
  5
131
330
2
100
AcDbEntity
  8
0
100
AcDbLine
 10
1751.86485116534
 20
837.192510225303
 30
0.0
 11
1751.86485116534
 21
834.6342746119271
 31
0.0
  0
LINE
  5
132
330
2
100
AcDbEntity
  8
0
100
AcDbLine
 10
1751.86485116534
 20
838.4128107370939
 30
0.0
 11
1749.59772949024
 21
838.0543189900953
 31
0.0
  0
LINE
  5
133
330
2
100
AcDbEntity
  8
0
100
AcDbLine
 10
1751.86485116534
 20
837.1925102253031
 30
0.0
 11
1749.59772949024
 21
836.834018478304
 31
0.0
  0
LINE
  5
134
330
2
100
AcDbEntity
  8
0
100
AcDbLine
 10
1751.86485116534
 20
830.8557384867604
 30
0.0
 11
1749.59772949024
 21
830.4972467397615
 31
0.0
  0
LINE
  5
135
330
2
100
AcDbEntity
  8
0
100
AcDbLine
 10
1751.86485116534
 20
829.635437974969
 30
0.0
 11
1749.59772949024
 21
829.2769462279702
 31
0.0
  0
LINE
  5
136
330
2
100
AcDbEntity
  8
0
100
AcDbLine
 10
1749.59772949024
 20
845.611391240429
 30
0.0
 11
1749.59772949024
 21
844.3910907286378
 31
0.0
  0
LINE
  5
137
330
2
100
AcDbEntity
  8
0
100
AcDbLine
 10
1749.59772949024
 20
853.1684634907628
 30
0.0
 11
1749.59772949024
 21
851.9481629789716
 31
0.0
  0
LINE
  5
138
330
2
100
AcDbEntity
  8
0
100
AcDbLine
 10
1749.59772949024
 20
856.9469996159297
 30
0.0
 11
1749.59772949024
 21
855.7266991041386
 31
0.0
  0
LINE
  5
139
330
2
100
AcDbEntity
  8
0
100
AcDbLine
 10
1751.86485116534
 20
844.7495824756368
 30
0.0
 11
1751.86485116534
 21
842.1913468622609
 31
0.0
  0
LINE
  5
13A
330
2
100
AcDbEntity
  8
0
100
AcDbLine
 10
1751.86485116534
 20
848.5281186008036
 30
0.0
 11
1751.86485116534
 21
845.9698829874279
 31
0.0
  0
LINE
  5
13B
330
2
100
AcDbEntity
  8
0
100
AcDbLine
 10
1751.86485116534
 20
852.3066547259704
 30
0.0
 11
1751.86485116534
 21
849.748419112595
 31
0.0
  0
LINE
  5
13C
330
2
100
AcDbEntity
  8
0
100
AcDbLine
 10
1750.466014664821
 20
857.0842984087327
 30
0.0
 11
1749.59772949024
 21
856.9469996159297
 31
0.0
  0
LINE
  5
13D
330
2
100
AcDbEntity
  8
0
100
AcDbLine
 10
1751.86485116534
 20
856.0851908511374
 30
0.0
 11
1751.86485116534
 21
853.5269552377616
 31
0.0
  0
LINE
  5
13E
330
2
100
AcDbEntity
  8
0
100
AcDbLine
 10
1751.86485116534
 20
853.5269552377615
 30
0.0
 11
1749.59772949024
 21
853.1684634907628
 31
0.0
  0
LINE
  5
13F
330
2
100
AcDbEntity
  8
0
100
AcDbLine
 10
1751.86485116534
 20
852.3066547259704
 30
0.0
 11
1749.59772949024
 21
851.9481629789716
 31
0.0
  0
LINE
  5
140
330
2
100
AcDbEntity
  8
0
100
AcDbLine
 10
1751.86485116534
 20
845.9698829874279
 30
0.0
 11
1749.59772949024
 21
845.611391240429
 31
0.0
  0
LINE
  5
141
330
2
100
AcDbEntity
  8
0
100
AcDbLine
 10
1751.86485116534
 20
844.7495824756368
 30
0.0
 11
1749.59772949024
 21
844.3910907286378
 31
0.0
  0
LINE
  5
142
330
2
100
AcDbEntity
  8
0
100
AcDbLine
 10
1751.86485116534
 20
856.0851908511372
 30
0.0
 11
1749.59772949024
 21
855.7266991041386
 31
0.0
  0
LINE
  5
143
330
2
100
AcDbEntity
  8
0
100
AcDbLine
 10
1751.86485116534
 20
799.407148973634
 30
0.0
 11
1751.86485116534
 21
796.8489133602583
 31
0.0
  0
LINE
  5
144
330
2
100
AcDbEntity
  8
0
100
AcDbLine
 10
1749.59772949024
 20
792.7118854880924
 30
0.0
 11
1749.59772949024
 21
791.4915849763013
 31
0.0
  0
LINE
  5
145
330
2
100
AcDbEntity
  8
0
100
AcDbLine
 10
1751.86485116534
 20
791.8500767233
 30
0.0
 11
1751.86485116534
 21
791.4915849763013
 31
0.0
  0
LINE
  5
146
330
2
100
AcDbEntity
  8
0
100
AcDbLine
 10
1751.86485116534
 20
795.6286128484673
 30
0.0
 11
1751.86485116534
 21
793.0703772350914
 31
0.0
  0
LINE
  5
147
330
2
100
AcDbEntity
  8
0
100
AcDbLine
 10
1751.86485116534
 20
793.0703772350914
 30
0.0
 11
1749.59772949024
 21
792.7118854880924
 31
0.0
  0
LINE
  5
148
330
2
100
AcDbEntity
  8
0
100
AcDbLine
 10
1751.86485116534
 20
791.8500767233
 30
0.0
 11
1749.59772949024
 21
791.4915849763013
 31
0.0
  0
LINE
  5
149
330
2
100
AcDbEntity
  8
0
100
AcDbLine
 10
1751.86485116534
 20
825.8569018498025
 30
0.0
 11
1751.86485116534
 21
823.2986662364265
 31
0.0
  0
LINE
  5
14A
330
2
100
AcDbEntity
  8
0
100
AcDbLine
 10
1751.86485116534
 20
823.2986662364268
 30
0.0
 11
1749.59772949024
 21
822.9401744894275
 31
0.0
  0
LINE
  5
14B
330
2
100
AcDbEntity
  8
0
100
AcDbLine
 10
1749.59772949024
 20
800.2689577384263
 30
0.0
 11
1749.59772949024
 21
799.0486572266351
 31
0.0
  0
LINE
  5
14C
330
2
100
AcDbEntity
  8
0
100
AcDbLine
 10
1749.59772949024
 20
815.3831022390939
 30
0.0
 11
1749.59772949024
 21
814.1628017273026
 31
0.0
  0
LINE
  5
14D
330
2
100
AcDbEntity
  8
0
100
AcDbLine
 10
1749.59772949024
 20
807.8260299887601
 30
0.0
 11
1749.59772949024
 21
806.6057294769688
 31
0.0
  0
LINE
  5
14E
330
2
100
AcDbEntity
  8
0
100
AcDbLine
 10
1751.86485116534
 20
818.2998295994684
 30
0.0
 11
1751.86485116534
 21
815.7415939860925
 31
0.0
  0
LINE
  5
14F
330
2
100
AcDbEntity
  8
0
100
AcDbLine
 10
1751.86485116534
 20
814.521293474301
 30
0.0
 11
1751.86485116534
 21
811.9630578609259
 31
0.0
  0
LINE
  5
150
330
2
100
AcDbEntity
  8
0
100
AcDbLine
 10
1751.86485116534
 20
810.7427573491346
 30
0.0
 11
1751.86485116534
 21
808.1845217357585
 31
0.0
  0
LINE
  5
151
330
2
100
AcDbEntity
  8
0
100
AcDbLine
 10
1751.86485116534
 20
806.9642212239676
 30
0.0
 11
1751.86485116534
 21
804.4059856105922
 31
0.0
  0
LINE
  5
152
330
2
100
AcDbEntity
  8
0
100
AcDbLine
 10
1751.86485116534
 20
803.185685098801
 30
0.0
 11
1751.86485116534
 21
800.6274494854253
 31
0.0
  0
LINE
  5
153
330
2
100
AcDbEntity
  8
0
100
AcDbLine
 10
1751.86485116534
 20
822.0783657246352
 30
0.0
 11
1751.86485116534
 21
819.5201301112597
 31
0.0
  0
LINE
  5
154
330
2
100
AcDbEntity
  8
0
100
AcDbLine
 10
1751.86485116534
 20
822.0783657246352
 30
0.0
 11
1749.59772949024
 21
821.7198739776364
 31
0.0
  0
LINE
  5
155
330
2
100
AcDbEntity
  8
0
100
AcDbLine
 10
1751.86485116534
 20
815.741593986093
 30
0.0
 11
1749.59772949024
 21
815.3831022390939
 31
0.0
  0
LINE
  5
156
330
2
100
AcDbEntity
  8
0
100
AcDbLine
 10
1751.86485116534
 20
814.5212934743014
 30
0.0
 11
1749.59772949024
 21
814.1628017273026
 31
0.0
  0
LINE
  5
157
330
2
100
AcDbEntity
  8
0
100
AcDbLine
 10
1751.86485116534
 20
808.184521735759
 30
0.0
 11
1749.59772949024
 21
807.8260299887601
 31
0.0
  0
LINE
  5
158
330
2
100
AcDbEntity
  8
0
100
AcDbLine
 10
1751.86485116534
 20
806.9642212239676
 30
0.0
 11
1749.59772949024
 21
806.6057294769688
 31
0.0
  0
LINE
  5
159
330
2
100
AcDbEntity
  8
0
100
AcDbLine
 10
1751.86485116534
 20
799.4071489736337
 30
0.0
 11
1749.59772949024
 21
799.0486572266351
 31
0.0
  0
LINE
  5
15A
330
2
100
AcDbEntity
  8
0
100
AcDbLine
 10
1751.86485116534
 20
800.6274494854249
 30
0.0
 11
1749.59772949024
 21
800.2689577384263
 31
0.0
  0
LINE
  5
15B
330
2
100
AcDbEntity
  8
0
100
AcDbLine
 10
1749.59772949024
 20
822.9401744894275
 30
0.0
 11
1749.59772949024
 21
821.7198739776364
 31
0.0
  0
LINE
  5
15C
330
2
100
AcDbEntity
  8
0
100
AcDbLine
 10
1751.86485116534
 20
790.4924774187057
 30
0.0
 11
1749.59772949024
 21
790.1339856717071
 31
0.0
  0
LINE
  5
15D
330
2
100
AcDbEntity
  8
0
100
AcDbLine
 10
1751.86485116534
 20
779.1568690432053
 30
0.0
 11
1749.59772949024
 21
778.7983772962063
 31
0.0
  0
LINE
  5
15E
330
2
100
AcDbEntity
  8
0
100
AcDbLine
 10
1751.86485116534
 20
780.3771695549963
 30
0.0
 11
1749.59772949024
 21
780.0186778079976
 31
0.0
  0
LINE
  5
15F
330
2
100
AcDbEntity
  8
0
100
AcDbLine
 10
1751.86485116534
 20
786.7139412935389
 30
0.0
 11
1749.59772949024
 21
786.3554495465401
 31
0.0
  0
LINE
  5
160
330
2
100
AcDbEntity
  8
0
100
AcDbLine
 10
1751.86485116534
 20
787.93424180533
 30
0.0
 11
1749.59772949024
 21
787.5757500583314
 31
0.0
  0
LINE
  5
161
330
2
100
AcDbEntity
  8
0
100
AcDbLine
 10
1751.86485116534
 20
790.492477418706
 30
0.0
 11
1751.86485116534
 21
787.9342418053303
 31
0.0
  0
LINE
  5
162
330
2
100
AcDbEntity
  8
0
100
AcDbLine
 10
1750.466014664821
 20
791.4915849763013
 30
0.0
 11
1749.59772949024
 21
791.3542861834983
 31
0.0
  0
LINE
  5
163
330
2
100
AcDbEntity
  8
0
100
AcDbLine
 10
1751.86485116534
 20
786.7139412935389
 30
0.0
 11
1751.86485116534
 21
784.1557056801637
 31
0.0
  0
LINE
  5
164
330
2
100
AcDbEntity
  8
0
100
AcDbLine
 10
1751.86485116534
 20
782.9354051683722
 30
0.0
 11
1751.86485116534
 21
780.3771695549963
 31
0.0
  0
LINE
  5
165
330
2
100
AcDbEntity
  8
0
100
AcDbLine
 10
1751.86485116534
 20
779.1568690432053
 30
0.0
 11
1751.86485116534
 21
776.5986334298294
 31
0.0
  0
LINE
  5
166
330
2
100
AcDbEntity
  8
0
100
AcDbLine
 10
1749.59772949024
 20
791.3542861834983
 30
0.0
 11
1749.59772949024
 21
790.1339856717071
 31
0.0
  0
LINE
  5
167
330
2
100
AcDbEntity
  8
0
100
AcDbLine
 10
1749.59772949024
 20
787.5757500583314
 30
0.0
 11
1749.59772949024
 21
786.3554495465401
 31
0.0
  0
LINE
  5
168
330
2
100
AcDbEntity
  8
0
100
AcDbLine
 10
1749.59772949024
 20
780.0186778079976
 30
0.0
 11
1749.59772949024
 21
778.7983772962063
 31
0.0
  0
LINE
  5
169
330
2
100
AcDbEntity
  8
0
100
AcDbLine
 10
1751.86485116534
 20
829.635437974969
 30
0.0
 11
1751.86485116534
 21
827.0772023615933
 31
0.0
  0
LINE
  5
16A
330
2
100
AcDbEntity
  8
0
100
AcDbLine
 10
1751.86485116534
 20
771.5997967928717
 30
0.0
 11
1749.59772949024
 21
771.2413050458726
 31
0.0
  0
LINE
  5
16B
330
2
100
AcDbEntity
  8
0
100
AcDbLine
 10
1751.86485116534
 20
772.8200973046625
 30
0.0
 11
1749.59772949024
 21
772.4616055576638
 31
0.0
  0
LINE
  5
16C
330
2
100
AcDbEntity
  8
0
100
AcDbLine
 10
1749.59772949024
 20
772.4616055576638
 30
0.0
 11
1749.59772949024
 21
771.2413050458726
 31
0.0
  0
LINE
  5
16D
330
2
100
AcDbEntity
  8
0
100
AcDbLine
 10
1751.86485116534
 20
775.3783329180382
 30
0.0
 11
1751.86485116534
 21
772.8200973046625
 31
0.0
  0
LINE
  5
16E
330
2
100
AcDbEntity
  8
0
100
AcDbLine
 10
1760.93333786574
 20
842.405013338465
 30
0.0
 11
1760.93333786574
 21
839.8467777250896
 31
0.0
  0
LINE
  5
16F
330
2
100
AcDbEntity
  8
0
100
AcDbLine
 10
1763.200459540841
 20
840.2052694720881
 30
0.0
 11
1763.200459540841
 21
838.9849689602968
 31
0.0
  0
LINE
  5
170
330
2
100
AcDbEntity
  8
0
100
AcDbLine
 10
1763.200459540841
 20
832.6481972217543
 30
0.0
 11
1763.200459540841
 21
831.427896709963
 31
0.0
  0
LINE
  5
171
330
2
100
AcDbEntity
  8
0
100
AcDbLine
 10
1760.933337865741
 20
834.8479410881312
 30
0.0
 11
1760.93333786574
 21
832.2897054747555
 31
0.0
  0
LINE
  5
172
330
2
100
AcDbEntity
  8
0
100
AcDbLine
 10
1760.93333786574
 20
838.6264772132985
 30
0.0
 11
1760.933337865741
 21
836.0682415999221
 31
0.0
  0
LINE
  5
173
330
2
100
AcDbEntity
  8
0
100
AcDbLine
 10
1763.200459540841
 20
840.2052694720881
 30
0.0
 11
1760.93333786574
 21
839.8467777250891
 31
0.0
  0
LINE
  5
174
330
2
100
AcDbEntity
  8
0
100
AcDbLine
 10
1763.200459540841
 20
838.9849689602968
 30
0.0
 11
1760.93333786574
 21
838.6264772132983
 31
0.0
  0
LINE
  5
175
330
2
100
AcDbEntity
  8
0
100
AcDbLine
 10
1763.200459540841
 20
832.6481972217543
 30
0.0
 11
1760.933337865741
 21
832.2897054747555
 31
0.0
  0
LINE
  5
176
330
2
100
AcDbEntity
  8
0
100
AcDbLine
 10
1763.200459540841
 20
831.427896709963
 30
0.0
 11
1760.93333786574
 21
831.0694049629644
 31
0.0
  0
LINE
  5
177
330
2
100
AcDbEntity
  8
0
100
AcDbLine
 10
1763.200459540841
 20
847.7623417224219
 30
0.0
 11
1763.200459540841
 21
846.5420412106308
 31
0.0
  0
LINE
  5
178
330
2
100
AcDbEntity
  8
0
100
AcDbLine
 10
1763.200459540841
 20
855.3194139727557
 30
0.0
 11
1763.200459540841
 21
854.0991134609646
 31
0.0
  0
LINE
  5
179
330
2
100
AcDbEntity
  8
0
100
AcDbLine
 10
1760.93333786574
 20
846.183549463632
 30
0.0
 11
1760.93333786574
 21
843.6253138502562
 31
0.0
  0
LINE
  5
17A
330
2
100
AcDbEntity
  8
0
100
AcDbLine
 10
1760.933337865741
 20
849.9620855887988
 30
0.0
 11
1760.93333786574
 21
847.4038499754232
 31
0.0
  0
LINE
  5
17B
330
2
100
AcDbEntity
  8
0
100
AcDbLine
 10
1760.933337865741
 20
853.7406217139658
 30
0.0
 11
1760.933337865741
 21
851.1823861005902
 31
0.0
  0
LINE
  5
17C
330
2
100
AcDbEntity
  8
0
100
AcDbLine
 10
1760.933337865741
 20
857.0842984087327
 30
0.0
 11
1760.933337865741
 21
854.9609222257569
 31
0.0
  0
LINE
  5
17D
330
2
100
AcDbEntity
  8
0
100
AcDbLine
 10
1763.200459540841
 20
855.3194139727557
 30
0.0
 11
1760.933337865741
 21
854.9609222257567
 31
0.0
  0
LINE
  5
17E
330
2
100
AcDbEntity
  8
0
100
AcDbLine
 10
1763.200459540841
 20
854.0991134609646
 30
0.0
 11
1760.933337865741
 21
853.7406217139658
 31
0.0
  0
LINE
  5
17F
330
2
100
AcDbEntity
  8
0
100
AcDbLine
 10
1763.200459540841
 20
847.7623417224219
 30
0.0
 11
1760.933337865741
 21
847.4038499754232
 31
0.0
  0
LINE
  5
180
330
2
100
AcDbEntity
  8
0
100
AcDbLine
 10
1763.200459540841
 20
846.5420412106308
 30
0.0
 11
1760.933337865741
 21
846.1835494636316
 31
0.0
  0
LINE
  5
181
330
2
100
AcDbEntity
  8
0
100
AcDbLine
 10
1763.200459540841
 20
794.8628359700854
 30
0.0
 11
1763.200459540841
 21
793.6425354582941
 31
0.0
  0
LINE
  5
182
330
2
100
AcDbEntity
  8
0
100
AcDbLine
 10
1760.933337865741
 20
793.2840437112952
 30
0.0
 11
1760.933337865741
 21
791.4915849763013
 31
0.0
  0
LINE
  5
183
330
2
100
AcDbEntity
  8
0
100
AcDbLine
 10
1760.933337865741
 20
797.0625798364623
 30
0.0
 11
1760.933337865741
 21
794.5043442230863
 31
0.0
  0
LINE
  5
184
330
2
100
AcDbEntity
  8
0
100
AcDbLine
 10
1763.200459540841
 20
794.8628359700854
 30
0.0
 11
1760.933337865741
 21
794.5043442230866
 31
0.0
  0
LINE
  5
185
330
2
100
AcDbEntity
  8
0
100
AcDbLine
 10
1763.200459540841
 20
793.6425354582941
 30
0.0
 11
1760.933337865741
 21
793.2840437112956
 31
0.0
  0
LINE
  5
186
330
2
100
AcDbEntity
  8
0
100
AcDbLine
 10
1763.200459540841
 20
825.0911249714205
 30
0.0
 11
1763.200459540841
 21
823.8708244596292
 31
0.0
  0
LINE
  5
187
330
2
100
AcDbEntity
  8
0
100
AcDbLine
 10
1760.933337865741
 20
827.2908688377974
 30
0.0
 11
1760.933337865741
 21
824.7326332244217
 31
0.0
  0
LINE
  5
188
330
2
100
AcDbEntity
  8
0
100
AcDbLine
 10
1763.200459540841
 20
825.0911249714205
 30
0.0
 11
1760.933337865741
 21
824.7326332244217
 31
0.0
  0
LINE
  5
189
330
2
100
AcDbEntity
  8
0
100
AcDbLine
 10
1763.200459540841
 20
823.8708244596292
 30
0.0
 11
1760.933337865741
 21
823.5123327126306
 31
0.0
  0
LINE
  5
18A
330
2
100
AcDbEntity
  8
0
100
AcDbLine
 10
1763.200459540841
 20
802.4199082204191
 30
0.0
 11
1763.200459540841
 21
801.1996077086278
 31
0.0
  0
LINE
  5
18B
330
2
100
AcDbEntity
  8
0
100
AcDbLine
 10
1763.200459540841
 20
817.5340527210867
 30
0.0
 11
1763.200459540841
 21
816.3137522092956
 31
0.0
  0
LINE
  5
18C
330
2
100
AcDbEntity
  8
0
100
AcDbLine
 10
1763.200459540841
 20
809.9769804707529
 30
0.0
 11
1763.200459540841
 21
808.7566799589618
 31
0.0
  0
LINE
  5
18D
330
2
100
AcDbEntity
  8
0
100
AcDbLine
 10
1760.933337865741
 20
800.8411159616292
 30
0.0
 11
1760.933337865741
 21
798.2828803482533
 31
0.0
  0
LINE
  5
18E
330
2
100
AcDbEntity
  8
0
100
AcDbLine
 10
1760.933337865741
 20
804.6196520867962
 30
0.0
 11
1760.933337865741
 21
802.0614164734205
 31
0.0
  0
LINE
  5
18F
330
2
100
AcDbEntity
  8
0
100
AcDbLine
 10
1760.933337865741
 20
808.398188211963
 30
0.0
 11
1760.933337865741
 21
805.8399525985873
 31
0.0
  0
LINE
  5
190
330
2
100
AcDbEntity
  8
0
100
AcDbLine
 10
1760.933337865741
 20
812.17672433713
 30
0.0
 11
1760.933337865741
 21
809.6184887237543
 31
0.0
  0
LINE
  5
191
330
2
100
AcDbEntity
  8
0
100
AcDbLine
 10
1760.933337865741
 20
815.9552604622968
 30
0.0
 11
1760.933337865741
 21
813.3970248489211
 31
0.0
  0
LINE
  5
192
330
2
100
AcDbEntity
  8
0
100
AcDbLine
 10
1760.933337865741
 20
819.7337965874636
 30
0.0
 11
1760.933337865741
 21
817.1755609740879
 31
0.0
  0
LINE
  5
193
330
2
100
AcDbEntity
  8
0
100
AcDbLine
 10
1763.200459540841
 20
817.5340527210867
 30
0.0
 11
1760.933337865741
 21
817.1755609740877
 31
0.0
  0
LINE
  5
194
330
2
100
AcDbEntity
  8
0
100
AcDbLine
 10
1763.200459540841
 20
816.3137522092956
 30
0.0
 11
1760.933337865741
 21
815.9552604622966
 31
0.0
  0
LINE
  5
195
330
2
100
AcDbEntity
  8
0
100
AcDbLine
 10
1763.200459540841
 20
809.9769804707529
 30
0.0
 11
1760.933337865741
 21
809.6184887237543
 31
0.0
  0
LINE
  5
196
330
2
100
AcDbEntity
  8
0
100
AcDbLine
 10
1763.200459540841
 20
808.7566799589618
 30
0.0
 11
1760.933337865741
 21
808.398188211963
 31
0.0
  0
LINE
  5
197
330
2
100
AcDbEntity
  8
0
100
AcDbLine
 10
1763.200459540841
 20
801.1996077086278
 30
0.0
 11
1760.933337865741
 21
800.8411159616294
 31
0.0
  0
LINE
  5
198
330
2
100
AcDbEntity
  8
0
100
AcDbLine
 10
1763.200459540841
 20
802.4199082204191
 30
0.0
 11
1760.933337865741
 21
802.0614164734205
 31
0.0
  0
LINE
  5
199
330
2
100
AcDbEntity
  8
0
100
AcDbLine
 10
1760.933337865741
 20
823.5123327126306
 30
0.0
 11
1760.933337865741
 21
820.9540970992549
 31
0.0
  0
LINE
  5
19A
330
2
100
AcDbEntity
  8
0
100
AcDbLine
 10
1763.200459540841
 20
780.9493277781992
 30
0.0
 11
1760.933337865741
 21
780.5908360312002
 31
0.0
  0
LINE
  5
19B
330
2
100
AcDbEntity
  8
0
100
AcDbLine
 10
1763.200459540841
 20
782.1696282899904
 30
0.0
 11
1760.933337865741
 21
781.8111365429918
 31
0.0
  0
LINE
  5
19C
330
2
100
AcDbEntity
  8
0
100
AcDbLine
 10
1763.200459540841
 20
788.5064000285331
 30
0.0
 11
1760.933337865741
 21
788.1479082815343
 31
0.0
  0
LINE
  5
19D
330
2
100
AcDbEntity
  8
0
100
AcDbLine
 10
1763.200459540841
 20
789.7267005403242
 30
0.0
 11
1760.933337865741
 21
789.3682087933253
 31
0.0
  0
LINE
  5
19E
330
2
100
AcDbEntity
  8
0
100
AcDbLine
 10
1760.933337865741
 20
791.4915849763013
 30
0.0
 11
1760.933337865741
 21
789.3682087933255
 31
0.0
  0
LINE
  5
19F
330
2
100
AcDbEntity
  8
0
100
AcDbLine
 10
1760.933337865741
 20
788.1479082815343
 30
0.0
 11
1760.933337865741
 21
785.5896726681589
 31
0.0
  0
LINE
  5
1A0
330
2
100
AcDbEntity
  8
0
100
AcDbLine
 10
1760.933337865741
 20
784.3693721563675
 30
0.0
 11
1760.93333786574
 21
781.8111365429919
 31
0.0
  0
LINE
  5
1A1
330
2
100
AcDbEntity
  8
0
100
AcDbLine
 10
1760.93333786574
 20
780.5908360312005
 30
0.0
 11
1760.93333786574
 21
778.0326004178248
 31
0.0
  0
LINE
  5
1A2
330
2
100
AcDbEntity
  8
0
100
AcDbLine
 10
1763.200459540841
 20
789.7267005403242
 30
0.0
 11
1763.200459540841
 21
788.5064000285331
 31
0.0
  0
LINE
  5
1A3
330
2
100
AcDbEntity
  8
0
100
AcDbLine
 10
1763.200459540841
 20
782.1696282899904
 30
0.0
 11
1763.200459540841
 21
780.9493277781992
 31
0.0
  0
LINE
  5
1A4
330
2
100
AcDbEntity
  8
0
100
AcDbLine
 10
1760.93333786574
 20
831.0694049629644
 30
0.0
 11
1760.933337865741
 21
828.5111693495885
 31
0.0
  0
LINE
  5
1A5
330
2
100
AcDbEntity
  8
0
100
AcDbLine
 10
1763.200459540841
 20
773.3922555278654
 30
0.0
 11
1760.93333786574
 21
773.0337637808669
 31
0.0
  0
LINE
  5
1A6
330
2
100
AcDbEntity
  8
0
100
AcDbLine
 10
1763.200459540841
 20
774.6125560396567
 30
0.0
 11
1760.93333786574
 21
774.2540642926577
 31
0.0
  0
LINE
  5
1A7
330
2
100
AcDbEntity
  8
0
100
AcDbLine
 10
1763.200459540841
 20
774.6125560396567
 30
0.0
 11
1763.200459540841
 21
773.3922555278654
 31
0.0
  0
LINE
  5
1A8
330
2
100
AcDbEntity
  8
0
100
AcDbLine
 10
1760.93333786574
 20
776.8122999060336
 30
0.0
 11
1760.93333786574
 21
774.2540642926582
 31
0.0
  0
HATCH
  5
1A9
330
2
100
AcDbEntity
  8
0
100
AcDbHatch
 10
0.0
 20
0.0
 30
0.0
210
0.0
220
0.0
230
1.0
  2
SOLID
 70
     1
 71
     1
 91
        1
 92
        7
 72
     0
 73
     1
 93
        4
 10
1941.209375960494
 20
-1288.291709824489
 10
1934.009375960494
 20
-1288.291709824489
 10
1934.009375960494
 20
-1345.891709824489
 10
1941.209375960494
 20
-1345.891709824489
 97
        4
330
1AC
330
1AF
330
1AD
330
1B4
 75
     0
 76
     1
 47
0.3415403471014338
 98
        1
 10
1937.024302152204
 20
-1298.282838299535
  0
HATCH
  5
1AA
330
2
100
AcDbEntity
  8
0
100
AcDbHatch
 10
0.0
 20
0.0
 30
0.0
210
0.0
220
0.0
230
1.0
  2
SOLID
 70
     1
 71
     1
 91
        1
 92
        7
 72
     1
 73
     1
 93
       10
 10
1965.134724008896
 20
-1353.091709824489
 42
0.4142135623730813
 10
1969.934724008895
 20
-1348.291709824489
 42
0.0
 10
1969.934724008895
 20
-1285.891709824489
 42
0.4142135623730951
 10
1965.134724008895
 20
-1281.091709824489
 42
0.0
 10
1854.734724008895
 20
-1281.091709824489
 42
1.0
 10
1854.734724008895
 20
-1288.291709824489
 42
0.0
 10
1962.734724008895
 20
-1288.291709824489
 42
0.0
 10
1962.734724008895
 20
-1345.891709824489
 42
0.0
 10
1854.734724008895
 20
-1345.891709824489
 42
1.0
 10
1854.734724008895
 20
-1353.091709824489
 42
0.0
 97
       10
330
1B2
330
1B6
330
1AB
330
1B1
330
1AC
330
1B3
330
1AD
330
1B0
330
1AE
330
1B5
 75
     0
 76
     1
 47
0.3415403471014338
 98
        1
 10
1915.487421726581
 20
-1349.513895358935
  0
LINE
  5
1AB
102
{ACAD_REACTORS
330
1AA
102
}
330
2
100
AcDbEntity
  8
0
100
AcDbLine
 10
1854.734724008895
 20
-1281.091709824489
 30
0.0
 11
1965.134724008896
 21
-1281.091709824489
 31
0.0
  0
LINE
  5
1AC
102
{ACAD_REACTORS
330
1AA
330
1A9
102
}
330
2
100
AcDbEntity
  8
0
100
AcDbLine
 10
1962.734724008895
 20
-1288.291709824489
 30
0.0
 11
1854.734724008895
 21
-1288.291709824489
 31
0.0
  0
LINE
  5
1AD
102
{ACAD_REACTORS
330
1AA
330
1A9
102
}
330
2
100
AcDbEntity
  8
0
100
AcDbLine
 10
1854.734724008895
 20
-1345.891709824489
 30
0.0
 11
1962.734724008895
 21
-1345.891709824489
 31
0.0
  0
LINE
  5
1AE
102
{ACAD_REACTORS
330
1AA
102
}
330
2
100
AcDbEntity
  8
0
100
AcDbLine
 10
1965.134724008896
 20
-1353.091709824489
 30
0.0
 11
1854.734724008895
 21
-1353.091709824489
 31
0.0
  0
LINE
  5
1AF
102
{ACAD_REACTORS
330
1A9
102
}
330
2
100
AcDbEntity
  8
0
100
AcDbLine
 10
1934.009375960494
 20
-1288.291709824489
 30
0.0
 11
1934.009375960494
 21
-1345.891709824489
 31
0.0
  0
ARC
  5
1B0
102
{ACAD_REACTORS
330
1AA
102
}
330
2
100
AcDbEntity
  8
0
100
AcDbCircle
 10
1854.734724008895
 20
-1349.491709824489
 30
0.0
 40
3.6
100
AcDbArc
 50
90.0
 51
270.0
  0
ARC
  5
1B1
102
{ACAD_REACTORS
330
1AA
102
}
330
2
100
AcDbEntity
  8
0
100
AcDbCircle
 10
1854.734724008895
 20
-1284.691709824489
 30
0.0
 40
3.6
100
AcDbArc
 50
90.0
 51
270.0
  0
LINE
  5
1B2
102
{ACAD_REACTORS
330
1AA
102
}
330
2
100
AcDbEntity
  8
0
100
AcDbLine
 10
1969.934724008895
 20
-1285.891709824489
 30
0.0
 11
1969.934724008895
 21
-1348.291709824489
 31
0.0
  0
LINE
  5
1B3
102
{ACAD_REACTORS
330
1AA
102
}
330
2
100
AcDbEntity
  8
0
100
AcDbLine
 10
1962.734724008895
 20
-1345.891709824489
 30
0.0
 11
1962.734724008895
 21
-1288.291709824489
 31
0.0
  0
LINE
  5
1B4
102
{ACAD_REACTORS
330
1A9
102
}
330
2
100
AcDbEntity
  8
0
100
AcDbLine
 10
1941.209375960494
 20
-1288.291709824489
 30
0.0
 11
1941.209375960494
 21
-1345.891709824489
 31
0.0
  0
ARC
  5
1B5
102
{ACAD_REACTORS
330
1AA
102
}
330
2
100
AcDbEntity
  8
0
100
AcDbCircle
 10
1965.134724008896
 20
-1348.291709824489
 30
0.0
 40
4.8
100
AcDbArc
 50
270.0
 51
0.000000000000007
  0
ARC
  5
1B6
102
{ACAD_REACTORS
330
1AA
102
}
330
2
100
AcDbEntity
  8
0
100
AcDbCircle
 10
1965.134724008896
 20
-1285.891709824489
 30
0.0
 40
4.8
100
AcDbArc
 50
0.000000000000007
 51
90.0
  0
MTEXT
  5
1B7
330
2
100
AcDbEntity
  8
0
100
AcDbMText
 10
2628.481248559551
 20
-1092.413126873473
 30
0.0
 40
28.0
 41
629.7772
 71
     1
 72
     5
  1
{\Ftxt.shx;SIDE GUIDE}
  7
STYLE1
 73
     1
 44
1.0
  0
DIMENSION
  5
1B8
330
2
100
AcDbEntity
  8
0
100
AcDbDimension
  2
*D2
 10
2773.221141452433
 20
-1226.902980605048
 30
0.0
 11
2711.176859873258
 21
-1203.760971143497
 31
0.0
 70
   128
  1
48
 71
     5
 42
118.7999999999997
  3
STANDARD
100
AcDbAlignedDimension
 13
2654.421141452434
 23
-1285.891709824489
 33
0.0
 14
2773.221141452433
 24
-1284.691709824489
 34
0.0
100
AcDbRotatedDimension
1001
ACAD
1000
DSTYLE
1002
{
1070
   279
1070
     1
1002
}
  0
DIMENSION
  5
1C6
330
2
100
AcDbEntity
  8
0
100
AcDbDimension
  2
*D3
 10
2839.486401455712
 20
-1353.091709824489
 30
0.0
 11
2839.486401455713
 21
-1317.091709824489
 31
0.0
  1
30
 71
     5
 42
72.0
  3
STANDARD
100
AcDbAlignedDimension
 13
2769.621141452434
 23
-1281.091709824489
 33
0.0
 14
2769.621141452434
 24
-1353.091709824489
 34
0.0
 50
90.0
100
AcDbRotatedDimension
  0
HATCH
  5
1D4
330
2
100
AcDbEntity
  8
0
100
AcDbHatch
 10
0.0
 20
0.0
 30
0.0
210
0.0
220
0.0
230
1.0
  2
SOLID
 70
     1
 71
     0
 91
        2
 92
        7
 72
     1
 73
     1
 93
       10
 10
2659.221141452433
 20
-1281.091709824489
 42
0.4142135623730951
 10
2654.421141452434
 20
-1285.891709824489
 42
0.0
 10
2654.421141452434
 20
-1348.291709824489
 42
0.4142135623730951
 10
2659.221141452433
 20
-1353.091709824489
 42
0.0
 10
2769.621141452434
 20
-1353.091709824489
 42
1.0
 10
2769.621141452434
 20
-1345.891709824489
 42
0.0
 10
2661.621141452434
 20
-1345.891709824489
 42
0.0
 10
2661.621141452434
 20
-1288.291709824489
 42
0.0
 10
2769.621141452434
 20
-1288.291709824489
 42
1.0
 10
2769.621141452434
 20
-1281.091709824489
 42
0.0
 97
        0
 92
       22
 72
     0
 73
     1
 93
        4
 10
2683.146489500835
 20
-1345.891709824489
 10
2690.346489500834
 20
-1345.891709824489
 10
2690.346489500835
 20
-1288.291709824489
 10
2683.146489500835
 20
-1288.291709824489
 97
        0
 75
     0
 76
     1
 47
0.2947251436646867
 98
        2
 10
2686.648603084202
 20
-1283.74434200018
 10
2686.648603084202
 20
-1295.06179534013
  0
LINE
  5
1D5
330
2
100
AcDbEntity
  8
0
100
AcDbLine
 10
2654.421141452434
 20
-1285.891709824489
 30
0.0
 11
2654.421141452434
 21
-1348.291709824489
 31
0.0
  0
LINE
  5
1D6
330
2
100
AcDbEntity
  8
0
100
AcDbLine
 10
2661.621141452434
 20
-1345.891709824489
 30
0.0
 11
2661.621141452434
 21
-1288.291709824489
 31
0.0
  0
LINE
  5
1D7
330
2
100
AcDbEntity
  8
0
100
AcDbLine
 10
2683.146489500835
 20
-1288.291709824489
 30
0.0
 11
2683.146489500835
 21
-1345.891709824489
 31
0.0
  0
LINE
  5
1D8
330
2
100
AcDbEntity
  8
0
100
AcDbLine
 10
2690.346489500834
 20
-1288.291709824489
 30
0.0
 11
2690.346489500834
 21
-1345.891709824489
 31
0.0
  0
LINE
  5
1D9
330
2
100
AcDbEntity
  8
0
100
AcDbLine
 10
2769.621141452434
 20
-1345.891709824489
 30
0.0
 11
2661.621141452434
 21
-1345.891709824489
 31
0.0
  0
LINE
  5
1DA
330
2
100
AcDbEntity
  8
0
100
AcDbLine
 10
2659.221141452433
 20
-1353.091709824489
 30
0.0
 11
2769.621141452434
 21
-1353.091709824489
 31
0.0
  0
ARC
  5
1DB
330
2
100
AcDbEntity
  8
0
100
AcDbCircle
 10
2659.221141452433
 20
-1348.291709824489
 30
0.0
 40
4.8
100
AcDbArc
 50
180.0
 51
270.0
  0
ARC
  5
1DC
330
2
100
AcDbEntity
  8
0
100
AcDbCircle
 10
2769.621141452434
 20
-1349.491709824489
 30
0.0
 40
3.6
100
AcDbArc
 50
270.0
 51
90.0
  0
LINE
  5
1DD
330
2
100
AcDbEntity
  8
0
100
AcDbLine
 10
2661.621141452434
 20
-1288.291709824489
 30
0.0
 11
2769.621141452434
 21
-1288.291709824489
 31
0.0
  0
LINE
  5
1DE
330
2
100
AcDbEntity
  8
0
100
AcDbLine
 10
2769.621141452434
 20
-1281.091709824489
 30
0.0
 11
2659.221141452433
 21
-1281.091709824489
 31
0.0
  0
ARC
  5
1DF
330
2
100
AcDbEntity
  8
0
100
AcDbCircle
 10
2659.221141452433
 20
-1285.891709824489
 30
0.0
 40
4.8
100
AcDbArc
 50
90.0
 51
180.0
  0
ARC
  5
1E0
330
2
100
AcDbEntity
  8
0
100
AcDbCircle
 10
2769.621141452434
 20
-1284.691709824489
 30
0.0
 40
3.6
100
AcDbArc
 50
270.0
 51
90.0
  0
MTEXT
  5
1E1
330
2
100
AcDbEntity
  8
0
100
AcDbMText
 10
3254.204950567814
 20
-1092.413126873473
 30
0.0
 40
28.0
 41
629.7772
 71
     2
 72
     5
  1
{\Ftxt.shx;CENTRE MULLION OR \PSIDE MULLION}
  7
STYLE1
 73
     1
 44
1.0
  0
LINE
  5
1E2
330
2
100
AcDbEntity
  8
0
100
AcDbLine
 10
3386.765596293178
 20
-1288.291709824489
 30
0.0
 11
3110.765596293179
 21
-1288.291709824489
 31
0.0
  0
LINE
  5
1E3
330
2
100
AcDbEntity
  8
0
100
AcDbLine
 10
3110.765596293179
 20
-1281.091709824489
 30
0.0
 11
3386.765596293178
 21
-1281.091709824489
 31
0.0
  0
DIMENSION
  5
1E4
330
2
100
AcDbEntity
  8
0
100
AcDbDimension
  2
*D4
 10
3390.365596293178
 20
-1230.281036053539
 30
0.0
 11
3248.765596293178
 21
-1230.281036053539
 31
0.0
  1
115
 71
     5
 42
283.1999999999998
  3
STANDARD
100
AcDbAlignedDimension
 13
3107.165596293179
 23
-1284.691709824489
 33
0.0
 14
3390.365596293178
 24
-1284.691709824489
 34
0.0
100
AcDbRotatedDimension
  0
LINE
  5
1F2
330
2
100
AcDbEntity
  8
0
100
AcDbLine
 10
3110.765596293179
 20
-1345.891709824489
 30
0.0
 11
3278.765596293178
 21
-1345.891709824489
 31
0.0
  0
LINE
  5
1F3
330
2
100
AcDbEntity
  8
0
100
AcDbLine
 10
3271.56559629318
 20
-1353.091709824489
 30
0.0
 11
3110.765596293179
 21
-1353.091709824489
 31
0.0
  0
HATCH
  5
1F4
330
2
100
AcDbEntity
  8
0
100
AcDbHatch
 10
0.0
 20
0.0
 30
0.0
210
0.0
220
0.0
230
1.0
  2
SOLID
 70
     1
 71
     0
 91
        4
 92
        7
 72
     0
 73
     1
 93
        4
 10
3295.49094434158
 20
-1288.291709824489
 10
3288.29094434158
 20
-1288.291709824489
 10
3288.29094434158
 20
-1345.891709824489
 10
3295.49094434158
 20
-1345.891709824489
 97
        0
 92
        7
 72
     0
 73
     1
 93
        4
 10
3209.240248244778
 20
-1288.291709824489
 10
3202.040248244777
 20
-1288.291709824489
 10
3202.040248244777
 20
-1345.891709824489
 10
3209.240248244778
 20
-1345.891709824489
 97
        0
 92
        7
 72
     1
 73
     1
 93
        4
 10
3386.765596293179
 20
-1288.291709824489
 42
1.0
 10
3386.765596293179
 20
-1281.091709824489
 42
0.0
 10
3110.765596293179
 20
-1281.091709824489
 42
1.0
 10
3110.765596293179
 20
-1288.291709824489
 42
0.0
 97
        0
 92
        7
 72
     1
 73
     1
 93
        6
 10
3386.765596293179
 20
-1345.891709824489
 42
0.0
 10
3278.765596293179
 20
-1345.891709824489
 42
0.0
 10
3110.765596293179
 20
-1345.891709824489
 42
1.0
 10
3110.765596293179
 20
-1353.091709824489
 42
0.0
 10
3271.565596293179
 20
-1353.091709824489
 42
0.0
 10
3386.765596293179
 20
-1353.091709824489
 42
1.0
 97
        0
 75
     0
 76
     1
 47
0.1325871551528577
 98
        4
 10
3291.102292424507
 20
-1314.250588452619
 10
3207.017647703162
 20
-1311.068499671632
 10
3239.504889044713
 20
-1284.975349834277
 10
3254.792995926335
 20
-1348.617186101966
  0
ARC
  5
1F5
330
2
100
AcDbEntity
  8
0
100
AcDbCircle
 10
3110.765596293179
 20
-1349.491709824489
 30
0.0
 40
3.6
100
AcDbArc
 50
90.0
 51
270.0
  0
ARC
  5
1F6
330
2
100
AcDbEntity
  8
0
100
AcDbCircle
 10
3110.765596293179
 20
-1284.691709824489
 30
0.0
 40
3.6
100
AcDbArc
 50
90.0
 51
270.0
  0
LINE
  5
1F7
330
2
100
AcDbEntity
  8
0
100
AcDbLine
 10
3386.765596293178
 20
-1281.091709824489
 30
0.0
 11
3271.56559629318
 21
-1281.091709824489
 31
0.0
  0
LINE
  5
1F8
330
2
100
AcDbEntity
  8
0
100
AcDbLine
 10
3271.56559629318
 20
-1353.091709824489
 30
0.0
 11
3386.765596293178
 21
-1353.091709824489
 31
0.0
  0
LINE
  5
1F9
330
2
100
AcDbEntity
  8
0
100
AcDbLine
 10
3386.765596293178
 20
-1345.891709824489
 30
0.0
 11
3278.765596293178
 21
-1345.891709824489
 31
0.0
  0
LINE
  5
1FA
330
2
100
AcDbEntity
  8
0
100
AcDbLine
 10
3202.040248244777
 20
-1288.291709824489
 30
0.0
 11
3202.040248244777
 21
-1345.891709824489
 31
0.0
  0
LINE
  5
1FB
330
2
100
AcDbEntity
  8
0
100
AcDbLine
 10
3209.240248244778
 20
-1288.291709824489
 30
0.0
 11
3209.240248244778
 21
-1345.891709824489
 31
0.0
  0
LINE
  5
1FC
330
2
100
AcDbEntity
  8
0
100
AcDbLine
 10
3295.49094434158
 20
-1288.291709824489
 30
0.0
 11
3295.49094434158
 21
-1345.891709824489
 31
0.0
  0
LINE
  5
1FD
330
2
100
AcDbEntity
  8
0
100
AcDbLine
 10
3288.29094434158
 20
-1288.291709824489
 30
0.0
 11
3288.29094434158
 21
-1345.891709824489
 31
0.0
  0
ARC
  5
1FE
330
2
100
AcDbEntity
  8
0
100
AcDbCircle
 10
3386.765596293178
 20
-1349.491709824489
 30
0.0
 40
3.6
100
AcDbArc
 50
270.0
 51
90.0
  0
ARC
  5
1FF
330
2
100
AcDbEntity
  8
0
100
AcDbCircle
 10
3386.765596293178
 20
-1284.691709824489
 30
0.0
 40
3.6
100
AcDbArc
 50
270.0
 51
90.0
  0
LEADER
  5
200
330
2
100
AcDbEntity
  8
0
100
AcDbLeader
  3
STANDARD
 76
     3
 10
2984.387689440137
 20
705.8896519042439
 30
0.0
 10
2984.387689440137
 20
938.0141855593802
 30
0.0
 10
2850.665890593496
 20
938.0141855593802
 30
0.0
1001
ACAD
1000
DSTYLE
1002
{
1070
   147
1040
10.0
1070
    77
1070
     0
1002
}
  0
LWPOLYLINE
  5
201
330
2
100
AcDbEntity
  8
0
100
AcDbPolyline
 90
        4
 70
     1
 43
0.0
 10
2650.711459650883
 20
-307.7331267456647
 10
3356.699827192406
 20
-307.7331267456647
 10
3356.699827192406
 20
-417.0109090012792
 10
2650.711459650883
 20
-417.0109090012792
  0
MTEXT
  5
202
330
2
100
AcDbEntity
  8
DIMENSION
 62
     7
100
AcDbMText
 10
2741.047507116024
 20
-340.8857494813616
 30
0.0
 40
35.0
 41
705.1438
 71
     1
 72
     5
  1
{\fArial|b1|i0|c0|p34;VIEWED FROM BEHIND}
 73
     1
 44
1.0
  0
LEADER
  5
203
330
2
100
AcDbEntity
  8
0
100
AcDbLeader
  3
STANDARD
 76
     2
 10
2944.387689440139
 20
823.5954696600785
 30
0.0
 10
2838.492506609793
 20
823.5954696600785
 30
0.0
1001
ACAD
1000
DSTYLE
1002
{
1070
   147
1040
10.0
1070
    77
1070
     0
1002
}
  0
HATCH
  5
204
330
2
100
AcDbEntity
  8
0
100
AcDbHatch
 10
0.0
 20
0.0
 30
0.0
210
0.0
220
0.0
230
1.0
  2
ANSI31
 70
     0
 71
     0
 91
        6
 92
        7
 72
     0
 73
     1
 93
        5
 10
2834.176287964083
 20
446.2541010534027
 10
2834.176287964083
 20
450.3260785337938
 10
2834.176287964083
 20
484.254101053403
 10
2614.428756190657
 20
484.2541010534028
 10
2607.956703594748
 20
446.2541010534027
 97
        0
 92
        7
 72
     0
 73
     1
 93
        4
 10
2834.176287964083
 20
484.254101053403
 10
2834.176287964083
 20
446.2541010534027
 10
2919.370457134824
 20
446.2541010534027
 10
2919.370457134824
 20
484.2541010534031
 97
        0
 92
        7
 72
     0
 73
     1
 93
        4
 10
2925.370457134825
 20
446.2541010534028
 10
2934.176287964083
 20
446.2541010534027
 10
2934.176287964083
 20
484.2541010534029
 10
2925.370457134825
 20
484.2541010534029
 97
        0
 92
        7
 72
     0
 73
     1
 93
        4
 10
2963.404921745452
 20
484.2541010534029
 10
2954.599090916194
 20
484.2541010534029
 10
2954.599090916195
 20
446.2541010534027
 10
2963.404921745453
 20
446.2541010534026
 97
        0
 92
        7
 72
     0
 73
     1
 93
        4
 10
2969.404921745452
 20
484.254101053403
 10
2969.404921745453
 20
446.2541010534027
 10
3054.599090916194
 20
446.2541010534027
 10
3054.599090916195
 20
484.2541010534029
 97
        0
 92
        7
 72
     0
 73
     1
 93
        4
 10
3054.599090916194
 20
484.2541010534028
 10
3054.599090916194
 20
446.2541010534026
 10
3282.573912350455
 20
446.2541010534026
 10
3289.045964946366
 20
484.2541010534029
 97
        0
 75
     0
 76
     1
 52
105.0
 41
60.0
 77
     0
 78
     1
 53
150.0
 43
149.0181619446229
 44
0.0
 45
-3.75
 46
-6.49519052838329
 79
     0
 47
1.313821549461526
 98
        6
 10
2706.91954101013
 20
464.8015438502561
 10
2867.353487274263
 20
471.3706518467743
 10
2929.160014160387
 20
464.8015438502561
 10
2959.405751679565
 20
466.1153654495592
 10
3014.637114114242
 20
467.4291870488632
 10
3072.498532850758
 20
467.4291870488632
  0
HATCH
  5
205
330
2
100
AcDbEntity
  8
0
100
AcDbHatch
 10
0.0
 20
0.0
 30
0.0
210
0.0
220
0.0
230
1.0
  2
ANSI31
 70
     0
 71
     0
 91
        4
 92
        7
 72
     0
 73
     1
 93
        5
 10
2834.176287964083
 20
484.254101053403
 10
2834.176287964083
 20
557.1748900118303
 10
2626.848418861031
 20
557.1748900118302
 10
2622.885971915994
 20
533.909784903358
 10
2614.428756190657
 20
484.2541010534028
 97
        0
 92
        7
 72
     0
 73
     1
 93
        4
 10
2834.176287964083
 20
373.3333120949754
 10
2834.176287964083
 20
446.2541010534026
 10
2607.956703594748
 20
446.2541010534028
 10
2595.537040924375
 20
373.3333120949753
 97
        0
 92
        7
 72
     0
 73
     1
 93
        5
 10
3054.599090916195
 20
484.2541010534029
 10
3289.045964946366
 20
484.2541010534029
 10
3297.503180671702
 20
533.909784903358
 10
3301.465627616738
 20
557.1748900118302
 10
3054.599090916195
 20
557.1748900118303
 97
        0
 92
        7
 72
     0
 73
     1
 93
        4
 10
3054.599090916195
 20
446.2541010534028
 10
3054.599090916195
 20
373.3333120949754
 10
3270.154249680082
 20
373.3333120949754
 10
3282.573912350455
 20
446.2541010534027
 97
        0
 75
     0
 76
     1
 52
0.0
 41
150.0
 77
     0
 78
     1
 53
45.0
 43
149.0181619446229
 44
0.0
 45
-13.25825214724776
 46
13.25825214724776
 79
     0
 47
1.030689454866287
 98
        4
 10
2760.092282417584
 20
510.4179703534764
 10
2774.535236471173
 20
406.3183363091402
 10
3081.963755421759
 20
520.724867115131
 10
3122.197685992755
 20
410.4410929922042
  0
LINE
  5
206
330
2
100
AcDbEntity
  8
0
100
AcDbLine
 10
2939.387689440138
 20
441.2541010534027
 30
0.0
 11
2904.387689440138
 21
441.2541010534027
 31
0.0
  0
LINE
  5
207
330
2
100
AcDbEntity
  8
0
100
AcDbLine
 10
2904.387689440138
 20
436.2541010534028
 30
0.0
 11
2944.387689440139
 21
436.2541010534028
 31
0.0
  0
LINE
  5
208
330
2
100
AcDbEntity
  8
0
100
AcDbLine
 10
2939.387689440138
 20
441.2541010534027
 30
0.0
 11
2904.387689440138
 21
441.2541010534027
 31
0.0
  0
LINE
  5
209
330
2
100
AcDbEntity
  8
0
100
AcDbLine
 10
2904.387689440138
 20
436.2541010534028
 30
0.0
 11
2944.387689440139
 21
436.2541010534028
 31
0.0
  0
LINE
  5
20A
330
2
100
AcDbEntity
  8
0
100
AcDbLine
 10
2938.870457134825
 20
446.2541010534027
 30
0.0
 11
2905.870457134824
 21
446.2541010534027
 31
0.0
  0
LINE
  5
20B
330
2
100
AcDbEntity
  8
0
100
AcDbLine
 10
2905.870457134824
 20
441.2541010534027
 30
0.0
 11
2944.387689440139
 21
441.2541010534027
 31
0.0
  0
LINE
  5
20C
330
2
100
AcDbEntity
  8
0
100
AcDbLine
 10
2913.811641048182
 20
429.2541010534029
 30
0.0
 11
2930.929273221468
 21
429.2541010534027
 31
0.0
  0
LINE
  5
20D
330
2
100
AcDbEntity
  8
0
100
AcDbLine
 10
2848.827575117013
 20
267.4839843232966
 30
0.0
 11
3040.447803763264
 21
267.4839843232966
 31
0.0
  0
LINE
  5
20E
330
2
100
AcDbEntity
  8
0
100
AcDbLine
 10
2856.327575117014
 20
102.9816280566319
 30
0.0
 11
3032.447803763263
 21
102.9816280566319
 31
0.0
  0
LINE
  5
20F
330
2
100
AcDbEntity
  8
0
100
AcDbLine
 10
2894.387689440138
 20
46.1484277934469
 30
0.0
 11
2944.387689440139
 21
46.1484277934469
 31
0.0
  0
LINE
  5
210
330
2
100
AcDbEntity
  8
0
100
AcDbLine
 10
2614.428756190657
 20
484.2541010534029
 30
0.0
 11
2919.370457134824
 21
484.254101053403
 31
0.0
  0
LINE
  5
211
330
2
100
AcDbEntity
  8
0
100
AcDbLine
 10
2607.956703594748
 20
446.2541010534027
 30
0.0
 11
2934.176287964083
 21
446.2541010534027
 31
0.0
  0
LINE
  5
212
330
2
100
AcDbEntity
  8
0
370
    40
100
AcDbLine
 10
2895.530408774983
 20
-261.1396089179852
 30
0.0
 11
2937.19503514295
 21
-253.2516155136777
 31
0.0
  0
LINE
  5
213
330
2
100
AcDbEntity
  8
0
100
AcDbLine
 10
2642.714018648246
 20
650.3281490405319
 30
0.0
 11
3317.331227403954
 21
650.3281490405319
 31
0.0
  0
LINE
  5
214
330
2
100
AcDbEntity
  8
0
100
AcDbLine
 10
2655.585010510154
 20
725.8988715438697
 30
0.0
 11
3330.202219265862
 21
725.8988715438698
 31
0.0
  0
LINE
  5
215
330
2
100
AcDbEntity
  8
0
100
AcDbLine
 10
2879.077654101396
 20
616.6112632607053
 30
0.0
 11
2879.077654101396
 21
446.2541010534026
 31
0.0
  0
LINE
  5
216
330
2
100
AcDbEntity
  8
0
370
    40
100
AcDbLine
 10
2622.885971915994
 20
533.909784903358
 30
0.0
 11
2630.005700363406
 21
575.7125479360064
 31
0.0
  0
ARC
  5
217
330
2
100
AcDbEntity
  8
0
100
AcDbCircle
 10
1826.914354857098
 20
569.3058201060308
 30
0.0
 40
5.289950575233655
100
AcDbArc
 50
180.0
 51
0.0
  0
CIRCLE
  5
218
330
2
100
AcDbEntity
  8
0
100
AcDbCircle
 10
1809.717393139502
 20
562.5044550807306
 30
0.0
 40
5.289950575233655
  0
LINE
  5
219
330
2
100
AcDbEntity
  8
0
100
AcDbLine
 10
1844.143011137629
 20
650.3281490405316
 30
0.0
 11
1844.143011137629
 21
367.5899729544729
 31
0.0
  0
LINE
  5
21A
330
2
100
AcDbEntity
  8
0
100
AcDbLine
 10
2176.746243064157
 20
121.7965171298456
 30
0.0
 11
2176.746243064156
 21
675.411772483617
 31
0.0
  0
LINE
  5
21B
330
2
100
AcDbEntity
  8
0
100
AcDbLine
 10
2182.298565593986
 20
116.1287129420952
 30
0.0
 11
2182.298565593986
 21
725.8988715438698
 31
0.0
  0
CIRCLE
  5
21C
330
2
100
AcDbEntity
  8
0
 62
     7
100
AcDbCircle
 10
1955.153855369282
 20
465.7343157827913
 30
0.0
 40
150.8769474779142
  0
LINE
  5
21D
330
2
100
AcDbEntity
  8
0
100
AcDbLine
 10
2138.960881812488
 20
161.0932928315813
 30
0.0
 11
2138.960881812488
 21
650.3281490405319
 31
0.0
  0
HATCH
  5
21E
330
2
100
AcDbEntity
  8
0
100
AcDbHatch
 10
0.0
 20
0.0
 30
0.0
210
0.0
220
0.0
230
1.0
  2
ANSI31
 70
     0
 71
     0
 91
        3
 92
        7
 72
     0
 73
     1
 93
        5
 10
2182.298565593985
 20
725.8988715438698
 10
2176.746243064158
 20
725.8988715438696
 10
2176.746243064158
 20
650.3281490405319
 10
2176.746243064158
 20
283.1899876857891
 10
2182.298565593985
 20
278.7595212171294
 97
        0
 92
        7
 72
     0
 73
     1
 93
        4
 10
2182.298565593985
 20
278.7595212171295
 10
2176.746243064157
 20
283.1899876857895
 10
2176.746243064158
 20
210.2631750185898
 10
2182.298565593985
 20
206.4584063093921
 97
        0
 92
        7
 72
     0
 73
     1
 93
        4
 10
2182.298565593985
 20
206.4584063093923
 10
2176.746243064158
 20
210.2631750185898
 10
2176.746243064158
 20
121.7965171298457
 10
2182.298565593985
 20
116.1287129420951
 97
        0
 75
     0
 76
     1
 52
0.0
 41
75.57072250333795
 77
     0
 78
     1
 53
45.0
 43
2145.594019556356
 44
-674.4956265024676
 45
-6.679571292659635
 46
6.679571292659636
 79
     0
 47
0.1775957219635982
 98
        3
 10
2179.453818446916
 20
429.194374462687
 10
2179.453818446916
 20
248.0103728430141
 10
2179.453818446916
 20
186.2736064403695
  0
MTEXT
  5
21F
330
2
100
AcDbEntity
  8
0
100
AcDbMText
 10
1979.862634961351
 20
89.69830075682784
 30
0.0
 40
28.0
 41
533.7523749465292
 71
     1
 72
     5
  1
{\Ftxt.shx;PROVIDE A MIN. 45mm CLEAR SLOT FOR THE ENTIRE LENGTH OF THE INSTALLATION}
  7
STYLE1
 73
     1
 44
1.0
  0
MTEXT
  5
220
330
2
100
AcDbEntity
  8
0
100
AcDbMText
 10
1967.083408142138
 20
-133.6573601479348
 30
0.0
 40
28.0
 41
0.0
 71
     1
 72
     1
  1
STANDARD 30mm \PWIDE SIDE GUIDE
 73
     1
 44
1.0
  0
MTEXT
  5
221
330
2
100
AcDbEntity
  8
DIMENSION
 62
     7
100
AcDbMText
 10
1953.514527751535
 20
-352.2990523365931
 30
0.0
 40
35.0
 41
265.56
 71
     1
 72
     5
  1
{\fArial|b1|i0|c0|p34;INSIDE}
 73
     1
 44
1.0
  0
LWPOLYLINE
  5
222
330
2
100
AcDbEntity
  8
0
100
AcDbPolyline
 90
        4
 70
     1
 43
0.0
 10
1895.434424340881
 20
-328.0730805782423
 10
2196.359368093242
 20
-328.0730805782423
 10
2196.359368093242
 20
-415.6243888908666
 10
1895.434424340881
 20
-415.6243888908666
  0
HATCH
  5
223
330
2
100
AcDbEntity
  8
0
100
AcDbHatch
 10
0.0
 20
0.0
 30
0.0
210
0.0
220
0.0
230
1.0
  2
SOLID
 70
     1
 71
     1
 91
        1
 92
        7
 72
     1
 73
     1
 93
       10
 10
1969.934724008895
 20
-980.2504354145225
 42
0.4142135623730951
 10
1965.134724008895
 20
-975.4504354145225
 42
0.0
 10
1854.734724008895
 20
-975.4504354145225
 42
1.0
 10
1854.734724008895
 20
-982.6504354145226
 42
0.0
 10
1962.734724008895
 20
-982.6504354145226
 42
0.0
 10
1962.734724008895
 20
-1040.250435414522
 42
0.0
 10
1854.734724008895
 20
-1040.250435414522
 42
1.0
 10
1854.734724008895
 20
-1047.450435414522
 42
0.0
 10
1965.134724008896
 20
-1047.450435414522
 42
0.4142135623730813
 10
1969.934724008895
 20
-1042.650435414522
 42
0.0
 97
       10
330
230
330
225
330
22A
330
226
330
22D
330
227
330
229
330
228
330
22F
330
22E
 75
     0
 76
     1
 47
0.7162372602879313
 98
        1
 10
1967.283004917572
 20
-998.408395255903
  0
HATCH
  5
224
330
2
100
AcDbEntity
  8
0
100
AcDbHatch
 10
0.0
 20
0.0
 30
0.0
210
0.0
220
0.0
230
1.0
  2
SOLID
 70
     1
 71
     1
 91
        1
 92
        7
 72
     0
 73
     1
 93
        4
 10
1941.209375960494
 20
-982.6504354145226
 10
1934.009375960494
 20
-982.6504354145226
 10
1934.009375960494
 20
-1040.250435414522
 10
1941.209375960494
 20
-1040.250435414522
 97
        4
330
226
330
22B
330
227
330
22C
 75
     0
 76
     1
 47
0.7162372602879313
 98
        1
 10
1937.890204420677
 20
-997.6921585536111
  0
LINE
  5
225
102
{ACAD_REACTORS
330
223
102
}
330
2
100
AcDbEntity
  8
0
100
AcDbLine
 10
1854.734724008895
 20
-975.4504354145225
 30
0.0
 11
1965.134724008896
 21
-975.4504354145225
 31
0.0
  0
LINE
  5
226
102
{ACAD_REACTORS
330
224
330
223
102
}
330
2
100
AcDbEntity
  8
0
100
AcDbLine
 10
1962.734724008895
 20
-982.6504354145226
 30
0.0
 11
1854.734724008895
 21
-982.6504354145226
 31
0.0
  0
LINE
  5
227
102
{ACAD_REACTORS
330
224
330
223
102
}
330
2
100
AcDbEntity
  8
0
100
AcDbLine
 10
1854.734724008895
 20
-1040.250435414522
 30
0.0
 11
1962.734724008895
 21
-1040.250435414522
 31
0.0
  0
LINE
  5
228
102
{ACAD_REACTORS
330
223
102
}
330
2
100
AcDbEntity
  8
0
100
AcDbLine
 10
1965.134724008896
 20
-1047.450435414522
 30
0.0
 11
1854.734724008895
 21
-1047.450435414522
 31
0.0
  0
ARC
  5
229
102
{ACAD_REACTORS
330
223
102
}
330
2
100
AcDbEntity
  8
0
100
AcDbCircle
 10
1854.734724008895
 20
-1043.850435414522
 30
0.0
 40
3.6
100
AcDbArc
 50
90.0
 51
270.0
  0
ARC
  5
22A
102
{ACAD_REACTORS
330
223
102
}
330
2
100
AcDbEntity
  8
0
100
AcDbCircle
 10
1854.734724008895
 20
-979.0504354145227
 30
0.0
 40
3.6
100
AcDbArc
 50
90.0
 51
270.0
  0
LINE
  5
22B
102
{ACAD_REACTORS
330
224
102
}
330
2
100
AcDbEntity
  8
0
100
AcDbLine
 10
1934.009375960494
 20
-982.6504354145226
 30
0.0
 11
1934.009375960494
 21
-1040.250435414522
 31
0.0
  0
LINE
  5
22C
102
{ACAD_REACTORS
330
224
102
}
330
2
100
AcDbEntity
  8
0
100
AcDbLine
 10
1941.209375960494
 20
-982.6504354145226
 30
0.0
 11
1941.209375960494
 21
-1040.250435414522
 31
0.0
  0
LINE
  5
22D
102
{ACAD_REACTORS
330
223
102
}
330
2
100
AcDbEntity
  8
0
100
AcDbLine
 10
1962.734724008895
 20
-1040.250435414522
 30
0.0
 11
1962.734724008895
 21
-982.6504354145226
 31
0.0
  0
LINE
  5
22E
102
{ACAD_REACTORS
330
223
102
}
330
2
100
AcDbEntity
  8
0
100
AcDbLine
 10
1969.934724008895
 20
-980.2504354145225
 30
0.0
 11
1969.934724008895
 21
-1042.650435414522
 31
0.0
  0
ARC
  5
22F
102
{ACAD_REACTORS
330
223
102
}
330
2
100
AcDbEntity
  8
0
100
AcDbCircle
 10
1965.134724008896
 20
-1042.650435414522
 30
0.0
 40
4.8
100
AcDbArc
 50
270.0
 51
0.000000000000007
  0
ARC
  5
230
102
{ACAD_REACTORS
330
223
102
}
330
2
100
AcDbEntity
  8
0
100
AcDbCircle
 10
1965.134724008896
 20
-980.2504354145225
 30
0.0
 40
4.8
100
AcDbArc
 50
0.000000000000007
 51
90.0
  0
LINE
  5
231
102
{ACAD_REACTORS
330
234
102
}
330
2
100
AcDbEntity
  8
0
100
AcDbLine
 10
1896.218395127626
 20
121.7965171298454
 30
0.0
 11
2176.746243064157
 21
121.7965171298456
 31
0.0
  0
LINE
  5
232
102
{ACAD_REACTORS
330
234
102
}
330
2
100
AcDbEntity
  8
0
100
AcDbLine
 10
1896.218395127626
 20
116.1287129420952
 30
0.0
 11
2182.298565593986
 21
116.1287129420952
 31
0.0
  0
LINE
  5
233
330
2
100
AcDbEntity
  8
0
100
AcDbLine
 10
1934.003756379296
 20
197.3672396331834
 30
0.0
 11
2138.960881812488
 21
197.3672396331834
 31
0.0
  0
HATCH
  5
234
330
2
100
AcDbEntity
  8
0
100
AcDbHatch
 10
0.0
 20
0.0
 30
0.0
210
0.0
220
0.0
230
1.0
  2
ANSI31
 70
     0
 71
     1
 91
        1
 92
        7
 72
     0
 73
     1
 93
        5
 10
1896.218395127626
 20
121.7965171298454
 10
1896.218395127626
 20
116.1287129420952
 10
2182.298565593986
 20
116.1287129420952
 10
2176.746243064157
 20
121.7965171298456
 10
2138.960881812488
 20
121.7965171298456
 97
        5
330
3D2
330
231
330
31C
330
232
330
3D3
 75
     0
 76
     1
 52
0.0
 41
75.57072250333795
 77
     0
 78
     1
 53
45.0
 43
2145.594019556356
 44
-674.4956265024676
 45
-6.679571292659635
 46
6.679571292659636
 79
     0
 47
0.0772397056773761
 98
        1
 10
2051.701337457919
 20
119.0624778322404
  0
ARC
  5
235
330
2
100
AcDbEntity
  8
0
100
AcDbCircle
 10
1930.555849979056
 20
128.597882155146
 30
0.0
 40
26.44975287616828
100
AcDbArc
 50
44.415308597193
 51
135.584691402807
  0
LINE
  5
236
330
2
100
AcDbEntity
  8
0
100
AcDbLine
 10
1911.663169353221
 20
121.7965171298456
 30
0.0
 11
1911.663169353221
 21
159.5818783815145
 31
0.0
  0
LINE
  5
237
330
2
100
AcDbEntity
  8
0
100
AcDbLine
 10
1949.44853060489
 20
121.7965171298456
 30
0.0
 11
1949.44853060489
 21
197.3672396331835
 31
0.0
  0
LINE
  5
238
330
2
100
AcDbEntity
  8
0
100
AcDbLine
 10
1813.077136393044
 20
121.7965171298456
 30
0.0
 11
1813.077136393044
 21
197.3672396331834
 31
0.0
  0
LINE
  5
239
330
2
100
AcDbEntity
  8
0
100
AcDbLine
 10
1813.077136393044
 20
121.7965171298456
 30
0.0
 11
1813.077136393044
 21
197.3672396331834
 31
0.0
  0
ARC
  5
23A
330
2
100
AcDbEntity
  8
0
100
AcDbCircle
 10
1831.969817018878
 20
128.597882155146
 30
0.0
 40
26.44975287616828
100
AcDbArc
 50
59.32187939834917
 51
135.584691402807
  0
LINE
  5
23B
330
2
100
AcDbEntity
  8
0
 62
     7
100
AcDbLine
 10
1845.464865278289
 20
218.539963725538
 30
0.0
 11
1845.46486527829
 21
-42.77949555003442
 31
0.0
  0
LINE
  5
23C
330
2
100
AcDbEntity
  8
0
 62
     7
100
AcDbLine
 10
1875.464865278289
 20
218.539963725538
 30
0.0
 11
1875.464865278289
 21
-42.77949555003454
 31
0.0
  0
LINE
  5
23D
330
2
100
AcDbEntity
  8
DASHED
 62
     7
 48
2.5
100
AcDbLine
 10
1860.909639503884
 20
199.7739030068419
 30
0.0
 11
1860.909639503884
 21
5.956825815958893
 31
0.0
  0
LINE
  5
240
102
{ACAD_REACTORS
330
59
102
}
330
2
100
AcDbEntity
  8
0
  6
ByBlock
 62
     7
100
AcDbLine
 10
1845.464865278289
 20
43.68121193035082
 30
0.0
 11
1845.464865278289
 21
158.0282343916617
 31
0.0
  0
LEADER
  5
241
330
2
100
AcDbEntity
  8
0
100
AcDbLeader
  3
STANDARD
 76
     2
 10
1896.218395127626
 20
70.73745017458271
 30
0.0
 10
1955.067872794469
 20
70.73745017458271
 30
0.0
1001
ACAD
1000
DSTYLE
1002
{
1070
   147
1040
10.0
1070
    77
1070
     0
1002
}
  0
ARC
  5
242
330
2
100
AcDbEntity
  8
0
100
AcDbCircle
 10
1930.555849979056
 20
114.9951521045451
 30
0.0
 40
26.44975287616828
100
AcDbArc
 50
44.415308597193
 51
135.584691402807
  0
ARC
  5
243
330
2
100
AcDbEntity
  8
0
100
AcDbCircle
 10
1930.555849979056
 20
121.7965171298456
 30
0.0
 40
26.44975287616828
100
AcDbArc
 50
44.415308597193
 51
135.584691402807
  0
LINE
  5
244
330
2
100
AcDbEntity
  8
0
100
AcDbLine
 10
1911.663169353221
 20
121.7965171298456
 30
0.0
 11
1949.44853060489
 21
121.7965171298456
 31
0.0
  0
ARC
  5
245
330
2
100
AcDbEntity
  8
0
100
AcDbCircle
 10
1930.555849979056
 20
101.3924220539444
 30
0.0
 40
26.44975287616828
100
AcDbArc
 50
50.48234720282692
 51
129.517652797173
  0
ARC
  5
246
330
2
100
AcDbEntity
  8
0
100
AcDbCircle
 10
1930.555849979056
 20
108.1937870792446
 30
0.0
 40
26.44975287616828
100
AcDbArc
 50
44.415308597193
 51
135.584691402807
  0
LWPOLYLINE
  5
247
330
2
100
AcDbEntity
  8
0
100
AcDbPolyline
 90
        2
 70
     0
 43
0.0
 10
1944.616327904243
 20
-163.1024692919245
 10
1913.250226529958
 20
-163.1024692919245
1001
ACAD
1000
DSTYLE
1002
{
1070
    40
1040
1.0
1070
    42
1040
1.0
1070
    43
1040
4.0
1070
    77
1070
     0
1070
   140
1040
2.0
1070
   147
1040
1.5
1070
   271
1070
     0
1070
   272
1070
     0
1002
}
  0
LINE
  5
248
330
2
100
AcDbEntity
  8
0
100
AcDbLine
 10
1849.785808871038
 20
-61.10256252369001
 30
0.0
 11
1849.785808871038
 21
-32.52449627551581
 31
0.0
  0
LINE
  5
249
330
2
100
AcDbEntity
  8
0
100
AcDbLine
 10
1849.785808871038
 20
-61.10256252369001
 30
0.0
 11
1849.785808871038
 21
-32.52449627551581
 31
0.0
  0
LINE
  5
24A
330
2
100
AcDbEntity
  8
0
100
AcDbLine
 10
1848.04465942456
 20
-104.6312986856127
 30
0.0
 11
1848.04465942456
 21
-21.38971323793803
 31
0.0
  0
LINE
  5
24B
330
2
100
AcDbEntity
  8
0
100
AcDbLine
 10
1848.04465942456
 20
-104.6312986856127
 30
0.0
 11
1848.04465942456
 21
-21.38971323793803
 31
0.0
  0
LINE
  5
24C
330
2
100
AcDbEntity
  8
0
100
AcDbLine
 10
1845.46486527829
 20
-50.33656780036821
 30
0.0
 11
1845.46486527829
 21
-172.5488096048417
 31
0.0
  0
LINE
  5
24D
330
2
100
AcDbEntity
  8
0
100
AcDbLine
 10
1875.464865278289
 20
-50.33656780036833
 30
0.0
 11
1875.464865278289
 21
-172.5488096048417
 31
0.0
  0
LINE
  5
24E
330
2
100
AcDbEntity
  8
0
100
AcDbLine
 10
1882.055111945742
 20
-107.4171377999757
 30
0.0
 11
1862.768979910267
 21
-107.4171377999757
 31
0.0
  0
LINE
  5
24F
330
2
100
AcDbEntity
  8
0
100
AcDbLine
 10
1882.055111945742
 20
-107.4171377999757
 30
0.0
 11
1862.768979910267
 21
-107.4171377999757
 31
0.0
  0
LINE
  5
250
330
2
100
AcDbEntity
  8
0
100
AcDbLine
 10
1865.090512505569
 20
-105.0956052046731
 30
0.0
 11
1863.349363059093
 21
-105.0956052046731
 31
0.0
  0
LINE
  5
251
330
2
100
AcDbEntity
  8
0
100
AcDbLine
 10
1865.090512505569
 20
-105.0956052046731
 30
0.0
 11
1863.349363059093
 21
-105.0956052046731
 31
0.0
  0
LINE
  5
252
330
2
100
AcDbEntity
  8
0
100
AcDbLine
 10
1870.18047272077
 20
-98.24708404853078
 30
0.0
 11
1850.714421909159
 21
-98.24708404853078
 31
0.0
  0
LINE
  5
253
330
2
100
AcDbEntity
  8
0
100
AcDbLine
 10
1870.18047272077
 20
-98.24708404853078
 30
0.0
 11
1850.714421909159
 21
-98.24708404853078
 31
0.0
  0
LINE
  5
254
330
2
100
AcDbEntity
  8
0
100
AcDbLine
 10
1865.090512505569
 20
-101.0329231628938
 30
0.0
 11
1855.804382124359
 21
-101.0329231628938
 31
0.0
  0
LINE
  5
255
330
2
100
AcDbEntity
  8
0
100
AcDbLine
 10
1865.090512505569
 20
-101.0329231628938
 30
0.0
 11
1855.804382124359
 21
-101.0329231628938
 31
0.0
  0
SOLID
  5
256
330
2
100
AcDbEntity
  8
0
100
AcDbTrace
 10
1826.572184652455
 20
-159.9536891876188
 30
0.0
 11
1845.46486527829
 21
-163.1024692919245
 31
0.0
 12
1826.572184652455
 22
-166.2512493962302
 32
0.0
 13
1826.572184652455
 23
-166.2512493962302
 33
0.0
1001
ACAD
1000
DSTYLE
1002
{
1070
    40
1040
1.0
1070
    42
1040
1.0
1070
    43
1040
4.0
1070
    77
1070
     0
1070
   140
1040
2.0
1070
   147
1040
1.5
1070
   271
1070
     0
1070
   272
1070
     0
1002
}
  0
SOLID
  5
257
330
2
100
AcDbEntity
  8
0
100
AcDbTrace
 10
1826.572184652455
 20
-159.9536891876188
 30
0.0
 11
1826.572184652455
 21
-166.2512493962302
 31
0.0
 12
1845.46486527829
 22
-163.1024692919245
 32
0.0
 13
1845.46486527829
 23
-163.1024692919245
 33
0.0
  0
LINE
  5
258
330
2
100
AcDbEntity
  8
0
100
AcDbLine
 10
1826.572184652455
 20
-163.1024692919245
 30
0.0
 11
1800.752187797148
 21
-163.1024692919245
 31
0.0
  0
LINE
  5
259
330
2
100
AcDbEntity
  8
0
100
AcDbLine
 10
1849.437578981742
 20
-62.03117556181109
 30
0.0
 11
1849.437578981742
 21
-61.45079241298543
 31
0.0
  0
LINE
  5
25A
330
2
100
AcDbEntity
  8
0
100
AcDbLine
 10
1849.437578981742
 20
-62.03117556181109
 30
0.0
 11
1849.437578981742
 21
-61.45079241298543
 31
0.0
  0
LINE
  5
25B
330
2
100
AcDbEntity
  8
0
100
AcDbLine
 10
1849.437578981742
 20
-62.03117556181109
 30
0.0
 11
1849.785808871038
 21
-62.3794054511066
 31
0.0
  0
LINE
  5
25C
330
2
100
AcDbEntity
  8
0
100
AcDbLine
 10
1849.437578981742
 20
-62.03117556181109
 30
0.0
 11
1849.785808871038
 21
-62.3794054511066
 31
0.0
  0
LINE
  5
25D
330
2
100
AcDbEntity
  8
0
100
AcDbLine
 10
1849.437578981742
 20
-61.45079241298543
 30
0.0
 11
1849.785808871038
 21
-61.10256252369001
 31
0.0
  0
LINE
  5
25E
330
2
100
AcDbEntity
  8
0
100
AcDbLine
 10
1849.437578981742
 20
-61.45079241298543
 30
0.0
 11
1849.785808871038
 21
-61.10256252369001
 31
0.0
  0
LINE
  5
25F
330
2
100
AcDbEntity
  8
0
100
AcDbLine
 10
1862.768979910267
 20
-107.4171377999757
 30
0.0
 11
1862.768979910267
 21
-105.6759883534988
 31
0.0
  0
LINE
  5
260
330
2
100
AcDbEntity
  8
0
100
AcDbLine
 10
1862.768979910267
 20
-107.4171377999757
 30
0.0
 11
1862.768979910267
 21
-105.6759883534988
 31
0.0
  0
ARC
  5
261
330
2
100
AcDbEntity
  8
0
100
AcDbCircle
 10
1863.349363059093
 20
-105.6759883534987
 30
0.0
 40
0.5803831488256355
100
AcDbArc
 50
90.0
 51
180.0
  0
ARC
  5
262
330
2
100
AcDbEntity
  8
0
100
AcDbCircle
 10
1863.349363059093
 20
-105.6759883534987
 30
0.0
 40
0.5803831488256355
100
AcDbArc
 50
90.0
 51
180.0
  0
ARC
  5
263
330
2
100
AcDbEntity
  8
0
100
AcDbCircle
 10
1850.714421909159
 20
-97.31847101040958
 30
0.0
 40
0.9286130381210167
100
AcDbArc
 50
180.0
 51
270.0
  0
ARC
  5
264
330
2
100
AcDbEntity
  8
0
100
AcDbCircle
 10
1850.714421909159
 20
-97.31847101040958
 30
0.0
 40
0.9286130381210167
100
AcDbArc
 50
180.0
 51
270.0
  0
LINE
  5
265
330
2
100
AcDbEntity
  8
0
100
AcDbLine
 10
1858.125914719662
 20
-107.4171377999757
 30
0.0
 11
1838.839782684186
 21
-107.4171377999757
 31
0.0
  0
LINE
  5
266
330
2
100
AcDbEntity
  8
0
100
AcDbLine
 10
1858.125914719662
 20
-107.4171377999757
 30
0.0
 11
1838.839782684186
 21
-107.4171377999757
 31
0.0
  0
LINE
  5
267
330
2
100
AcDbEntity
  8
0
100
AcDbLine
 10
1837.911169646064
 20
-107.0689079106804
 30
0.0
 11
1837.56293975677
 21
-107.4171377999757
 31
0.0
  0
LINE
  5
268
330
2
100
AcDbEntity
  8
0
100
AcDbLine
 10
1837.911169646064
 20
-107.0689079106804
 30
0.0
 11
1837.56293975677
 21
-107.4171377999757
 31
0.0
  0
LINE
  5
269
330
2
100
AcDbEntity
  8
0
100
AcDbLine
 10
1838.491552794891
 20
-107.0689079106804
 30
0.0
 11
1837.911169646064
 21
-107.0689079106804
 31
0.0
  0
LINE
  5
26A
330
2
100
AcDbEntity
  8
0
100
AcDbLine
 10
1838.491552794891
 20
-107.0689079106804
 30
0.0
 11
1837.911169646064
 21
-107.0689079106804
 31
0.0
  0
LINE
  5
26B
330
2
100
AcDbEntity
  8
0
100
AcDbLine
 10
1838.491552794891
 20
-107.0689079106804
 30
0.0
 11
1838.839782684186
 21
-107.4171377999757
 31
0.0
  0
LINE
  5
26C
330
2
100
AcDbEntity
  8
0
100
AcDbLine
 10
1838.491552794891
 20
-107.0689079106804
 30
0.0
 11
1838.839782684186
 21
-107.4171377999757
 31
0.0
  0
ARC
  5
26D
330
2
100
AcDbEntity
  8
0
100
AcDbCircle
 10
1847.11604638644
 20
-104.6312986856126
 30
0.0
 40
0.9286130381210167
100
AcDbArc
 50
270.0
 51
0.0
  0
ARC
  5
26E
330
2
100
AcDbEntity
  8
0
100
AcDbCircle
 10
1847.11604638644
 20
-104.6312986856126
 30
0.0
 40
0.9286130381210167
100
AcDbArc
 50
270.0
 51
0.0
  0
ARC
  5
26F
330
2
100
AcDbEntity
  8
0
100
AcDbCircle
 10
1833.326142770342
 20
-106.4885247618547
 30
0.0
 40
0.9286130381210167
100
AcDbArc
 50
90.0
 51
270.0
  0
ARC
  5
270
330
2
100
AcDbEntity
  8
0
100
AcDbCircle
 10
1833.326142770342
 20
-106.4885247618547
 30
0.0
 40
0.9286130381210167
100
AcDbArc
 50
90.0
 51
270.0
  0
LINE
  5
271
330
2
100
AcDbEntity
  8
0
100
AcDbLine
 10
1837.56293975677
 20
-107.4171377999757
 30
0.0
 11
1833.326142770342
 21
-107.4171377999757
 31
0.0
  0
LINE
  5
272
330
2
100
AcDbEntity
  8
0
100
AcDbLine
 10
1837.56293975677
 20
-107.4171377999757
 30
0.0
 11
1833.326142770342
 21
-107.4171377999757
 31
0.0
  0
LINE
  5
273
330
2
100
AcDbEntity
  8
0
100
AcDbLine
 10
1847.11604638644
 20
-105.5599117237337
 30
0.0
 11
1833.326142770342
 21
-105.5599117237337
 31
0.0
  0
LINE
  5
274
330
2
100
AcDbEntity
  8
0
100
AcDbLine
 10
1847.11604638644
 20
-105.5599117237337
 30
0.0
 11
1833.326142770342
 21
-105.5599117237337
 31
0.0
  0
ARC
  5
275
330
2
100
AcDbEntity
  8
0
100
AcDbCircle
 10
1855.804382124359
 20
-102.1936894605449
 30
0.0
 40
1.16076629765127
100
AcDbArc
 50
90.0
 51
180.0
  0
ARC
  5
276
330
2
100
AcDbEntity
  8
0
100
AcDbCircle
 10
1855.804382124359
 20
-102.1936894605449
 30
0.0
 40
1.16076629765127
100
AcDbArc
 50
90.0
 51
180.0
  0
LINE
  5
277
330
2
100
AcDbEntity
  8
0
100
AcDbLine
 10
1854.643615826708
 20
-103.9348389070219
 30
0.0
 11
1854.643615826708
 21
-102.193689460545
 31
0.0
  0
LINE
  5
278
330
2
100
AcDbEntity
  8
0
100
AcDbLine
 10
1854.643615826708
 20
-103.9348389070219
 30
0.0
 11
1854.643615826708
 21
-102.193689460545
 31
0.0
  0
LINE
  5
279
330
2
100
AcDbEntity
  8
0
100
AcDbLine
 10
1857.545531570836
 20
-105.0956052046731
 30
0.0
 11
1855.804382124359
 21
-105.0956052046731
 31
0.0
  0
LINE
  5
27A
330
2
100
AcDbEntity
  8
0
100
AcDbLine
 10
1857.545531570836
 20
-105.0956052046731
 30
0.0
 11
1855.804382124359
 21
-105.0956052046731
 31
0.0
  0
LINE
  5
27B
330
2
100
AcDbEntity
  8
0
100
AcDbLine
 10
1858.125914719662
 20
-107.4171377999757
 30
0.0
 11
1858.125914719662
 21
-105.6759883534988
 31
0.0
  0
LINE
  5
27C
330
2
100
AcDbEntity
  8
0
100
AcDbLine
 10
1858.125914719662
 20
-107.4171377999757
 30
0.0
 11
1858.125914719662
 21
-105.6759883534988
 31
0.0
  0
ARC
  5
27D
330
2
100
AcDbEntity
  8
0
100
AcDbCircle
 10
1855.804382124359
 20
-103.9348389070219
 30
0.0
 40
1.16076629765127
100
AcDbArc
 50
180.0
 51
270.0
  0
ARC
  5
27E
330
2
100
AcDbEntity
  8
0
100
AcDbCircle
 10
1855.804382124359
 20
-103.9348389070219
 30
0.0
 40
1.16076629765127
100
AcDbArc
 50
180.0
 51
270.0
  0
ARC
  5
27F
330
2
100
AcDbEntity
  8
0
100
AcDbCircle
 10
1857.545531570836
 20
-105.6759883534987
 30
0.0
 40
0.5803831488256355
100
AcDbArc
 50
0.0
 51
90.0
  0
ARC
  5
280
330
2
100
AcDbEntity
  8
0
100
AcDbCircle
 10
1857.545531570836
 20
-105.6759883534987
 30
0.0
 40
0.5803831488256355
100
AcDbArc
 50
0.0
 51
90.0
  0
LINE
  5
281
330
2
100
AcDbEntity
  8
0
100
AcDbLine
 10
1849.785808871038
 20
-97.31847101040969
 30
0.0
 11
1849.785808871038
 21
-62.3794054511066
 31
0.0
  0
LINE
  5
282
330
2
100
AcDbEntity
  8
0
100
AcDbLine
 10
1849.785808871038
 20
-97.31847101040969
 30
0.0
 11
1849.785808871038
 21
-62.3794054511066
 31
0.0
  0
LINE
  5
283
330
2
100
AcDbEntity
  8
0
100
AcDbLine
 10
1894.357545904124
 20
-163.1024692919245
 30
0.0
 11
1913.250226529958
 21
-163.1024692919245
 31
0.0
  0
SOLID
  5
284
330
2
100
AcDbEntity
  8
0
100
AcDbTrace
 10
1894.357545904124
 20
-159.9536891876188
 30
0.0
 11
1894.357545904124
 21
-166.2512493962302
 31
0.0
 12
1875.464865278289
 22
-163.1024692919245
 32
0.0
 13
1875.464865278289
 23
-163.1024692919245
 33
0.0
  0
LINE
  5
285
330
2
100
AcDbEntity
  8
0
100
AcDbLine
 10
1867.731255832726
 20
-93.36025793541887
 30
0.0
 11
1867.731255832726
 21
-89.93019352585932
 31
0.0
  0
LINE
  5
286
330
2
100
AcDbEntity
  8
0
100
AcDbLine
 10
1867.731255832726
 20
-93.36025793541887
 30
0.0
 11
1867.731255832726
 21
-89.93019352585932
 31
0.0
  0
LINE
  5
287
330
2
100
AcDbEntity
  8
0
100
AcDbLine
 10
1872.850235205368
 20
-104.6312986856127
 30
0.0
 11
1872.850235205368
 21
-89.68062877186431
 31
0.0
  0
LINE
  5
288
330
2
100
AcDbEntity
  8
0
100
AcDbLine
 10
1872.850235205368
 20
-104.6312986856127
 30
0.0
 11
1872.850235205368
 21
-89.68062877186431
 31
0.0
  0
LINE
  5
289
330
2
100
AcDbEntity
  8
0
100
AcDbLine
 10
1887.568751859587
 20
-105.5599117237337
 30
0.0
 11
1873.778848243489
 21
-105.5599117237337
 31
0.0
  0
LINE
  5
28A
330
2
100
AcDbEntity
  8
0
100
AcDbLine
 10
1887.568751859587
 20
-105.5599117237337
 30
0.0
 11
1873.778848243489
 21
-105.5599117237337
 31
0.0
  0
ARC
  5
28B
330
2
100
AcDbEntity
  8
0
100
AcDbCircle
 10
1868.892022130376
 20
-93.36025793541876
 30
0.0
 40
1.16076629765127
100
AcDbArc
 50
180.0
 51
270.0
  0
ARC
  5
28C
330
2
100
AcDbEntity
  8
0
100
AcDbCircle
 10
1868.892022130376
 20
-93.36025793541876
 30
0.0
 40
1.16076629765127
100
AcDbArc
 50
180.0
 51
270.0
  0
LINE
  5
28D
330
2
100
AcDbEntity
  8
0
100
AcDbLine
 10
1869.94831946124
 20
-94.52102423307014
 30
0.0
 11
1868.892022130378
 21
-94.52102423307014
 31
0.0
  0
LINE
  5
28E
330
2
100
AcDbEntity
  8
0
100
AcDbLine
 10
1869.94831946124
 20
-94.52102423307014
 30
0.0
 11
1868.892022130378
 21
-94.52102423307014
 31
0.0
  0
LINE
  5
28F
330
2
100
AcDbEntity
  8
0
100
AcDbLine
 10
1871.109085758891
 20
-97.31847101040969
 30
0.0
 11
1871.109085758891
 21
-95.68179053072137
 31
0.0
  0
LINE
  5
290
330
2
100
AcDbEntity
  8
0
100
AcDbLine
 10
1871.109085758891
 20
-97.31847101040969
 30
0.0
 11
1871.109085758891
 21
-95.68179053072137
 31
0.0
  0
ARC
  5
291
330
2
100
AcDbEntity
  8
0
100
AcDbCircle
 10
1870.18047272077
 20
-97.31847101040958
 30
0.0
 40
0.9286130381210167
100
AcDbArc
 50
270.0
 51
0.0
  0
ARC
  5
292
330
2
100
AcDbEntity
  8
0
100
AcDbCircle
 10
1870.18047272077
 20
-97.31847101040958
 30
0.0
 40
0.9286130381210167
100
AcDbArc
 50
270.0
 51
0.0
  0
ARC
  5
293
330
2
100
AcDbEntity
  8
0
100
AcDbCircle
 10
1865.090512505569
 20
-102.1936894605449
 30
0.0
 40
1.16076629765127
100
AcDbArc
 50
0.0
 51
90.0
  0
ARC
  5
294
330
2
100
AcDbEntity
  8
0
100
AcDbCircle
 10
1865.090512505569
 20
-102.1936894605449
 30
0.0
 40
1.16076629765127
100
AcDbArc
 50
0.0
 51
90.0
  0
LINE
  5
295
330
2
100
AcDbEntity
  8
0
100
AcDbLine
 10
1866.251278803221
 20
-103.9348389070219
 30
0.0
 11
1866.251278803221
 21
-102.193689460545
 31
0.0
  0
LINE
  5
296
330
2
100
AcDbEntity
  8
0
100
AcDbLine
 10
1866.251278803221
 20
-103.9348389070219
 30
0.0
 11
1866.251278803221
 21
-102.193689460545
 31
0.0
  0
ARC
  5
297
330
2
100
AcDbEntity
  8
0
100
AcDbCircle
 10
1865.090512505569
 20
-103.9348389070219
 30
0.0
 40
1.16076629765127
100
AcDbArc
 50
270.0
 51
0.0
  0
ARC
  5
298
330
2
100
AcDbEntity
  8
0
100
AcDbCircle
 10
1865.090512505569
 20
-103.9348389070219
 30
0.0
 40
1.16076629765127
100
AcDbArc
 50
270.0
 51
0.0
  0
ARC
  5
299
330
2
100
AcDbEntity
  8
0
100
AcDbCircle
 10
1873.778848243489
 20
-104.6312986856126
 30
0.0
 40
0.9286130381210167
100
AcDbArc
 50
180.0
 51
270.0
  0
ARC
  5
29A
330
2
100
AcDbEntity
  8
0
100
AcDbCircle
 10
1873.778848243489
 20
-104.6312986856126
 30
0.0
 40
0.9286130381210167
100
AcDbArc
 50
180.0
 51
270.0
  0
ARC
  5
29B
330
2
100
AcDbEntity
  8
0
100
AcDbCircle
 10
1869.94831946124
 20
-95.68179053072126
 30
0.0
 40
1.16076629765127
100
AcDbArc
 50
0.0
 51
90.0
  0
ARC
  5
29C
330
2
100
AcDbEntity
  8
0
100
AcDbCircle
 10
1869.94831946124
 20
-95.68179053072126
 30
0.0
 40
1.16076629765127
100
AcDbArc
 50
0.0
 51
90.0
  0
ARC
  5
29D
330
2
100
AcDbEntity
  8
0
100
AcDbCircle
 10
1887.568751859587
 20
-106.4885247618547
 30
0.0
 40
0.9286130381210167
100
AcDbArc
 50
270.0
 51
90.0
  0
ARC
  5
29E
330
2
100
AcDbEntity
  8
0
100
AcDbCircle
 10
1887.568751859587
 20
-106.4885247618547
 30
0.0
 40
0.9286130381210167
100
AcDbArc
 50
270.0
 51
90.0
  0
LINE
  5
29F
330
2
100
AcDbEntity
  8
0
100
AcDbLine
 10
1882.27227042624
 20
-107.4171377999757
 30
0.0
 11
1883.089283910206
 21
-107.4171377999757
 31
0.0
  0
LINE
  5
2A0
330
2
100
AcDbEntity
  8
0
100
AcDbLine
 10
1882.403341835038
 20
-107.0689079106804
 30
0.0
 11
1882.983724983864
 21
-107.0689079106804
 31
0.0
  0
LINE
  5
2A1
330
2
100
AcDbEntity
  8
0
100
AcDbLine
 10
1882.403341835038
 20
-107.0689079106804
 30
0.0
 11
1882.983724983864
 21
-107.0689079106804
 31
0.0
  0
LINE
  5
2A2
330
2
100
AcDbEntity
  8
0
100
AcDbLine
 10
1882.983724983864
 20
-107.0689079106804
 30
0.0
 11
1883.331954873158
 21
-107.4171377999757
 31
0.0
  0
LINE
  5
2A3
330
2
100
AcDbEntity
  8
0
100
AcDbLine
 10
1882.983724983864
 20
-107.0689079106804
 30
0.0
 11
1883.331954873158
 21
-107.4171377999757
 31
0.0
  0
LINE
  5
2A4
330
2
100
AcDbEntity
  8
0
100
AcDbLine
 10
1882.403341835038
 20
-107.0689079106804
 30
0.0
 11
1882.055111945742
 21
-107.4171377999757
 31
0.0
  0
LINE
  5
2A5
330
2
100
AcDbEntity
  8
0
100
AcDbLine
 10
1882.403341835038
 20
-107.0689079106804
 30
0.0
 11
1882.055111945742
 21
-107.4171377999757
 31
0.0
  0
LINE
  5
2A6
330
2
100
AcDbEntity
  8
0
100
AcDbLine
 10
1887.568751859587
 20
-107.4171377999757
 30
0.0
 11
1883.331954873158
 21
-107.4171377999757
 31
0.0
  0
LINE
  5
2A7
330
2
100
AcDbEntity
  8
0
100
AcDbLine
 10
1887.568751859587
 20
-107.4171377999757
 30
0.0
 11
1883.331954873158
 21
-107.4171377999757
 31
0.0
  0
ARC
  5
2A8
330
2
100
AcDbEntity
  8
0
100
AcDbCircle
 10
1868.642457376381
 20
-89.93019352585921
 30
0.0
 40
0.9112015436562476
100
AcDbArc
 50
296.8868039999991
 51
180.0
  0
ARC
  5
2A9
330
2
100
AcDbEntity
  8
0
100
AcDbCircle
 10
1868.642457376381
 20
-89.93019352585921
 30
0.0
 40
0.9112015436562476
100
AcDbArc
 50
296.8868039999991
 51
180.0
  0
ARC
  5
2AA
330
2
100
AcDbEntity
  8
0
100
AcDbCircle
 10
1872.188598415706
 20
-89.68062877186431
 30
0.0
 40
0.6616367896612246
100
AcDbArc
 50
0.0
 51
180.0
  0
ARC
  5
2AB
330
2
100
AcDbEntity
  8
0
100
AcDbCircle
 10
1872.188598415706
 20
-89.68062877186431
 30
0.0
 40
0.6616367896612246
100
AcDbArc
 50
0.0
 51
180.0
  0
LINE
  5
2AC
330
2
100
AcDbEntity
  8
0
100
AcDbLine
 10
1869.054529412049
 20
-92.69862114575776
 30
0.0
 11
1869.054529412049
 21
-90.74289592379571
 31
0.0
  0
LINE
  5
2AD
330
2
100
AcDbEntity
  8
0
100
AcDbLine
 10
1869.054529412049
 20
-92.69862114575776
 30
0.0
 11
1869.054529412049
 21
-90.74289592379571
 31
0.0
  0
LINE
  5
2AE
330
2
100
AcDbEntity
  8
0
100
AcDbLine
 10
1871.526961626045
 20
-92.69862114575776
 30
0.0
 11
1869.054529412049
 21
-92.69862114575776
 31
0.0
  0
LINE
  5
2AF
330
2
100
AcDbEntity
  8
0
100
AcDbLine
 10
1871.526961626045
 20
-92.69862114575776
 30
0.0
 11
1869.054529412049
 21
-92.69862114575776
 31
0.0
  0
LINE
  5
2B0
330
2
100
AcDbEntity
  8
0
100
AcDbLine
 10
1871.526961626045
 20
-92.69862114575776
 30
0.0
 11
1871.526961626045
 21
-89.68062877186431
 31
0.0
  0
LINE
  5
2B1
330
2
100
AcDbEntity
  8
0
100
AcDbLine
 10
1871.526961626045
 20
-92.69862114575776
 30
0.0
 11
1871.526961626045
 21
-89.68062877186431
 31
0.0
  0
LINE
  5
2B2
330
2
100
AcDbEntity
  8
0
100
AcDbLine
 10
1863.349363059093
 20
-30.78334682903889
 30
0.0
 11
1864.510129356743
 21
-30.78334682903889
 31
0.0
  0
LINE
  5
2B3
330
2
100
AcDbEntity
  8
0
100
AcDbLine
 10
1863.349363059093
 20
-30.78334682903889
 30
0.0
 11
1864.510129356743
 21
-30.78334682903889
 31
0.0
  0
LINE
  5
2B4
330
2
100
AcDbEntity
  8
0
100
AcDbLine
 10
1863.349363059093
 20
-32.52449627551581
 30
0.0
 11
1867.731255832726
 21
-32.52449627551581
 31
0.0
  0
LINE
  5
2B5
330
2
100
AcDbEntity
  8
0
100
AcDbLine
 10
1863.349363059093
 20
-32.52449627551581
 30
0.0
 11
1867.731255832726
 21
-32.52449627551581
 31
0.0
  0
ARC
  5
2B6
330
2
100
AcDbEntity
  8
0
100
AcDbCircle
 10
1860.447447314964
 20
-8.84535480757367
 30
0.0
 40
4.468950245957393
100
AcDbArc
 50
30.0000000000016
 51
49.74775800000138
  0
ARC
  5
2B7
330
2
100
AcDbEntity
  8
0
100
AcDbCircle
 10
1860.447447314964
 20
-8.84535480757367
 30
0.0
 40
4.468950245957393
100
AcDbArc
 50
30.0000000000016
 51
49.74775800000138
  0
LINE
  5
2B8
330
2
100
AcDbEntity
  8
0
100
AcDbLine
 10
1865.334439417656
 20
-8.371973417598226
 30
0.0
 11
1864.317671983061
 21
-6.610879684595161
 31
0.0
  0
LINE
  5
2B9
330
2
100
AcDbEntity
  8
0
100
AcDbLine
 10
1865.334439417656
 20
-8.371973417598226
 30
0.0
 11
1864.317671983061
 21
-6.610879684595161
 31
0.0
  0
LINE
  5
2BA
330
2
100
AcDbEntity
  8
0
100
AcDbLine
 10
1856.094573698773
 20
-13.66253494282654
 30
0.0
 11
1864.800320931157
 21
-13.66253494282654
 31
0.0
  0
LINE
  5
2BB
330
2
100
AcDbEntity
  8
0
100
AcDbLine
 10
1856.094573698773
 20
-13.66253494282654
 30
0.0
 11
1864.800320931157
 21
-13.66253494282654
 31
0.0
  0
LINE
  5
2BC
330
2
100
AcDbEntity
  8
0
100
AcDbLine
 10
1863.349363059093
 20
-32.52449627551581
 30
0.0
 11
1863.349363059093
 21
-30.78334682903889
 31
0.0
  0
LINE
  5
2BD
330
2
100
AcDbEntity
  8
0
100
AcDbLine
 10
1863.349363059093
 20
-32.52449627551581
 30
0.0
 11
1863.349363059093
 21
-30.78334682903889
 31
0.0
  0
ARC
  5
2BE
330
2
100
AcDbEntity
  8
0
100
AcDbCircle
 10
1862.885056540032
 20
-5.966163385254716
 30
0.0
 40
0.6964597785907626
100
AcDbArc
 50
49.74775800000138
 51
229.7477580000013
  0
ARC
  5
2BF
330
2
100
AcDbEntity
  8
0
100
AcDbCircle
 10
1862.885056540032
 20
-5.966163385254716
 30
0.0
 40
0.6964597785907626
100
AcDbArc
 50
49.74775800000138
 51
229.7477580000013
  0
ARC
  5
2C0
330
2
100
AcDbEntity
  8
0
100
AcDbCircle
 10
1850.946575168688
 20
-29.62258053138754
 30
0.0
 40
1.16076629765127
100
AcDbArc
 50
180.0
 51
270.0
  0
ARC
  5
2C1
330
2
100
AcDbEntity
  8
0
100
AcDbCircle
 10
1850.946575168688
 20
-29.62258053138754
 30
0.0
 40
1.16076629765127
100
AcDbArc
 50
180.0
 51
270.0
  0
LINE
  5
2C2
330
2
100
AcDbEntity
  8
0
100
AcDbLine
 10
1849.785808871038
 20
-32.52449627551581
 30
0.0
 11
1857.545531570836
 21
-32.52449627551581
 31
0.0
  0
LINE
  5
2C3
330
2
100
AcDbEntity
  8
0
100
AcDbLine
 10
1849.785808871038
 20
-32.52449627551581
 30
0.0
 11
1857.545531570836
 21
-32.52449627551581
 31
0.0
  0
LINE
  5
2C4
330
2
100
AcDbEntity
  8
0
100
AcDbLine
 10
1851.836062257215
 20
-18.30510912928771
 30
0.0
 11
1849.91021980282
 21
-21.64076725509296
 31
0.0
  0
LINE
  5
2C5
330
2
100
AcDbEntity
  8
0
100
AcDbLine
 10
1851.836062257215
 20
-18.30510912928771
 30
0.0
 11
1849.91021980282
 21
-21.64076725509296
 31
0.0
  0
LINE
  5
2C6
330
2
100
AcDbEntity
  8
0
100
AcDbLine
 10
1856.577222646868
 20
-6.610879684595161
 30
0.0
 11
1848.04465942456
 21
-21.38971323793803
 31
0.0
  0
LINE
  5
2C7
330
2
100
AcDbEntity
  8
0
100
AcDbLine
 10
1856.577222646868
 20
-6.610879684595161
 30
0.0
 11
1848.04465942456
 21
-21.38971323793803
 31
0.0
  0
LINE
  5
2C8
330
2
100
AcDbEntity
  8
0
100
AcDbLine
 10
1849.785808871038
 20
-29.62258053138754
 30
0.0
 11
1849.785808871038
 21
-22.1050737741534
 31
0.0
  0
LINE
  5
2C9
330
2
100
AcDbEntity
  8
0
100
AcDbLine
 10
1849.785808871038
 20
-29.62258053138754
 30
0.0
 11
1849.785808871038
 21
-22.1050737741534
 31
0.0
  0
ARC
  5
2CA
330
2
100
AcDbEntity
  8
0
100
AcDbCircle
 10
1850.714421909159
 20
-22.10507377415329
 30
0.0
 40
0.9286130381210167
100
AcDbArc
 50
149.9999999999984
 51
180.0
  0
ARC
  5
2CB
330
2
100
AcDbEntity
  8
0
100
AcDbCircle
 10
1850.714421909159
 20
-22.10507377415329
 30
0.0
 40
0.9286130381210167
100
AcDbArc
 50
149.9999999999984
 51
180.0
  0
LINE
  5
2CC
330
2
100
AcDbEntity
  8
0
100
AcDbLine
 10
1854.933807401121
 20
-29.33238895697485
 30
0.0
 11
1854.933807401121
 21
-27.88143108491073
 31
0.0
  0
LINE
  5
2CD
330
2
100
AcDbEntity
  8
0
100
AcDbLine
 10
1854.933807401121
 20
-29.33238895697485
 30
0.0
 11
1854.933807401121
 21
-27.88143108491073
 31
0.0
  0
ARC
  5
2CE
330
2
100
AcDbEntity
  8
0
100
AcDbCircle
 10
1856.384765273185
 20
-29.33238895697474
 30
0.0
 40
1.450957872064089
100
AcDbArc
 50
180.0
 51
270.0
  0
ARC
  5
2CF
330
2
100
AcDbEntity
  8
0
100
AcDbCircle
 10
1856.384765273185
 20
-29.33238895697474
 30
0.0
 40
1.450957872064089
100
AcDbArc
 50
180.0
 51
270.0
  0
LINE
  5
2D0
330
2
100
AcDbEntity
  8
0
100
AcDbLine
 10
1856.384765273185
 20
-30.78334682903889
 30
0.0
 11
1857.545531570836
 21
-30.78334682903889
 31
0.0
  0
LINE
  5
2D1
330
2
100
AcDbEntity
  8
0
100
AcDbLine
 10
1856.384765273185
 20
-30.78334682903889
 30
0.0
 11
1857.545531570836
 21
-30.78334682903889
 31
0.0
  0
LINE
  5
2D2
330
2
100
AcDbEntity
  8
0
100
AcDbLine
 10
1857.545531570836
 20
-32.52449627551581
 30
0.0
 11
1857.545531570836
 21
-30.78334682903889
 31
0.0
  0
LINE
  5
2D3
330
2
100
AcDbEntity
  8
0
100
AcDbLine
 10
1857.545531570836
 20
-32.52449627551581
 30
0.0
 11
1857.545531570836
 21
-30.78334682903889
 31
0.0
  0
ARC
  5
2D4
330
2
100
AcDbEntity
  8
0
100
AcDbCircle
 10
1852.031891656993
 20
-29.62258053138754
 30
0.0
 40
1.16076629765127
100
AcDbArc
 50
270.0
 51
0.0
  0
ARC
  5
2D5
330
2
100
AcDbEntity
  8
0
100
AcDbCircle
 10
1852.031891656993
 20
-29.62258053138754
 30
0.0
 40
1.16076629765127
100
AcDbArc
 50
270.0
 51
0.0
  0
LINE
  5
2D6
330
2
100
AcDbEntity
  8
0
100
AcDbLine
 10
1853.192657954644
 20
-29.62258053138754
 30
0.0
 11
1853.192657954644
 21
-27.88143108491073
 31
0.0
  0
LINE
  5
2D7
330
2
100
AcDbEntity
  8
0
100
AcDbLine
 10
1853.192657954644
 20
-29.62258053138754
 30
0.0
 11
1853.192657954644
 21
-27.88143108491073
 31
0.0
  0
LINE
  5
2D8
330
2
100
AcDbEntity
  8
0
100
AcDbLine
 10
1850.946575168688
 20
-30.78334682903889
 30
0.0
 11
1852.031891656993
 21
-30.78334682903889
 31
0.0
  0
LINE
  5
2D9
330
2
100
AcDbEntity
  8
0
100
AcDbLine
 10
1850.946575168688
 20
-30.78334682903889
 30
0.0
 11
1852.031891656993
 21
-30.78334682903889
 31
0.0
  0
LINE
  5
2DA
330
2
100
AcDbEntity
  8
0
100
AcDbLine
 10
1853.192657954644
 20
-27.88143108491073
 30
0.0
 11
1854.933807401121
 21
-27.88143108491073
 31
0.0
  0
LINE
  5
2DB
330
2
100
AcDbEntity
  8
0
100
AcDbLine
 10
1853.192657954644
 20
-27.88143108491073
 30
0.0
 11
1854.933807401121
 21
-27.88143108491073
 31
0.0
  0
ARC
  5
2DC
330
2
100
AcDbEntity
  8
0
100
AcDbCircle
 10
1858.009838089896
 20
-5.966163385254716
 30
0.0
 40
0.6964597785907626
100
AcDbArc
 50
310.2522419999985
 51
130.2522419999986
  0
ARC
  5
2DD
330
2
100
AcDbEntity
  8
0
100
AcDbCircle
 10
1858.009838089896
 20
-5.966163385254716
 30
0.0
 40
0.6964597785907626
100
AcDbArc
 50
310.2522419999985
 51
130.2522419999986
  0
ARC
  5
2DE
330
2
100
AcDbEntity
  8
0
100
AcDbCircle
 10
1860.447447314964
 20
-8.84535480757367
 30
0.0
 40
4.468950245957393
100
AcDbArc
 50
130.2522419999986
 51
149.9999999999984
  0
ARC
  5
2DF
330
2
100
AcDbEntity
  8
0
100
AcDbCircle
 10
1860.447447314964
 20
-8.84535480757367
 30
0.0
 40
4.468950245957393
100
AcDbArc
 50
130.2522419999986
 51
149.9999999999984
  0
ARC
  5
2E0
330
2
100
AcDbEntity
  8
0
100
AcDbCircle
 10
1856.094573698773
 20
-14.82330124047769
 30
0.0
 40
1.16076629765127
100
AcDbArc
 50
90.0
 51
180.0
  0
ARC
  5
2E1
330
2
100
AcDbEntity
  8
0
100
AcDbCircle
 10
1856.094573698773
 20
-14.82330124047769
 30
0.0
 40
1.16076629765127
100
AcDbArc
 50
90.0
 51
180.0
  0
LINE
  5
2E2
330
2
100
AcDbEntity
  8
0
100
AcDbLine
 10
1851.836062257215
 20
-18.30510912928771
 30
0.0
 11
1854.933807401121
 21
-18.30510912928771
 31
0.0
  0
LINE
  5
2E3
330
2
100
AcDbEntity
  8
0
100
AcDbLine
 10
1851.836062257215
 20
-18.30510912928771
 30
0.0
 11
1854.933807401121
 21
-18.30510912928771
 31
0.0
  0
LINE
  5
2E4
330
2
100
AcDbEntity
  8
0
100
AcDbLine
 10
1854.933807401121
 20
-18.30510912928771
 30
0.0
 11
1854.933807401121
 21
-14.82330124047779
 31
0.0
  0
LINE
  5
2E5
330
2
100
AcDbEntity
  8
0
100
AcDbLine
 10
1854.933807401121
 20
-18.30510912928771
 30
0.0
 11
1854.933807401121
 21
-14.82330124047779
 31
0.0
  0
ARC
  5
2E6
330
2
100
AcDbEntity
  8
0
100
AcDbCircle
 10
1860.447447314964
 20
-8.84535480757367
 30
0.0
 40
3.076030688775868
100
AcDbArc
 50
130.2522419999986
 51
49.74775800000138
  0
ARC
  5
2E7
330
2
100
AcDbEntity
  8
0
100
AcDbCircle
 10
1860.447447314964
 20
-8.84535480757367
 30
0.0
 40
3.076030688775868
100
AcDbArc
 50
130.2522419999986
 51
49.74775800000138
  0
LEADER
  5
2E8
330
2
100
AcDbEntity
  8
0
100
AcDbLeader
  3
STANDARD
 76
     2
 10
1845.46486527829
 20
70.73745017458271
 30
0.0
 10
1800.432184423376
 20
70.73745017458271
 30
0.0
1001
ACAD
1000
DSTYLE
1002
{
1070
   147
1040
10.0
1070
    77
1070
     0
1002
}
  0
ARC
  5
2E9
330
2
100
AcDbEntity
  8
0
100
AcDbCircle
 10
1831.969817018878
 20
121.7965171298456
 30
0.0
 40
26.44975287616828
100
AcDbArc
 50
59.32187939834917
 51
135.584691402807
  0
ARC
  5
2EA
330
2
100
AcDbEntity
  8
0
100
AcDbCircle
 10
1831.969817018878
 20
114.9951521045451
 30
0.0
 40
26.44975287616828
100
AcDbArc
 50
59.32187939834907
 51
135.584691402807
  0
ARC
  5
2EB
330
2
100
AcDbEntity
  8
0
100
AcDbCircle
 10
1831.969817018878
 20
108.1937870792446
 30
0.0
 40
26.44975287616828
100
AcDbArc
 50
59.32187939834907
 51
135.584691402807
  0
ARC
  5
2EC
330
2
100
AcDbEntity
  8
0
100
AcDbCircle
 10
1831.969817018878
 20
101.3924220539444
 30
0.0
 40
26.44975287616828
100
AcDbArc
 50
59.32187939834896
 51
129.517652797173
  0
LINE
  5
2ED
102
{ACAD_REACTORS
330
59
102
}
330
2
100
AcDbEntity
  8
0
100
AcDbLine
 10
1813.077136393044
 20
121.7965171298456
 30
0.0
 11
1845.46486527829
 21
121.7965171298456
 31
0.0
  0
LINE
  5
2EE
330
2
100
AcDbEntity
  8
0
100
AcDbLine
 10
1809.353178541924
 20
121.7965171298454
 30
0.0
 11
1825.600883880142
 21
121.7965171298454
 31
0.0
  0
LINE
  5
2EF
330
2
100
AcDbEntity
  8
0
100
AcDbLine
 10
1872.850235205368
 20
-33.80133920293221
 30
0.0
 11
1872.850235205368
 21
-21.38971323793803
 31
0.0
  0
LINE
  5
2F0
330
2
100
AcDbEntity
  8
0
100
AcDbLine
 10
1872.850235205368
 20
-33.80133920293221
 30
0.0
 11
1872.850235205368
 21
-21.38971323793803
 31
0.0
  0
LINE
  5
2F1
330
2
100
AcDbEntity
  8
0
100
AcDbLine
 10
1871.109085758891
 20
-27.80017744407504
 30
0.0
 11
1871.109085758891
 21
-22.1050737741534
 31
0.0
  0
LINE
  5
2F2
330
2
100
AcDbEntity
  8
0
100
AcDbLine
 10
1871.109085758891
 20
-27.80017744407504
 30
0.0
 11
1871.109085758891
 21
-22.1050737741534
 31
0.0
  0
ARC
  5
2F3
330
2
100
AcDbEntity
  8
0
100
AcDbCircle
 10
-1869.94831946124
 20
-27.80017744407493
 30
0.0
 40
1.16076629765127
210
0.0
220
0.0
230
-1.0
100
AcDbArc
 50
180.0
 51
270.0
  0
ARC
  5
2F4
330
2
100
AcDbEntity
  8
0
100
AcDbCircle
 10
-1869.94831946124
 20
-27.80017744407493
 30
0.0
 40
1.16076629765127
210
0.0
220
0.0
230
-1.0
100
AcDbArc
 50
180.0
 51
270.0
  0
ARC
  5
2F5
330
2
100
AcDbEntity
  8
0
100
AcDbCircle
 10
1868.860155613209
 20
-27.80017744407493
 30
0.0
 40
1.16076629765127
100
AcDbArc
 50
184.013987000003
 51
270.0
  0
ARC
  5
2F6
330
2
100
AcDbEntity
  8
0
100
AcDbCircle
 10
1868.860155613209
 20
-27.80017744407493
 30
0.0
 40
1.16076629765127
100
AcDbArc
 50
184.013987000003
 51
270.0
  0
LINE
  5
2F7
330
2
100
AcDbEntity
  8
0
100
AcDbLine
 10
1869.94831946124
 20
-28.96094374172628
 30
0.0
 11
1868.860155613209
 21
-28.96094374172628
 31
0.0
  0
LINE
  5
2F8
330
2
100
AcDbEntity
  8
0
100
AcDbLine
 10
1871.526961626045
 20
-30.78334682903889
 30
0.0
 11
1869.054529412049
 21
-30.78334682903889
 31
0.0
  0
LINE
  5
2F9
330
2
100
AcDbEntity
  8
0
100
AcDbLine
 10
1871.526961626045
 20
-30.78334682903889
 30
0.0
 11
1869.054529412049
 21
-30.78334682903889
 31
0.0
  0
LINE
  5
2FA
330
2
100
AcDbEntity
  8
0
100
AcDbLine
 10
1867.731255832726
 20
-32.52449627551581
 30
0.0
 11
1867.731255832726
 21
-33.55177444893721
 31
0.0
  0
LINE
  5
2FB
330
2
100
AcDbEntity
  8
0
100
AcDbLine
 10
1867.731255832726
 20
-32.52449627551581
 30
0.0
 11
1867.731255832726
 21
-33.55177444893721
 31
0.0
  0
LINE
  5
2FC
330
2
100
AcDbEntity
  8
0
100
AcDbLine
 10
1871.526961626045
 20
-30.78334682903889
 30
0.0
 11
1871.526961626045
 21
-33.80133920293221
 31
0.0
  0
LINE
  5
2FD
330
2
100
AcDbEntity
  8
0
100
AcDbLine
 10
1871.526961626045
 20
-30.78334682903889
 30
0.0
 11
1871.526961626045
 21
-33.80133920293221
 31
0.0
  0
LINE
  5
2FE
330
2
100
AcDbEntity
  8
0
100
AcDbLine
 10
1869.054529412049
 20
-30.78334682903889
 30
0.0
 11
1869.054529412049
 21
-32.73907205100059
 31
0.0
  0
LINE
  5
2FF
330
2
100
AcDbEntity
  8
0
100
AcDbLine
 10
1869.054529412049
 20
-30.78334682903889
 30
0.0
 11
1869.054529412049
 21
-32.73907205100059
 31
0.0
  0
LINE
  5
300
330
2
100
AcDbEntity
  8
0
100
AcDbLine
 10
1865.961087228808
 20
-29.33238895697485
 30
0.0
 11
1865.961087228808
 21
-27.88143108491073
 31
0.0
  0
LINE
  5
301
330
2
100
AcDbEntity
  8
0
100
AcDbLine
 10
1865.961087228808
 20
-29.33238895697485
 30
0.0
 11
1865.961087228808
 21
-27.88143108491073
 31
0.0
  0
ARC
  5
302
330
2
100
AcDbEntity
  8
0
100
AcDbCircle
 10
1864.510129356743
 20
-29.33238895697474
 30
0.0
 40
1.450957872064089
100
AcDbArc
 50
270.0
 51
0.0
  0
ARC
  5
303
330
2
100
AcDbEntity
  8
0
100
AcDbCircle
 10
1864.510129356743
 20
-29.33238895697474
 30
0.0
 40
1.450957872064089
100
AcDbArc
 50
270.0
 51
0.0
  0
LINE
  5
304
330
2
100
AcDbEntity
  8
0
100
AcDbLine
 10
1865.961087228808
 20
-27.88143108491073
 30
0.0
 11
1867.702236675285
 21
-27.88143108491073
 31
0.0
  0
LINE
  5
305
330
2
100
AcDbEntity
  8
0
100
AcDbLine
 10
1865.961087228808
 20
-27.88143108491073
 30
0.0
 11
1867.702236675285
 21
-27.88143108491073
 31
0.0
  0
LINE
  5
306
330
2
100
AcDbEntity
  8
0
100
AcDbLine
 10
1865.497169566457
 20
-9.350290468584674
 30
0.0
 11
1865.206977992044
 21
-8.847664732506075
 31
0.0
  0
LINE
  5
307
330
2
100
AcDbEntity
  8
0
100
AcDbLine
 10
1865.497169566457
 20
-9.350290468584674
 30
0.0
 11
1865.206977992044
 21
-8.847664732506075
 31
0.0
  0
LINE
  5
308
330
2
100
AcDbEntity
  8
0
100
AcDbLine
 10
1865.497169566457
 20
-9.350290468584674
 30
0.0
 11
1865.972860881365
 21
-9.477751894197112
 31
0.0
  0
LINE
  5
309
330
2
100
AcDbEntity
  8
0
100
AcDbLine
 10
1865.497169566457
 20
-9.350290468584674
 30
0.0
 11
1865.972860881365
 21
-9.477751894197112
 31
0.0
  0
LINE
  5
30A
330
2
100
AcDbEntity
  8
0
100
AcDbLine
 10
1865.206977992044
 20
-8.847664732506075
 30
0.0
 11
1865.334439417656
 21
-8.371973417598226
 31
0.0
  0
LINE
  5
30B
330
2
100
AcDbEntity
  8
0
100
AcDbLine
 10
1865.206977992044
 20
-8.847664732506075
 30
0.0
 11
1865.334439417656
 21
-8.371973417598226
 31
0.0
  0
ARC
  5
30C
330
2
100
AcDbEntity
  8
0
100
AcDbCircle
 10
1864.800320931157
 20
-14.82330124047769
 30
0.0
 40
1.16076629765127
100
AcDbArc
 50
0.0
 51
90.0
  0
ARC
  5
30D
330
2
100
AcDbEntity
  8
0
100
AcDbCircle
 10
1864.800320931157
 20
-14.82330124047769
 30
0.0
 40
1.16076629765127
100
AcDbArc
 50
0.0
 51
90.0
  0
LINE
  5
30E
330
2
100
AcDbEntity
  8
0
100
AcDbLine
 10
1870.984674827109
 20
-21.64076725509296
 30
0.0
 11
1869.058832372714
 21
-18.30510912928771
 31
0.0
  0
LINE
  5
30F
330
2
100
AcDbEntity
  8
0
100
AcDbLine
 10
1870.984674827109
 20
-21.64076725509296
 30
0.0
 11
1869.058832372714
 21
-18.30510912928771
 31
0.0
  0
ARC
  5
310
330
2
100
AcDbEntity
  8
0
100
AcDbCircle
 10
1870.18047272077
 20
-22.10507377415329
 30
0.0
 40
0.9286130381210167
100
AcDbArc
 50
0.0
 51
30.0000000000016
  0
ARC
  5
311
330
2
100
AcDbEntity
  8
0
100
AcDbCircle
 10
1870.18047272077
 20
-22.10507377415329
 30
0.0
 40
0.9286130381210167
100
AcDbArc
 50
0.0
 51
30.0000000000016
  0
LINE
  5
312
330
2
100
AcDbEntity
  8
0
100
AcDbLine
 10
1865.961087228808
 20
-18.30510912928771
 30
0.0
 11
1869.058832372714
 21
-18.30510912928771
 31
0.0
  0
LINE
  5
313
330
2
100
AcDbEntity
  8
0
100
AcDbLine
 10
1865.961087228808
 20
-18.30510912928771
 30
0.0
 11
1869.058832372714
 21
-18.30510912928771
 31
0.0
  0
LINE
  5
314
330
2
100
AcDbEntity
  8
0
100
AcDbLine
 10
1872.850235205368
 20
-21.38971323793803
 30
0.0
 11
1865.972860881365
 21
-9.477751894197112
 31
0.0
  0
LINE
  5
315
330
2
100
AcDbEntity
  8
0
100
AcDbLine
 10
1872.850235205368
 20
-21.38971323793803
 30
0.0
 11
1865.972860881365
 21
-9.477751894197112
 31
0.0
  0
LINE
  5
316
330
2
100
AcDbEntity
  8
0
100
AcDbLine
 10
1865.961087228808
 20
-18.30510912928771
 30
0.0
 11
1865.961087228808
 21
-14.82330124047779
 31
0.0
  0
LINE
  5
317
330
2
100
AcDbEntity
  8
0
100
AcDbLine
 10
1865.961087228808
 20
-18.30510912928771
 30
0.0
 11
1865.961087228808
 21
-14.82330124047779
 31
0.0
  0
ARC
  5
318
330
2
100
AcDbEntity
  8
0
100
AcDbCircle
 10
-1868.642457376381
 20
-33.55177444893721
 30
0.0
 40
0.9112015436562476
210
0.0
220
0.0
230
-1.0
100
AcDbArc
 50
116.8868039999991
 51
0.0
  0
ARC
  5
319
330
2
100
AcDbEntity
  8
0
100
AcDbCircle
 10
-1868.642457376381
 20
-33.55177444893721
 30
0.0
 40
0.9112015436562476
210
0.0
220
0.0
230
-1.0
100
AcDbArc
 50
116.8868039999991
 51
0.0
  0
ARC
  5
31A
330
2
100
AcDbEntity
  8
0
100
AcDbCircle
 10
-1872.188598415706
 20
-33.80133920293221
 30
0.0
 40
0.6616367896612246
210
0.0
220
0.0
230
-1.0
100
AcDbArc
 50
180.0
 51
0.0
  0
ARC
  5
31B
330
2
100
AcDbEntity
  8
0
100
AcDbCircle
 10
-1872.188598415706
 20
-33.80133920293221
 30
0.0
 40
0.6616367896612246
210
0.0
220
0.0
230
-1.0
100
AcDbArc
 50
180.0
 51
0.0
  0
LINE
  5
31C
102
{ACAD_REACTORS
330
234
102
}
330
2
100
AcDbEntity
  8
0
100
AcDbLine
 10
1896.218395127626
 20
121.7965171298454
 30
0.0
 11
1896.218395127626
 21
116.1287129420952
 31
0.0
  0
LINE
  5
31D
330
2
100
AcDbEntity
  8
0
100
AcDbLine
 10
1896.218395127626
 20
95.43313935667816
 30
0.0
 11
1896.218395127626
 21
52.97370123156466
 31
0.0
  0
ARC
  5
31E
330
2
100
AcDbEntity
  8
0
100
AcDbCircle
 10
1955.153855369283
 20
472.7113200240806
 30
0.0
 40
21.27432882847848
100
AcDbArc
 50
0.0000000000013544
 51
179.9999999999986
  0
SPLINE
  5
31F
330
2
100
AcDbEntity
  8
thread
100
AcDbSpline
210
0.0
220
0.0
230
1.0
 70
     8
 71
     3
 72
     9
 73
     5
 74
     0
 42
0.0000000001
 43
0.0000000001
 40
0.0
 40
0.0
 40
0.0
 40
0.0
 40
33.63406011768427
 40
48.27340821787378
 40
48.27340821787378
 40
48.27340821787378
 40
48.27340821787378
 10
1902.252404482366
 20
447.4958590764604
 30
0.0
 10
1908.856178030857
 20
459.2824979441202
 30
0.0
 10
1918.334268251583
 20
476.19931463483
 30
0.0
 10
1931.582447530834
 20
469.8102286961884
 30
0.0
 10
1942.746244370526
 20
458.338626532754
 30
0.0
  0
SPLINE
  5
321
330
2
100
AcDbEntity
  8
thread
100
AcDbSpline
210
0.0
220
0.0
230
1.0
 70
     8
 71
     3
 72
     9
 73
     5
 74
     0
 42
0.0000000001
 43
0.0000000001
 40
0.0
 40
0.0
 40
0.0
 40
0.0
 40
29.07121157243826
 40
42.81782206453752
 40
42.81782206453752
 40
42.81782206453752
 40
42.81782206453752
 10
1906.342185103092
 20
444.965578757924
 30
0.0
 10
1911.918683516185
 20
455.5246347308057
 30
0.0
 10
1920.132084467846
 20
471.0766449622947
 30
0.0
 10
1930.12915537828
 20
465.1307383907183
 30
0.0
 10
1941.659292991633
 20
453.7815025912441
 30
0.0
  0
LWPOLYLINE
  5
322
330
2
100
AcDbEntity
  8
thread
100
AcDbPolyline
 90
        5
 70
     0
 43
0.0
 10
1892.633958866563
 20
444.9655787579245
 10
2017.673751872002
 20
444.9655787579245
 10
2017.673751872002
 20
440.1563559500227
 10
1892.633958866563
 20
440.1563559500227
 10
1892.633958866563
 20
444.9655787579245
  0
LINE
  5
323
330
2
100
AcDbEntity
  8
0
100
AcDbLine
 10
1933.879526540804
 20
428.9946538234548
 30
0.0
 11
1936.765060225545
 21
428.9946538234548
 31
0.0
  0
LWPOLYLINE
  5
324
330
2
100
AcDbEntity
  8
0
100
AcDbPolyline
 90
        5
 70
     0
 43
0.0
 10
1932.436759698433
 20
436.3778198248559
 10
1938.207827067915
 20
436.3778198248559
 10
1938.207827067915
 20
432.5304415785348
 10
1932.436759698433
 20
432.5304415785348
 10
1932.436759698433
 20
436.3778198248559
  0
LINE
  5
325
330
2
100
AcDbEntity
  8
0
100
AcDbLine
 10
2016.271121541371
 20
440.1563559500228
 30
0.0
 11
1891.849366214106
 21
440.1563559500228
 31
0.0
  0
LINE
  5
326
330
2
100
AcDbEntity
  8
0
100
AcDbLine
 10
1844.143011137629
 20
436.3778198248559
 30
0.0
 11
2016.271121541371
 21
436.3778198248559
 31
0.0
  0
LINE
  5
327
330
2
100
AcDbEntity
  8
0
100
AcDbLine
 10
1949.44853060489
 20
197.3672396331834
 30
0.0
 11
1930.555849979056
 21
197.3672396331833
 31
0.0
  0
ARC
  5
328
330
2
100
AcDbEntity
  8
0
100
AcDbCircle
 10
1930.555849979056
 20
162.6047072816481
 30
0.0
 40
26.44975287616828
100
AcDbArc
 50
44.415308597193
 51
99.43361650564513
  0
ARC
  5
329
330
2
100
AcDbEntity
  8
0
100
AcDbCircle
 10
1930.555849979056
 20
169.4060723069485
 30
0.0
 40
26.44975287616828
100
AcDbArc
 50
44.415308597193
 51
91.64911555543735
  0
ARC
  5
32A
330
2
100
AcDbEntity
  8
0
100
AcDbCircle
 10
1930.555849979056
 20
155.8033422563476
 30
0.0
 40
26.44975287616828
100
AcDbArc
 50
44.415308597193
 51
108.0841495694063
  0
ARC
  5
32B
330
2
100
AcDbEntity
  8
0
100
AcDbCircle
 10
1930.555849979056
 20
142.2006122057467
 30
0.0
 40
26.44975287616828
100
AcDbArc
 50
44.415308597193
 51
135.584691402807
  0
ARC
  5
32C
330
2
100
AcDbEntity
  8
0
100
AcDbCircle
 10
1930.555849979056
 20
135.3992471804462
 30
0.0
 40
26.44975287616828
100
AcDbArc
 50
44.415308597193
 51
135.584691402807
  0
ARC
  5
32D
330
2
100
AcDbEntity
  8
0
100
AcDbCircle
 10
1930.555849979056
 20
149.0019772310471
 30
0.0
 40
26.44975287616828
100
AcDbArc
 50
44.415308597193
 51
118.2963339680209
  0
CIRCLE
  5
32E
330
2
100
AcDbEntity
  8
0
 62
     7
100
AcDbCircle
 10
1955.153855369282
 20
465.7343157827913
 30
0.0
 40
91.44057422903891
  0
LINE
  5
32F
330
2
100
AcDbEntity
  8
DASHED
 62
     7
 48
2.5
100
AcDbLine
 10
1810.909639503882
 20
411.4289588646767
 30
0.0
 11
1860.909639503884
 21
199.7739030068396
 31
0.0
  0
ARC
  5
330
330
2
100
AcDbEntity
  8
0
100
AcDbCircle
 10
1723.060394411439
 20
216.5471039254238
 30
0.0
 40
122.4206926069951
100
AcDbArc
 50
0.932746718823472
 51
40.2557258412344
  0
ARC
  5
331
330
2
100
AcDbEntity
  8
0
100
AcDbCircle
 10
1831.969817018878
 20
169.4060723069485
 30
0.0
 40
26.44975287616828
100
AcDbArc
 50
59.32187939834957
 51
135.584691402807
  0
ARC
  5
332
330
2
100
AcDbEntity
  8
0
100
AcDbCircle
 10
1831.969817018878
 20
162.6047072816481
 30
0.0
 40
26.44975287616828
100
AcDbArc
 50
59.32187939834949
 51
135.584691402807
  0
ARC
  5
333
330
2
100
AcDbEntity
  8
0
100
AcDbCircle
 10
1831.969817018878
 20
155.8033422563476
 30
0.0
 40
26.44975287616828
100
AcDbArc
 50
59.32187939834949
 51
135.584691402807
  0
LINE
  5
334
330
2
100
AcDbEntity
  8
0
100
AcDbLine
 10
1845.464865278289
 20
197.3672396331834
 30
0.0
 11
1813.077136393044
 21
197.3672396331834
 31
0.0
  0
ARC
  5
335
330
2
100
AcDbEntity
  8
0
100
AcDbCircle
 10
1831.969817018878
 20
149.0019772310471
 30
0.0
 40
26.44975287616828
100
AcDbArc
 50
59.32187939834939
 51
135.584691402807
  0
ARC
  5
336
330
2
100
AcDbEntity
  8
0
100
AcDbCircle
 10
1831.969817018878
 20
142.2006122057467
 30
0.0
 40
26.44975287616828
100
AcDbArc
 50
59.32187939834939
 51
135.584691402807
  0
ARC
  5
337
330
2
100
AcDbEntity
  8
0
100
AcDbCircle
 10
1831.969817018878
 20
135.3992471804462
 30
0.0
 40
26.44975287616828
100
AcDbArc
 50
59.32187939834939
 51
135.584691402807
  0
ARC
  5
338
330
2
100
AcDbEntity
  8
0
100
AcDbCircle
 10
1794.18445576721
 20
176.207437332249
 30
0.0
 40
26.44975287616828
100
AcDbArc
 50
44.415308597193
 51
53.1301023541555
  0
ARC
  5
339
330
2
100
AcDbEntity
  8
0
100
AcDbCircle
 10
1831.969817018878
 20
176.207437332249
 30
0.0
 40
26.44975287616828
100
AcDbArc
 50
126.8698976458444
 51
135.584691402807
  0
ARC
  5
33A
330
2
100
AcDbEntity
  8
0
100
AcDbCircle
 10
1997.869336145139
 20
216.5471039254238
 30
0.0
 40
122.4206926069951
100
AcDbArc
 50
139.7442741587652
 51
179.0672532811765
  0
LINE
  5
33B
330
2
100
AcDbEntity
  8
0
100
AcDbLine
 10
1911.663169353221
 20
159.5818783815144
 30
0.0
 11
1930.555849979056
 21
197.3672396331833
 31
0.0
  0
ARC
  5
33C
330
2
100
AcDbEntity
  8
0
100
AcDbCircle
 10
1864.797452115004
 20
419.1808581072601
 30
0.0
 40
5.289950575233655
100
AcDbArc
 50
90.0
 51
270.0
  0
ARC
  5
33D
330
2
100
AcDbEntity
  8
0
100
AcDbCircle
 10
1864.797452115004
 20
384.7869346720687
 30
0.0
 40
5.289950575233655
100
AcDbArc
 50
90.0
 51
270.0
  0
ARC
  5
33E
330
2
100
AcDbEntity
  8
0
100
AcDbCircle
 10
1826.914354857098
 20
463.5068086013578
 30
0.0
 40
5.289950575233655
100
AcDbArc
 50
180.0
 51
0.0
  0
LINE
  5
33F
330
2
100
AcDbEntity
  8
0
100
AcDbLine
 10
1832.16051685232
 20
436.377819824856
 30
0.0
 11
1821.668192861876
 21
436.3778198248559
 31
0.0
  0
ARC
  5
340
330
2
100
AcDbEntity
  8
0
100
AcDbCircle
 10
1826.914354857098
 20
437.0570557251894
 30
0.0
 40
5.289950575233655
100
AcDbArc
 50
180.0
 51
0.0
  0
ARC
  5
341
330
2
100
AcDbEntity
  8
0
100
AcDbCircle
 10
1826.914354857098
 20
446.1255424255903
 30
0.0
 40
5.289950575233655
100
AcDbArc
 50
0.0
 51
180.0
  0
ARC
  5
342
330
2
100
AcDbEntity
  8
0
100
AcDbCircle
 10
1826.914354857098
 20
393.2260366732538
 30
0.0
 40
5.289950575233655
100
AcDbArc
 50
0.0
 51
180.0
  0
ARC
  5
343
330
2
100
AcDbEntity
  8
0
100
AcDbCircle
 10
1826.914354857098
 20
410.6073028490212
 30
0.0
 40
5.289950575233655
100
AcDbArc
 50
180.0
 51
0.0
  0
ARC
  5
344
330
2
100
AcDbEntity
  8
0
100
AcDbCircle
 10
1826.914354857098
 20
419.675789549422
 30
0.0
 40
5.289950575233655
100
AcDbArc
 50
0.0
 51
180.0
  0
ARC
  5
345
330
2
100
AcDbEntity
  8
0
100
AcDbCircle
 10
1826.914354857098
 20
384.1575499728529
 30
0.0
 40
5.289950575233655
100
AcDbArc
 50
180.0
 51
0.0
  0
LINE
  5
346
330
2
100
AcDbEntity
  8
0
100
AcDbLine
 10
1821.624404281864
 20
437.0570557251892
 30
0.0
 11
1821.624404281864
 21
446.1255424255901
 31
0.0
  0
LINE
  5
347
330
2
100
AcDbEntity
  8
0
100
AcDbLine
 10
1797.81038199714
 20
437.0570557251892
 30
0.0
 11
1797.81038199714
 21
446.1255424255901
 31
0.0
  0
CIRCLE
  5
348
330
2
100
AcDbEntity
  8
0
100
AcDbCircle
 10
1809.717393139502
 20
449.1483713257236
 30
0.0
 40
5.289950575233655
  0
LINE
  5
349
330
2
100
AcDbEntity
  8
0
100
AcDbLine
 10
1821.624404281864
 20
410.6073028490209
 30
0.0
 11
1821.624404281864
 21
419.6757895494219
 31
0.0
  0
LINE
  5
34A
330
2
100
AcDbEntity
  8
0
100
AcDbLine
 10
1821.624404281864
 20
384.1575499728526
 30
0.0
 11
1821.624404281864
 21
393.2260366732535
 31
0.0
  0
LINE
  5
34B
330
2
100
AcDbEntity
  8
0
100
AcDbLine
 10
1797.81038199714
 20
410.6073028490209
 30
0.0
 11
1797.81038199714
 21
419.6757895494219
 31
0.0
  0
LINE
  5
34C
330
2
100
AcDbEntity
  8
0
100
AcDbLine
 10
1797.81038199714
 20
384.1575499728526
 30
0.0
 11
1797.81038199714
 21
393.2260366732535
 31
0.0
  0
CIRCLE
  5
34D
330
2
100
AcDbEntity
  8
0
100
AcDbCircle
 10
1809.717393139502
 20
403.805937823721
 30
0.0
 40
5.289950575233655
  0
CIRCLE
  5
34E
330
2
100
AcDbEntity
  8
0
100
AcDbCircle
 10
1809.717393139502
 20
426.4771545747223
 30
0.0
 40
5.289950575233655
  0
LINE
  5
34F
330
2
100
AcDbEntity
  8
0
100
AcDbLine
 10
1832.204305432331
 20
437.0570557251892
 30
0.0
 11
1832.204305432331
 21
446.1255424255901
 31
0.0
  0
ARC
  5
350
330
2
100
AcDbEntity
  8
0
100
AcDbCircle
 10
1847.416185939237
 20
419.1808581072601
 30
0.0
 40
5.289950575233655
100
AcDbArc
 50
270.0
 51
90.0
  0
LINE
  5
351
330
2
100
AcDbEntity
  8
0
100
AcDbLine
 10
1832.204305432331
 20
410.6073028490209
 30
0.0
 11
1832.204305432331
 21
419.6757895494219
 31
0.0
  0
LINE
  5
352
330
2
100
AcDbEntity
  8
0
100
AcDbLine
 10
1844.143011137629
 20
413.8909075320266
 30
0.0
 11
1847.416185939237
 21
413.8909075320266
 31
0.0
  0
LINE
  5
353
330
2
100
AcDbEntity
  8
0
100
AcDbLine
 10
1844.143011137629
 20
424.4708086824937
 30
0.0
 11
1847.416185939237
 21
424.4708086824937
 31
0.0
  0
LINE
  5
354
330
2
100
AcDbEntity
  8
0
100
AcDbLine
 10
1844.143011137629
 20
390.0768852473023
 30
0.0
 11
1847.416185939237
 21
390.0768852473023
 31
0.0
  0
CIRCLE
  5
355
330
2
100
AcDbEntity
  8
0
100
AcDbCircle
 10
1850.43901483937
 20
401.9838963896644
 30
0.0
 40
5.289950575233655
  0
LINE
  5
356
330
2
100
AcDbEntity
  8
0
100
AcDbLine
 10
1844.143011137629
 20
379.4969840968351
 30
0.0
 11
1847.416185939237
 21
379.4969840968351
 31
0.0
  0
ARC
  5
357
330
2
100
AcDbEntity
  8
0
100
AcDbCircle
 10
1847.416185939237
 20
384.7869346720687
 30
0.0
 40
5.289950575233655
100
AcDbArc
 50
270.0
 51
90.0
  0
LINE
  5
358
330
2
100
AcDbEntity
  8
0
100
AcDbLine
 10
1832.204305432331
 20
384.1575499728526
 30
0.0
 11
1832.204305432331
 21
393.2260366732535
 31
0.0
  0
ARC
  5
359
330
2
100
AcDbEntity
  8
0
100
AcDbCircle
 10
1826.914354857098
 20
551.9245539302635
 30
0.0
 40
5.289950575233655
100
AcDbArc
 50
0.0
 51
180.0
  0
ARC
  5
35A
330
2
100
AcDbEntity
  8
0
100
AcDbCircle
 10
1826.914354857098
 20
542.8560672298626
 30
0.0
 40
5.289950575233655
100
AcDbArc
 50
180.0
 51
0.0
  0
ARC
  5
35B
330
2
100
AcDbEntity
  8
0
100
AcDbCircle
 10
1826.914354857098
 20
525.4748010540952
 30
0.0
 40
5.289950575233655
100
AcDbArc
 50
0.0
 51
180.0
  0
ARC
  5
35C
330
2
100
AcDbEntity
  8
0
100
AcDbCircle
 10
1826.914354857098
 20
489.9565614775259
 30
0.0
 40
5.289950575233655
100
AcDbArc
 50
180.0
 51
0.0
  0
ARC
  5
35D
330
2
100
AcDbEntity
  8
0
100
AcDbCircle
 10
1826.914354857098
 20
499.0250481779269
 30
0.0
 40
5.289950575233655
100
AcDbArc
 50
0.0
 51
180.0
  0
ARC
  5
35E
330
2
100
AcDbEntity
  8
0
100
AcDbCircle
 10
1826.914354857098
 20
472.5752953017586
 30
0.0
 40
5.289950575233655
100
AcDbArc
 50
0.0
 51
180.0
  0
ARC
  5
35F
330
2
100
AcDbEntity
  8
0
100
AcDbCircle
 10
1826.914354857098
 20
516.4063143536943
 30
0.0
 40
5.289950575233655
100
AcDbArc
 50
180.0
 51
0.0
  0
LINE
  5
360
330
2
100
AcDbEntity
  8
0
100
AcDbLine
 10
1821.624404281864
 20
516.4063143536941
 30
0.0
 11
1821.624404281864
 21
525.4748010540949
 31
0.0
  0
LINE
  5
361
330
2
100
AcDbEntity
  8
0
100
AcDbLine
 10
1821.624404281864
 20
542.8560672298624
 30
0.0
 11
1821.624404281864
 21
551.9245539302633
 31
0.0
  0
LINE
  5
362
330
2
100
AcDbEntity
  8
0
100
AcDbLine
 10
1821.624404281864
 20
489.9565614775258
 30
0.0
 11
1821.624404281864
 21
499.0250481779266
 31
0.0
  0
LINE
  5
363
330
2
100
AcDbEntity
  8
0
100
AcDbLine
 10
1821.624404281864
 20
463.5068086013575
 30
0.0
 11
1821.624404281864
 21
472.5752953017584
 31
0.0
  0
LINE
  5
364
330
2
100
AcDbEntity
  8
0
100
AcDbLine
 10
1797.81038199714
 20
516.4063143536941
 30
0.0
 11
1797.81038199714
 21
525.4748010540949
 31
0.0
  0
LINE
  5
365
330
2
100
AcDbEntity
  8
0
100
AcDbLine
 10
1797.81038199714
 20
542.8560672298624
 30
0.0
 11
1797.81038199714
 21
551.9245539302633
 31
0.0
  0
LINE
  5
366
330
2
100
AcDbEntity
  8
0
100
AcDbLine
 10
1797.81038199714
 20
489.9565614775258
 30
0.0
 11
1797.81038199714
 21
499.0250481779266
 31
0.0
  0
LINE
  5
367
330
2
100
AcDbEntity
  8
0
100
AcDbLine
 10
1797.81038199714
 20
463.5068086013575
 30
0.0
 11
1797.81038199714
 21
472.5752953017584
 31
0.0
  0
CIRCLE
  5
368
330
2
100
AcDbEntity
  8
0
100
AcDbCircle
 10
1809.717393139502
 20
517.1620215787279
 30
0.0
 40
5.289950575233655
  0
CIRCLE
  5
369
330
2
100
AcDbEntity
  8
0
100
AcDbCircle
 10
1809.717393139502
 20
539.8332383297293
 30
0.0
 40
5.289950575233655
  0
CIRCLE
  5
36A
330
2
100
AcDbEntity
  8
0
100
AcDbCircle
 10
1809.717393139502
 20
494.4908048277264
 30
0.0
 40
5.289950575233655
  0
CIRCLE
  5
36B
330
2
100
AcDbEntity
  8
0
100
AcDbCircle
 10
1809.717393139502
 20
471.819588076725
 30
0.0
 40
5.289950575233655
  0
LINE
  5
36C
330
2
100
AcDbEntity
  8
0
100
AcDbLine
 10
1804.974639302959
 20
480.2276363808534
 30
0.0
 11
1805.096240421425
 21
480.3492374993196
 31
0.0
  0
POINT
  5
36D
330
2
100
AcDbEntity
  8
DEFPOINTS
  6
ByBlock
 62
     7
100
AcDbPoint
 10
1804.276907891367
 20
465.7343157827913
 30
0.0
  0
LINE
  5
36E
330
2
100
AcDbEntity
  8
0
100
AcDbLine
 10
1832.204305432331
 20
516.4063143536941
 30
0.0
 11
1832.204305432331
 21
525.4748010540949
 31
0.0
  0
LINE
  5
36F
330
2
100
AcDbEntity
  8
0
100
AcDbLine
 10
1832.204305432331
 20
542.8560672298624
 30
0.0
 11
1832.204305432331
 21
551.9245539302633
 31
0.0
  0
LINE
  5
370
330
2
100
AcDbEntity
  8
0
100
AcDbLine
 10
1832.204305432331
 20
489.9565614775258
 30
0.0
 11
1832.204305432331
 21
499.0250481779266
 31
0.0
  0
LINE
  5
371
330
2
100
AcDbEntity
  8
0
100
AcDbLine
 10
1832.204305432331
 20
463.5068086013575
 30
0.0
 11
1832.204305432331
 21
472.5752953017584
 31
0.0
  0
LINE
  5
372
330
2
100
AcDbEntity
  8
0
100
AcDbLine
 10
1891.247204991173
 20
379.4969840968351
 30
0.0
 11
1900.315691691574
 21
379.4969840968351
 31
0.0
  0
CIRCLE
  5
373
330
2
100
AcDbEntity
  8
0
100
AcDbCircle
 10
1895.781448341373
 20
401.9838963896644
 30
0.0
 40
5.289950575233655
  0
LINE
  5
374
330
2
100
AcDbEntity
  8
0
100
AcDbLine
 10
1891.247204991173
 20
413.8909075320266
 30
0.0
 11
1900.315691691574
 21
413.8909075320266
 31
0.0
  0
LINE
  5
375
330
2
100
AcDbEntity
  8
0
100
AcDbLine
 10
1891.247204991173
 20
424.4708086824937
 30
0.0
 11
1900.315691691574
 21
424.4708086824937
 31
0.0
  0
LINE
  5
376
330
2
100
AcDbEntity
  8
0
100
AcDbLine
 10
1891.247204991173
 20
390.0768852473023
 30
0.0
 11
1900.315691691574
 21
390.0768852473023
 31
0.0
  0
LINE
  5
377
330
2
100
AcDbEntity
  8
0
100
AcDbLine
 10
1891.849366214106
 20
440.1563559500228
 30
0.0
 11
1891.849366214106
 21
436.3778198248559
 31
0.0
  0
ARC
  5
378
330
2
100
AcDbEntity
  8
0
100
AcDbCircle
 10
1891.247204991173
 20
419.1808581072601
 30
0.0
 40
5.289950575233655
100
AcDbArc
 50
90.0
 51
270.0
  0
CIRCLE
  5
379
330
2
100
AcDbEntity
  8
0
100
AcDbCircle
 10
1873.110231590372
 20
401.9838963896644
 30
0.0
 40
5.289950575233655
  0
ARC
  5
37A
330
2
100
AcDbEntity
  8
0
100
AcDbCircle
 10
1873.865938815405
 20
419.1808581072601
 30
0.0
 40
5.289950575233655
100
AcDbArc
 50
270.0
 51
90.0
  0
LINE
  5
37B
330
2
100
AcDbEntity
  8
0
100
AcDbLine
 10
1864.797452115004
 20
390.0768852473023
 30
0.0
 11
1873.865938815405
 21
390.0768852473023
 31
0.0
  0
LINE
  5
37C
330
2
100
AcDbEntity
  8
0
100
AcDbLine
 10
1864.797452115004
 20
424.4708086824937
 30
0.0
 11
1873.865938815405
 21
424.4708086824937
 31
0.0
  0
LINE
  5
37D
330
2
100
AcDbEntity
  8
0
100
AcDbLine
 10
1864.797452115004
 20
413.8909075320266
 30
0.0
 11
1873.865938815405
 21
413.8909075320266
 31
0.0
  0
LINE
  5
37E
330
2
100
AcDbEntity
  8
0
100
AcDbLine
 10
1864.797452115004
 20
379.4969840968351
 30
0.0
 11
1873.865938815405
 21
379.4969840968351
 31
0.0
  0
ARC
  5
37F
330
2
100
AcDbEntity
  8
0
100
AcDbCircle
 10
1891.247204991173
 20
384.7869346720687
 30
0.0
 40
5.289950575233655
100
AcDbArc
 50
90.0
 51
270.0
  0
ARC
  5
380
330
2
100
AcDbEntity
  8
0
100
AcDbCircle
 10
1873.865938815405
 20
384.7869346720687
 30
0.0
 40
5.289950575233655
100
AcDbArc
 50
270.0
 51
90.0
  0
LINE
  5
381
330
2
100
AcDbEntity
  8
0
100
AcDbLine
 10
1933.879526540804
 20
461.1406244912068
 30
0.0
 11
1933.879526540803
 21
444.9655787579245
 31
0.0
  0
LINE
  5
382
330
2
100
AcDbEntity
  8
0
100
AcDbLine
 10
1931.955837417643
 20
436.3778198248559
 30
0.0
 11
1929.070303732902
 21
436.3778198248559
 31
0.0
  0
LINE
  5
383
330
2
100
AcDbEntity
  8
thread
100
AcDbLine
 10
1902.252404482366
 20
447.4958590764604
 30
0.0
 11
1906.342185103092
 21
444.9655787579236
 31
0.0
  0
LINE
  5
384
330
2
100
AcDbEntity
  8
0
100
AcDbLine
 10
1933.879526540803
 20
432.5304415785348
 30
0.0
 11
1933.879526540803
 21
428.9946538234548
 31
0.0
  0
LINE
  5
385
330
2
100
AcDbEntity
  8
0
100
AcDbLine
 10
1930.032148294483
 20
432.5304415785348
 30
0.0
 11
1932.917681979224
 21
432.5304415785348
 31
0.0
  0
LINE
  5
386
330
2
100
AcDbEntity
  8
0
100
AcDbLine
 10
1930.032148294483
 20
436.3778198248559
 30
0.0
 11
1930.032148294483
 21
432.5304415785348
 31
0.0
  0
ARC
  5
387
330
2
100
AcDbEntity
  8
0
100
AcDbCircle
 10
1926.765444567742
 20
419.1808581072601
 30
0.0
 40
5.289950575233655
100
AcDbArc
 50
270.0
 51
90.0
  0
CIRCLE
  5
388
330
2
100
AcDbEntity
  8
0
100
AcDbCircle
 10
1918.452665092375
 20
401.9838963896644
 30
0.0
 40
5.289950575233655
  0
LINE
  5
389
330
2
100
AcDbEntity
  8
0
100
AcDbLine
 10
1917.696957867341
 20
424.4708086824937
 30
0.0
 11
1926.765444567742
 21
424.4708086824937
 31
0.0
  0
LINE
  5
38A
330
2
100
AcDbEntity
  8
0
100
AcDbLine
 10
1917.696957867341
 20
413.8909075320266
 30
0.0
 11
1926.765444567742
 21
413.8909075320266
 31
0.0
  0
ARC
  5
38B
330
2
100
AcDbEntity
  8
0
100
AcDbCircle
 10
1917.696957867341
 20
419.1808581072601
 30
0.0
 40
5.289950575233655
100
AcDbArc
 50
90.0
 51
270.0
  0
ARC
  5
38C
330
2
100
AcDbEntity
  8
0
100
AcDbCircle
 10
1900.315691691574
 20
419.1808581072601
 30
0.0
 40
5.289950575233655
100
AcDbArc
 50
270.0
 51
90.0
  0
LINE
  5
38D
330
2
100
AcDbEntity
  8
0
100
AcDbLine
 10
1917.696957867341
 20
390.0768852473023
 30
0.0
 11
1926.765444567742
 21
390.0768852473023
 31
0.0
  0
LINE
  5
38E
330
2
100
AcDbEntity
  8
0
100
AcDbLine
 10
1917.696957867341
 20
379.4969840968351
 30
0.0
 11
1926.765444567742
 21
379.4969840968351
 31
0.0
  0
ARC
  5
38F
330
2
100
AcDbEntity
  8
0
100
AcDbCircle
 10
1900.315691691574
 20
384.7869346720687
 30
0.0
 40
5.289950575233655
100
AcDbArc
 50
270.0
 51
90.0
  0
ARC
  5
390
330
2
100
AcDbEntity
  8
0
100
AcDbCircle
 10
1917.696957867341
 20
384.7869346720687
 30
0.0
 40
5.289950575233655
100
AcDbArc
 50
90.0
 51
270.0
  0
ARC
  5
391
330
2
100
AcDbEntity
  8
0
100
AcDbCircle
 10
1926.765444567742
 20
384.7869346720687
 30
0.0
 40
5.289950575233655
100
AcDbArc
 50
270.0
 51
90.0
  0
LINE
  5
392
330
2
100
AcDbEntity
  8
0
100
AcDbLine
 10
1933.879526540804
 20
472.7113200240806
 30
0.0
 11
1933.879526540804
 21
466.7669557498229
 31
0.0
  0
ARC
  5
393
330
2
100
AcDbEntity
  8
0
100
AcDbCircle
 10
1930.555849979056
 20
176.207437332249
 30
0.0
 40
26.44975287616828
100
AcDbArc
 50
44.415308597193
 51
53.1301023541555
  0
POINT
  5
394
330
2
100
AcDbEntity
  8
DEFPOINTS
  6
ByBlock
 62
     7
100
AcDbPoint
 10
1955.153855369282
 20
314.8573683048771
 30
0.0
  0
LINE
  5
395
330
2
100
AcDbEntity
  8
thread
100
AcDbLine
 10
2008.0553062562
 20
447.4958590764604
 30
0.0
 11
2003.965525635473
 21
444.9655787579236
 31
0.0
  0
SPLINE
  5
396
330
2
100
AcDbEntity
  8
thread
100
AcDbSpline
210
0.0
220
0.0
230
1.0
 70
     8
 71
     3
 72
     9
 73
     5
 74
     0
 42
0.0000000001
 43
0.0000000001
 40
0.0
 40
0.0
 40
0.0
 40
0.0
 40
33.63406011768427
 40
48.27340821787401
 40
48.27340821787401
 40
48.27340821787401
 40
48.27340821787401
 10
2008.0553062562
 20
447.4958590764604
 30
0.0
 10
2001.451532707708
 20
459.2824979441202
 30
0.0
 10
1991.973442486982
 20
476.1993146348304
 30
0.0
 10
1978.72526320773
 20
469.8102286961884
 30
0.0
 10
1967.561466368039
 20
458.338626532754
 30
0.0
  0
LINE
  5
397
330
2
100
AcDbEntity
  8
0
100
AcDbLine
 10
1997.046216495846
 20
424.4708086824937
 30
0.0
 11
2006.114703196247
 21
424.4708086824937
 31
0.0
  0
LINE
  5
398
330
2
100
AcDbEntity
  8
0
100
AcDbLine
 10
1997.046216495846
 20
413.8909075320266
 30
0.0
 11
2006.114703196247
 21
413.8909075320266
 31
0.0
  0
LINE
  5
399
330
2
100
AcDbEntity
  8
0
100
AcDbLine
 10
1997.046216495846
 20
390.0768852473023
 30
0.0
 11
2006.114703196247
 21
390.0768852473023
 31
0.0
  0
LINE
  5
39A
330
2
100
AcDbEntity
  8
0
100
AcDbLine
 10
1997.046216495846
 20
379.4969840968351
 30
0.0
 11
2006.114703196247
 21
379.4969840968351
 31
0.0
  0
SPLINE
  5
39B
330
2
100
AcDbEntity
  8
thread
100
AcDbSpline
210
0.0
220
0.0
230
1.0
 70
     8
 71
     3
 72
     9
 73
     5
 74
     0
 42
0.0000000001
 43
0.0000000001
 40
0.0
 40
0.0
 40
0.0
 40
0.0
 40
29.07121157243826
 40
42.81782206453715
 40
42.81782206453715
 40
42.81782206453715
 40
42.81782206453715
 10
2003.965525635473
 20
444.965578757924
 30
0.0
 10
1998.389027222379
 20
455.5246347308057
 30
0.0
 10
1990.175626270719
 20
471.0766449622942
 30
0.0
 10
1980.178555360285
 20
465.1307383907187
 30
0.0
 10
1968.648417746934
 20
453.7815025912455
 30
0.0
  0
ARC
  5
39C
330
2
100
AcDbEntity
  8
0
100
AcDbCircle
 10
1955.153855369283
 20
472.7113200240806
 30
0.0
 40
18.38879514373745
100
AcDbArc
 50
359.9999999999986
 51
179.9999999999986
  0
LINE
  5
39D
330
2
100
AcDbEntity
  8
0
100
AcDbLine
 10
1971.618961389859
 20
436.3778198248559
 30
0.0
 11
1968.733427705118
 21
436.3778198248559
 31
0.0
  0
ARC
  5
39E
330
2
100
AcDbEntity
  8
0
100
AcDbCircle
 10
1970.596463619678
 20
419.1808581072601
 30
0.0
 40
5.289950575233655
100
AcDbArc
 50
90.0
 51
270.0
  0
ARC
  5
39F
330
2
100
AcDbEntity
  8
0
100
AcDbCircle
 10
1970.596463619678
 20
384.7869346720687
 30
0.0
 40
5.289950575233655
100
AcDbArc
 50
90.0
 51
270.0
  0
ARC
  5
3A0
330
2
100
AcDbEntity
  8
thread
100
AcDbCircle
 10
1955.153855369282
 20
470.4133172762635
 30
0.0
 40
17.3132021084454
100
AcDbArc
 50
224.2209168029053
 51
315.7790831970956
  0
ARC
  5
3A1
330
2
100
AcDbEntity
  8
thread
100
AcDbCircle
 10
1955.153855369283
 20
467.4911623423936
 30
0.0
 40
19.236891231606
100
AcDbArc
 50
225.453014786235
 51
314.5469852137707
  0
LINE
  5
3A2
330
2
100
AcDbEntity
  8
0
100
AcDbLine
 10
1936.765060225545
 20
444.9655787579245
 30
0.0
 11
1936.765060225545
 21
458.5013041164602
 31
0.0
  0
LINE
  5
3A3
330
2
100
AcDbEntity
  8
0
100
AcDbLine
 10
1936.765060225545
 20
428.9946538234548
 30
0.0
 11
1936.765060225545
 21
432.5304415785348
 31
0.0
  0
LINE
  5
3A4
330
2
100
AcDbEntity
  8
0
100
AcDbLine
 10
1940.612438471865
 20
432.5304415785348
 30
0.0
 11
1937.726904787125
 21
432.5304415785348
 31
0.0
  0
LINE
  5
3A5
330
2
100
AcDbEntity
  8
0
100
AcDbLine
 10
1940.612438471865
 20
436.3778198248559
 30
0.0
 11
1940.612438471865
 21
432.5304415785348
 31
0.0
  0
CIRCLE
  5
3A6
330
2
100
AcDbEntity
  8
0
100
AcDbCircle
 10
1963.795098594377
 20
401.9838963896644
 30
0.0
 40
5.289950575233655
  0
ARC
  5
3A7
330
2
100
AcDbEntity
  8
0
100
AcDbCircle
 10
1953.21519744391
 20
419.1808581072601
 30
0.0
 40
5.289950575233655
100
AcDbArc
 50
270.0
 51
90.0
  0
LINE
  5
3A8
330
2
100
AcDbEntity
  8
0
100
AcDbLine
 10
1944.14671074351
 20
424.4708086824937
 30
0.0
 11
1953.21519744391
 21
424.4708086824937
 31
0.0
  0
LINE
  5
3A9
330
2
100
AcDbEntity
  8
0
100
AcDbLine
 10
1944.14671074351
 20
413.8909075320266
 30
0.0
 11
1953.21519744391
 21
413.8909075320266
 31
0.0
  0
ARC
  5
3AA
330
2
100
AcDbEntity
  8
0
100
AcDbCircle
 10
1944.14671074351
 20
419.1808581072601
 30
0.0
 40
5.289950575233655
100
AcDbArc
 50
90.0
 51
270.0
  0
LINE
  5
3AB
330
2
100
AcDbEntity
  8
0
100
AcDbLine
 10
1944.14671074351
 20
390.0768852473023
 30
0.0
 11
1953.21519744391
 21
390.0768852473023
 31
0.0
  0
CIRCLE
  5
3AC
330
2
100
AcDbEntity
  8
0
100
AcDbCircle
 10
1941.123881843376
 20
401.9838963896644
 30
0.0
 40
5.289950575233655
  0
LINE
  5
3AD
330
2
100
AcDbEntity
  8
0
100
AcDbLine
 10
1944.14671074351
 20
379.4969840968351
 30
0.0
 11
1953.21519744391
 21
379.4969840968351
 31
0.0
  0
ARC
  5
3AE
330
2
100
AcDbEntity
  8
0
100
AcDbCircle
 10
1953.21519744391
 20
384.7869346720687
 30
0.0
 40
5.289950575233655
100
AcDbArc
 50
270.0
 51
90.0
  0
ARC
  5
3AF
330
2
100
AcDbEntity
  8
0
100
AcDbCircle
 10
1944.14671074351
 20
384.7869346720687
 30
0.0
 40
5.289950575233655
100
AcDbArc
 50
90.0
 51
270.0
  0
LINE
  5
3B0
330
2
100
AcDbEntity
  8
0
100
AcDbLine
 10
1977.870951040131
 20
432.5304415785348
 30
0.0
 11
1980.275562444082
 21
432.5304415785348
 31
0.0
  0
LINE
  5
3B1
330
2
100
AcDbEntity
  8
0
100
AcDbLine
 10
1976.428184197761
 20
461.1406244912073
 30
0.0
 11
1976.428184197762
 21
444.9655787579245
 31
0.0
  0
LINE
  5
3B2
330
2
100
AcDbEntity
  8
0
100
AcDbLine
 10
1973.542650513019
 20
444.9655787579245
 30
0.0
 11
1973.542650513019
 21
458.5013041164589
 31
0.0
  0
LINE
  5
3B3
330
2
100
AcDbEntity
  8
0
100
AcDbLine
 10
1973.542650513019
 20
428.9946538234548
 30
0.0
 11
1976.428184197761
 21
428.9946538234548
 31
0.0
  0
LINE
  5
3B4
330
2
100
AcDbEntity
  8
0
100
AcDbLine
 10
1973.54265051302
 20
428.9946538234548
 30
0.0
 11
1973.54265051302
 21
432.5304415785348
 31
0.0
  0
LINE
  5
3B5
330
2
100
AcDbEntity
  8
0
100
AcDbLine
 10
1976.428184197762
 20
432.5304415785348
 30
0.0
 11
1976.428184197761
 21
428.9946538234548
 31
0.0
  0
LINE
  5
3B6
330
2
100
AcDbEntity
  8
0
100
AcDbLine
 10
1977.870951040131
 20
432.5304415785348
 30
0.0
 11
1977.390028759341
 21
432.5304415785348
 31
0.0
  0
LINE
  5
3B7
330
2
100
AcDbEntity
  8
0
100
AcDbLine
 10
1969.695272266699
 20
432.5304415785348
 30
0.0
 11
1972.58080595144
 21
432.5304415785348
 31
0.0
  0
LWPOLYLINE
  5
3B8
330
2
100
AcDbEntity
  8
0
100
AcDbPolyline
 90
        5
 70
     0
 43
0.0
 10
1972.099883670649
 20
436.3778198248559
 10
1977.870951040131
 20
436.3778198248559
 10
1977.870951040131
 20
432.5304415785348
 10
1972.099883670649
 20
432.5304415785348
 10
1972.099883670649
 20
436.3778198248559
  0
LINE
  5
3B9
330
2
100
AcDbEntity
  8
0
100
AcDbLine
 10
1980.275562444082
 20
436.3778198248559
 30
0.0
 11
1980.275562444082
 21
432.5304415785348
 31
0.0
  0
LINE
  5
3BA
330
2
100
AcDbEntity
  8
0
100
AcDbLine
 10
1969.695272266699
 20
436.3778198248559
 30
0.0
 11
1969.695272266699
 21
432.5304415785348
 31
0.0
  0
CIRCLE
  5
3BB
330
2
100
AcDbEntity
  8
0
100
AcDbCircle
 10
1986.466315345379
 20
401.9838963896644
 30
0.0
 40
5.289950575233655
  0
ARC
  5
3BC
330
2
100
AcDbEntity
  8
0
100
AcDbCircle
 10
1979.664950320079
 20
419.1808581072601
 30
0.0
 40
5.289950575233655
100
AcDbArc
 50
270.0
 51
90.0
  0
ARC
  5
3BD
330
2
100
AcDbEntity
  8
0
100
AcDbCircle
 10
1997.046216495846
 20
419.1808581072601
 30
0.0
 40
5.289950575233655
100
AcDbArc
 50
90.0
 51
270.0
  0
ARC
  5
3BE
330
2
100
AcDbEntity
  8
0
100
AcDbCircle
 10
1979.664950320079
 20
384.7869346720687
 30
0.0
 40
5.289950575233655
100
AcDbArc
 50
270.0
 51
90.0
  0
ARC
  5
3BF
330
2
100
AcDbEntity
  8
0
100
AcDbCircle
 10
1997.046216495846
 20
384.7869346720687
 30
0.0
 40
5.289950575233655
100
AcDbArc
 50
90.0
 51
270.0
  0
LINE
  5
3C0
330
2
100
AcDbEntity
  8
0
100
AcDbLine
 10
1970.596463619678
 20
379.4969840968351
 30
0.0
 11
1979.664950320079
 21
379.4969840968351
 31
0.0
  0
LINE
  5
3C1
330
2
100
AcDbEntity
  8
0
100
AcDbLine
 10
1970.596463619678
 20
413.8909075320266
 30
0.0
 11
1979.664950320079
 21
413.8909075320266
 31
0.0
  0
LINE
  5
3C2
330
2
100
AcDbEntity
  8
0
100
AcDbLine
 10
1970.596463619678
 20
424.4708086824937
 30
0.0
 11
1979.664950320079
 21
424.4708086824937
 31
0.0
  0
LINE
  5
3C3
330
2
100
AcDbEntity
  8
0
100
AcDbLine
 10
1970.596463619678
 20
390.0768852473023
 30
0.0
 11
1979.664950320079
 21
390.0768852473023
 31
0.0
  0
LINE
  5
3C4
330
2
100
AcDbEntity
  8
0
100
AcDbLine
 10
1936.765060225545
 20
464.2163296285821
 30
0.0
 11
1936.765060225545
 21
472.711320024081
 31
0.0
  0
LINE
  5
3C5
330
2
100
AcDbEntity
  8
0
100
AcDbLine
 10
1976.428184197761
 20
472.7113200240806
 30
0.0
 11
1976.428184197761
 21
466.7669557498252
 31
0.0
  0
LINE
  5
3C6
330
2
100
AcDbEntity
  8
0
100
AcDbLine
 10
1973.54265051302
 20
464.2163296285835
 30
0.0
 11
1973.54265051302
 21
472.71132002408
 31
0.0
  0
LINE
  5
3C7
330
2
100
AcDbEntity
  8
0
100
AcDbLine
 10
2016.271121541371
 20
436.3778198248559
 30
0.0
 11
2016.271121541371
 21
440.1563559500228
 31
0.0
  0
ARC
  5
3C8
330
2
100
AcDbEntity
  8
0
100
AcDbCircle
 10
2006.114703196247
 20
419.1808581072601
 30
0.0
 40
5.289950575233655
100
AcDbArc
 50
270.0
 51
90.0
  0
ARC
  5
3C9
330
2
100
AcDbEntity
  8
0
100
AcDbCircle
 10
2006.114703196247
 20
384.7869346720687
 30
0.0
 40
5.289950575233655
100
AcDbArc
 50
270.0
 51
90.0
  0
LINE
  5
3CA
330
2
100
AcDbEntity
  8
0
100
AcDbLine
 10
2016.271121541371
 20
436.3778198248559
 30
0.0
 11
2016.271121541371
 21
367.5899729544729
 31
0.0
  0
LINE
  5
3CB
330
2
100
AcDbEntity
  8
0
100
AcDbLine
 10
2176.746243064157
 20
121.7965171298456
 30
0.0
 11
2176.746243064157
 21
197.3672396331834
 31
0.0
  0
LINE
  5
3CC
330
2
100
AcDbEntity
  8
0
100
AcDbLine
 10
2138.960881812488
 20
121.7965171298456
 30
0.0
 11
2138.960881812488
 21
197.3672396331834
 31
0.0
  0
ARC
  5
3CD
330
2
100
AcDbEntity
  8
0
100
AcDbCircle
 10
2157.853562438323
 20
128.597882155146
 30
0.0
 40
26.44975287616828
100
AcDbArc
 50
44.415308597193
 51
135.584691402807
  0
ARC
  5
3CE
330
2
100
AcDbEntity
  8
0
100
AcDbCircle
 10
2157.853562438323
 20
101.3924220539444
 30
0.0
 40
26.44975287616828
100
AcDbArc
 50
50.48234720282692
 51
129.517652797173
  0
ARC
  5
3CF
330
2
100
AcDbEntity
  8
0
100
AcDbCircle
 10
2157.853562438323
 20
108.1937870792446
 30
0.0
 40
26.44975287616828
100
AcDbArc
 50
44.415308597193
 51
135.584691402807
  0
ARC
  5
3D0
330
2
100
AcDbEntity
  8
0
100
AcDbCircle
 10
2157.853562438323
 20
114.9951521045451
 30
0.0
 40
26.44975287616828
100
AcDbArc
 50
44.415308597193
 51
135.584691402807
  0
ARC
  5
3D1
330
2
100
AcDbEntity
  8
0
100
AcDbCircle
 10
2157.853562438323
 20
121.7965171298456
 30
0.0
 40
26.44975287616828
100
AcDbArc
 50
44.415308597193
 51
135.584691402807
  0
LINE
  5
3D2
102
{ACAD_REACTORS
330
234
102
}
330
2
100
AcDbEntity
  8
0
100
AcDbLine
 10
2138.960881812488
 20
121.7965171298456
 30
0.0
 11
2176.746243064157
 21
121.7965171298456
 31
0.0
  0
LINE
  5
3D3
102
{ACAD_REACTORS
330
234
102
}
330
2
100
AcDbEntity
  8
0
100
AcDbLine
 10
2182.298565593986
 20
116.1287129420952
 30
0.0
 11
2176.746243064157
 21
121.7965171298456
 31
0.0
  0
ARC
  5
3D4
330
2
100
AcDbEntity
  8
0
100
AcDbCircle
 10
2157.853562438323
 20
142.2006122057467
 30
0.0
 40
26.44975287616828
100
AcDbArc
 50
44.415308597193
 51
135.584691402807
  0
ARC
  5
3D5
330
2
100
AcDbEntity
  8
0
100
AcDbCircle
 10
2157.853562438323
 20
162.6047072816481
 30
0.0
 40
26.44975287616828
100
AcDbArc
 50
44.415308597193
 51
135.584691402807
  0
ARC
  5
3D6
330
2
100
AcDbEntity
  8
0
100
AcDbCircle
 10
2157.853562438323
 20
155.8033422563476
 30
0.0
 40
26.44975287616828
100
AcDbArc
 50
44.415308597193
 51
135.584691402807
  0
ARC
  5
3D7
330
2
100
AcDbEntity
  8
0
100
AcDbCircle
 10
2157.853562438323
 20
149.0019772310471
 30
0.0
 40
26.44975287616828
100
AcDbArc
 50
44.415308597193
 51
135.584691402807
  0
LINE
  5
3D8
330
2
100
AcDbEntity
  8
0
100
AcDbLine
 10
2176.746243064157
 20
197.3672396331834
 30
0.0
 11
2138.960881812488
 21
197.3672396331834
 31
0.0
  0
ARC
  5
3D9
330
2
100
AcDbEntity
  8
0
100
AcDbCircle
 10
2157.853562438323
 20
135.3992471804462
 30
0.0
 40
26.44975287616828
100
AcDbArc
 50
44.415308597193
 51
135.584691402807
  0
ARC
  5
3DA
330
2
100
AcDbEntity
  8
0
100
AcDbCircle
 10
2157.853562438323
 20
169.4060723069485
 30
0.0
 40
26.44975287616828
100
AcDbArc
 50
44.415308597193
 51
135.584691402807
  0
ARC
  5
3DB
330
2
100
AcDbEntity
  8
0
100
AcDbCircle
 10
2157.853562438323
 20
176.207437332249
 30
0.0
 40
26.44975287616828
100
AcDbArc
 50
126.8698976458444
 51
135.584691402807
  0
ARC
  5
3DC
330
2
100
AcDbEntity
  8
0
100
AcDbCircle
 10
2157.853562438323
 20
176.207437332249
 30
0.0
 40
26.44975287616828
100
AcDbArc
 50
44.415308597193
 51
53.1301023541555
  0
LINE
  5
3DD
330
2
100
AcDbEntity
  8
0
370
    40
100
AcDbLine
 10
2826.843253791605
 20
-273.6189538173566
 30
0.0
 11
2895.530408774983
 21
-261.1396089179852
 31
0.0
  0
MTEXT
  5
3DE
330
2
100
AcDbEntity
  8
0
100
AcDbMText
 10
2556.993773515342
 20
280.5482137077324
 30
0.0
 40
28.0
 41
388.1370999999999
 71
     3
 72
     5
  1
{\Ftxt.shx;DEXION ANGLE \PBRACKETS}
  7
STYLE1
 73
     1
 44
1.0
  0
DIMENSION
  5
3DF
330
2
100
AcDbEntity
  8
0
100
AcDbDimension
  2
*D5
 10
2801.224451243601
 20
102.9816280566319
 30
0.0
 11
2636.224451243601
 21
13.96131010432873
 31
0.0
 70
   160
  1
APPROX. 3mm
 71
     5
 42
13.1470848854633
  3
STANDARD
100
AcDbAlignedDimension
 13
2857.861073013112
 23
116.1287129420952
 33
0.0
 14
2856.327575117014
 24
102.9816280566319
 34
0.0
 50
90.0
100
AcDbRotatedDimension
  0
LINE
  5
3EE
330
2
100
AcDbEntity
  8
0
  6
DASHED
 48
60.0
100
AcDbLine
 10
2626.848418861031
 20
557.1748900118302
 30
0.0
 11
2834.176287964083
 21
557.1748900118303
 31
0.0
  0
LINE
  5
3EF
330
2
100
AcDbEntity
  8
0
  6
DASHED
 48
60.0
100
AcDbLine
 10
2595.537040924375
 20
373.3333120949753
 30
0.0
 11
2834.176287964083
 21
373.3333120949754
 31
0.0
  0
LINE
  5
3F0
330
2
100
AcDbEntity
  8
0
100
AcDbLine
 10
2585.414005824983
 20
313.8969388461004
 30
0.0
 11
2879.077654101396
 21
313.8969388461001
 31
0.0
  0
LINE
  5
3F1
330
2
100
AcDbEntity
  8
0
100
AcDbLine
 10
2565.115855350495
 20
194.7184082949124
 30
0.0
 11
2894.387689440138
 21
194.7184082949124
 31
0.0
  0
LINE
  5
3F2
330
2
100
AcDbEntity
  8
0
100
AcDbLine
 10
2552.696004955404
 20
121.7965171298456
 30
0.0
 11
2856.327575117014
 21
121.7965171298455
 31
0.0
  0
LINE
  5
3F3
330
2
100
AcDbEntity
  8
0
100
AcDbLine
 10
2551.73068056576
 20
116.1287129420952
 30
0.0
 11
2856.327575117014
 21
116.1287129420952
 31
0.0
  0
LINE
  5
3F4
330
2
100
AcDbEntity
  8
0
370
    40
100
AcDbLine
 10
2544.152655110335
 20
71.63510553721244
 30
0.0
 11
2589.360973400564
 21
337.0711584077353
 31
0.0
  0
LINE
  5
3F5
330
2
100
AcDbEntity
  8
0
370
    40
100
AcDbLine
 10
2591.475710556942
 20
349.4876230071031
 30
0.0
 11
2622.885971915994
 21
533.909784903358
 31
0.0
  0
LINE
  5
3F6
330
2
100
AcDbEntity
  8
0
370
    40
100
AcDbLine
 10
2609.239084961453
 20
342.7695303182322
 30
0.0
 11
2591.475710556942
 21
349.4876230071031
 31
0.0
  0
LINE
  5
3F7
330
2
100
AcDbEntity
  8
0
370
    40
100
AcDbLine
 10
2572.409927824493
 20
342.5437105607357
 30
0.0
 11
2609.239084961453
 21
342.7695303182322
 31
0.0
  0
LINE
  5
3F8
330
2
100
AcDbEntity
  8
0
370
    40
100
AcDbLine
 10
2589.360973400564
 20
337.0711584077348
 30
0.0
 11
2572.409927824493
 21
342.5437105607357
 31
0.0
  0
LINE
  5
3F9
330
2
100
AcDbEntity
  8
0
100
AcDbLine
 10
2879.077654101396
 20
313.8969388461001
 30
0.0
 11
2879.077654101396
 21
450.3260785337937
 31
0.0
  0
LINE
  5
3FA
330
2
100
AcDbEntity
  8
0
100
AcDbLine
 10
2887.387689440138
 20
267.4839843232966
 30
0.0
 11
2886.887689440138
 21
267.4839843232966
 31
0.0
  0
LINE
  5
3FB
330
2
100
AcDbEntity
  8
0
100
AcDbLine
 10
2904.387689440138
 20
441.2541010534027
 30
0.0
 11
2904.387689440138
 21
436.2541010534028
 31
0.0
  0
LINE
  5
3FC
330
2
100
AcDbEntity
  8
0
100
AcDbLine
 10
2904.387689440138
 20
441.2541010534027
 30
0.0
 11
2904.387689440138
 21
436.2541010534028
 31
0.0
  0
LINE
  5
3FD
330
2
100
AcDbEntity
  8
0
100
AcDbLine
 10
2905.870457134824
 20
446.2541010534027
 30
0.0
 11
2905.870457134824
 21
441.2541010534027
 31
0.0
  0
LINE
  5
3FE
330
2
100
AcDbEntity
  8
0
100
AcDbLine
 10
2913.811641048181
 20
436.2541010534028
 30
0.0
 11
2913.811641048181
 21
429.2541010534027
 31
0.0
  0
MTEXT
  5
3FF
330
2
100
AcDbEntity
  8
0
100
AcDbMText
 10
2266.543072756149
 20
960.370711776728
 30
0.0
 40
28.0
 41
726.4705
 71
     1
 72
     5
  1
{\Ftxt.shx;DEXION ANGLE BRACKET}
  7
STYLE1
 73
     1
 44
1.0
  0
MTEXT
  5
400
330
2
100
AcDbEntity
  8
0
100
AcDbMText
 10
2260.248729486054
 20
862.1637664702147
 30
0.0
 40
28.0
 41
593.2631276376906
 71
     1
 72
     5
  1
{\Ftxt.shx;CENTRELINE OF MULLION AND BRACKET}
  7
STYLE1
 73
     1
 44
1.0
  0
LINE
  5
401
330
2
100
AcDbEntity
  8
0
100
AcDbLine
 10
2138.960881812488
 20
650.3281490405319
 30
0.0
 11
1844.143011137629
 21
650.3281490405316
 31
0.0
  0
LINE
  5
402
330
2
100
AcDbEntity
  8
0
100
AcDbLine
 10
1844.143011137629
 20
650.3281490405316
 30
0.0
 11
1844.143011137629
 21
722.2255238053142
 31
0.0
  0
ARC
  5
403
330
2
100
AcDbEntity
  8
0
100
AcDbCircle
 10
1826.914354857098
 20
657.7235654349366
 30
0.0
 40
5.289950575233655
100
AcDbArc
 50
0.0
 51
180.0
  0
ARC
  5
404
330
2
100
AcDbEntity
  8
0
100
AcDbCircle
 10
1826.914354857098
 20
631.2738125587683
 30
0.0
 40
5.289950575233655
100
AcDbArc
 50
0.0
 51
180.0
  0
ARC
  5
405
330
2
100
AcDbEntity
  8
0
100
AcDbCircle
 10
1826.914354857098
 20
622.2053258583675
 30
0.0
 40
5.289950575233655
100
AcDbArc
 50
180.0
 51
0.0
  0
ARC
  5
406
330
2
100
AcDbEntity
  8
0
100
AcDbCircle
 10
1826.914354857098
 20
604.8240596826
 30
0.0
 40
5.289950575233655
100
AcDbArc
 50
0.0
 51
180.0
  0
ARC
  5
407
330
2
100
AcDbEntity
  8
0
100
AcDbCircle
 10
1826.914354857098
 20
648.6550787345357
 30
0.0
 40
5.289950575233655
100
AcDbArc
 50
180.0
 51
0.0
  0
ARC
  5
408
330
2
100
AcDbEntity
  8
0
100
AcDbCircle
 10
1826.914354857098
 20
595.7555729821991
 30
0.0
 40
5.289950575233655
100
AcDbArc
 50
180.0
 51
0.0
  0
ARC
  5
409
330
2
100
AcDbEntity
  8
0
100
AcDbCircle
 10
1826.914354857098
 20
578.3743068064318
 30
0.0
 40
5.289950575233655
100
AcDbArc
 50
0.0
 51
180.0
  0
LINE
  5
40A
330
2
100
AcDbEntity
  8
0
100
AcDbLine
 10
1832.204305432331
 20
650.3281490405316
 30
0.0
 11
1821.624404281864
 21
650.3281490405316
 31
0.0
  0
LINE
  5
40B
330
2
100
AcDbEntity
  8
0
100
AcDbLine
 10
1821.624404281864
 20
648.6550787345355
 30
0.0
 11
1821.624404281864
 21
657.7235654349363
 31
0.0
  0
LINE
  5
40C
330
2
100
AcDbEntity
  8
0
100
AcDbLine
 10
1821.624404281864
 20
622.2053258583672
 30
0.0
 11
1821.624404281864
 21
631.2738125587681
 31
0.0
  0
LINE
  5
40D
330
2
100
AcDbEntity
  8
0
100
AcDbLine
 10
1821.624404281864
 20
569.3058201060306
 30
0.0
 11
1821.624404281864
 21
578.3743068064316
 31
0.0
  0
LINE
  5
40E
330
2
100
AcDbEntity
  8
0
100
AcDbLine
 10
1821.624404281864
 20
595.7555729821989
 30
0.0
 11
1821.624404281864
 21
604.8240596825999
 31
0.0
  0
LINE
  5
40F
330
2
100
AcDbEntity
  8
0
100
AcDbLine
 10
1797.81038199714
 20
648.6550787345355
 30
0.0
 11
1797.81038199714
 21
657.7235654349363
 31
0.0
  0
LINE
  5
410
330
2
100
AcDbEntity
  8
0
100
AcDbLine
 10
1797.81038199714
 20
622.2053258583672
 30
0.0
 11
1797.81038199714
 21
631.2738125587681
 31
0.0
  0
LINE
  5
411
330
2
100
AcDbEntity
  8
0
100
AcDbLine
 10
1797.81038199714
 20
569.3058201060306
 30
0.0
 11
1797.81038199714
 21
578.3743068064316
 31
0.0
  0
LINE
  5
412
330
2
100
AcDbEntity
  8
0
100
AcDbLine
 10
1797.81038199714
 20
595.7555729821989
 30
0.0
 11
1797.81038199714
 21
604.8240596825999
 31
0.0
  0
CIRCLE
  5
413
330
2
100
AcDbEntity
  8
0
100
AcDbCircle
 10
1809.717393139502
 20
630.5181053337348
 30
0.0
 40
5.289950575233655
  0
CIRCLE
  5
414
330
2
100
AcDbEntity
  8
0
100
AcDbCircle
 10
1809.717393139502
 20
607.8468885827334
 30
0.0
 40
5.289950575233655
  0
CIRCLE
  5
415
330
2
100
AcDbEntity
  8
0
100
AcDbCircle
 10
1809.717393139502
 20
585.1756718317319
 30
0.0
 40
5.289950575233655
  0
CIRCLE
  5
416
330
2
100
AcDbEntity
  8
0
100
AcDbCircle
 10
1809.717393139502
 20
660.7463943350698
 30
0.0
 40
5.289950575233655
  0
LINE
  5
417
330
2
100
AcDbEntity
  8
0
100
AcDbLine
 10
1832.204305432331
 20
648.6550787345355
 30
0.0
 11
1832.204305432331
 21
657.7235654349363
 31
0.0
  0
LINE
  5
418
330
2
100
AcDbEntity
  8
0
100
AcDbLine
 10
1832.204305432331
 20
622.2053258583672
 30
0.0
 11
1832.204305432331
 21
631.2738125587681
 31
0.0
  0
LINE
  5
419
330
2
100
AcDbEntity
  8
0
100
AcDbLine
 10
1832.204305432331
 20
569.3058201060306
 30
0.0
 11
1832.204305432331
 21
578.3743068064316
 31
0.0
  0
LINE
  5
41A
330
2
100
AcDbEntity
  8
0
100
AcDbLine
 10
1832.204305432331
 20
595.7555729821989
 30
0.0
 11
1832.204305432331
 21
604.8240596825999
 31
0.0
  0
ARC
  5
41B
330
2
100
AcDbEntity
  8
0
100
AcDbCircle
 10
1826.914354857098
 20
710.6230711872731
 30
0.0
 40
5.289950575233655
100
AcDbArc
 50
0.0
 51
180.0
  0
ARC
  5
41C
330
2
100
AcDbEntity
  8
0
100
AcDbCircle
 10
1826.914354857098
 20
701.5545844868722
 30
0.0
 40
5.289950575233655
100
AcDbArc
 50
180.0
 51
0.0
  0
ARC
  5
41D
330
2
100
AcDbEntity
  8
0
100
AcDbCircle
 10
1826.914354857098
 20
675.104831610704
 30
0.0
 40
5.289950575233655
100
AcDbArc
 50
180.0
 51
0.0
  0
ARC
  5
41E
330
2
100
AcDbEntity
  8
0
100
AcDbCircle
 10
1826.914354857098
 20
684.1733183111049
 30
0.0
 40
5.289950575233655
100
AcDbArc
 50
0.0
 51
180.0
  0
LINE
  5
41F
330
2
100
AcDbEntity
  8
0
100
AcDbLine
 10
1821.624404281864
 20
701.554584486872
 30
0.0
 11
1821.624404281864
 21
710.623071187273
 31
0.0
  0
LINE
  5
420
330
2
100
AcDbEntity
  8
0
100
AcDbLine
 10
1821.624404281864
 20
675.1048316107037
 30
0.0
 11
1821.624404281864
 21
684.1733183111046
 31
0.0
  0
LINE
  5
421
330
2
100
AcDbEntity
  8
0
100
AcDbLine
 10
1797.81038199714
 20
701.554584486872
 30
0.0
 11
1797.81038199714
 21
710.623071187273
 31
0.0
  0
LINE
  5
422
330
2
100
AcDbEntity
  8
0
100
AcDbLine
 10
1797.81038199714
 20
675.1048316107037
 30
0.0
 11
1797.81038199714
 21
684.1733183111046
 31
0.0
  0
CIRCLE
  5
423
330
2
100
AcDbEntity
  8
0
100
AcDbCircle
 10
1809.717393139502
 20
683.4176110860713
 30
0.0
 40
5.289950575233655
  0
CIRCLE
  5
424
330
2
100
AcDbEntity
  8
0
100
AcDbCircle
 10
1809.717393139502
 20
709.8673639622396
 30
0.0
 40
5.289950575233655
  0
LINE
  5
425
330
2
100
AcDbEntity
  8
0
100
AcDbLine
 10
1832.204305432331
 20
701.554584486872
 30
0.0
 11
1832.204305432331
 21
710.623071187273
 31
0.0
  0
LINE
  5
426
330
2
100
AcDbEntity
  8
0
100
AcDbLine
 10
1832.204305432331
 20
675.1048316107037
 30
0.0
 11
1832.204305432331
 21
684.1733183111046
 31
0.0
  0
POINT
  5
427
330
2
100
AcDbEntity
  8
DEFPOINTS
  6
ByBlock
 62
     7
100
AcDbPoint
 10
1955.153855369282
 20
616.6112632607055
 30
0.0
  0
POINT
  5
428
330
2
100
AcDbEntity
  8
DEFPOINTS
  6
ByBlock
 62
     7
100
AcDbPoint
 10
1955.153855369282
 20
616.6112632607055
 30
0.0
  0
ARC
  5
429
330
2
100
AcDbEntity
  8
0
100
AcDbCircle
 10
2157.853562438323
 20
650.3281490405319
 30
0.0
 40
26.44975287616828
100
AcDbArc
 50
44.415308597193
 51
135.584691402807
  0
ARC
  5
42A
330
2
100
AcDbEntity
  8
0
100
AcDbCircle
 10
2157.853562438323
 20
684.3349741670339
 30
0.0
 40
26.44975287616828
100
AcDbArc
 50
44.415308597193
 51
135.584691402807
  0
ARC
  5
42B
330
2
100
AcDbEntity
  8
0
100
AcDbCircle
 10
2157.853562438323
 20
663.9308790911326
 30
0.0
 40
26.44975287616828
100
AcDbArc
 50
44.415308597193
 51
135.584691402807
  0
ARC
  5
42C
330
2
100
AcDbEntity
  8
0
100
AcDbCircle
 10
2157.853562438323
 20
670.7322441164331
 30
0.0
 40
26.44975287616828
100
AcDbArc
 50
44.415308597193
 51
135.584691402807
  0
ARC
  5
42D
330
2
100
AcDbEntity
  8
0
100
AcDbCircle
 10
2157.853562438323
 20
677.5336091417336
 30
0.0
 40
26.44975287616828
100
AcDbArc
 50
44.415308597193
 51
135.584691402807
  0
LINE
  5
42E
330
2
100
AcDbEntity
  8
0
100
AcDbLine
 10
2138.960881812488
 20
650.3281490405319
 30
0.0
 11
2176.746243064158
 21
650.3281490405319
 31
0.0
  0
ARC
  5
42F
330
2
100
AcDbEntity
  8
0
100
AcDbCircle
 10
2157.853562438323
 20
657.1295140658324
 30
0.0
 40
26.44975287616828
100
AcDbArc
 50
44.415308597193
 51
135.584691402807
  0
ARC
  5
430
330
2
100
AcDbEntity
  8
0
100
AcDbCircle
 10
2157.853562438323
 20
643.5267840152314
 30
0.0
 40
26.44975287616828
100
AcDbArc
 50
44.415308597193
 51
135.584691402807
  0
ARC
  5
431
330
2
100
AcDbEntity
  8
0
100
AcDbCircle
 10
2157.853562438323
 20
636.7254189899309
 30
0.0
 40
26.44975287616828
100
AcDbArc
 50
44.415308597193
 51
135.584691402807
  0
ARC
  5
432
330
2
100
AcDbEntity
  8
0
100
AcDbCircle
 10
2157.853562438323
 20
629.9240539646307
 30
0.0
 40
26.44975287616828
100
AcDbArc
 50
50.48234720282692
 51
129.517652797173
  0
ARC
  5
433
330
2
100
AcDbEntity
  8
0
100
AcDbCircle
 10
2157.853562438323
 20
697.9377042176349
 30
0.0
 40
26.44975287616828
100
AcDbArc
 50
44.415308597193
 51
135.584691402807
  0
ARC
  5
434
330
2
100
AcDbEntity
  8
0
100
AcDbCircle
 10
2157.853562438323
 20
691.1363391923344
 30
0.0
 40
26.44975287616828
100
AcDbArc
 50
44.415308597193
 51
135.584691402807
  0
LINE
  5
435
330
2
100
AcDbEntity
  8
0
100
AcDbLine
 10
2176.746243064158
 20
725.8988715438698
 30
0.0
 11
2138.960881812488
 21
725.8988715438698
 31
0.0
  0
LINE
  5
436
330
2
100
AcDbEntity
  8
0
100
AcDbLine
 10
2138.960881812488
 20
650.3281490405319
 30
0.0
 11
2138.960881812488
 21
725.8988715438698
 31
0.0
  0
ARC
  5
437
330
2
100
AcDbEntity
  8
0
100
AcDbCircle
 10
2157.853562438323
 20
704.7390692429353
 30
0.0
 40
26.44975287616828
100
AcDbArc
 50
126.8698976458444
 51
135.584691402807
  0
LINE
  5
438
330
2
100
AcDbEntity
  8
0
100
AcDbLine
 10
2176.746243064158
 20
650.3281490405319
 30
0.0
 11
2176.746243064158
 21
725.8988715438698
 31
0.0
  0
LINE
  5
439
330
2
100
AcDbEntity
  8
0
100
AcDbLine
 10
2176.746243064158
 20
725.8988715438698
 30
0.0
 11
2182.298565593986
 21
725.8988715438698
 31
0.0
  0
ARC
  5
43A
330
2
100
AcDbEntity
  8
0
100
AcDbCircle
 10
2157.853562438323
 20
704.7390692429353
 30
0.0
 40
26.44975287616828
100
AcDbArc
 50
44.415308597193
 51
53.1301023541555
  0
LINE
  5
43B
330
2
100
AcDbEntity
  8
0
370
    40
100
AcDbLine
 10
2632.120437519783
 20
588.1290125353742
 30
0.0
 11
2638.923714240458
 21
628.073761369613
 31
0.0
  0
LINE
  5
43C
330
2
100
AcDbEntity
  8
0
370
    40
100
AcDbLine
 10
2649.883811924295
 20
581.4109198465034
 30
0.0
 11
2632.120437519784
 21
588.1290125353744
 31
0.0
  0
LINE
  5
43D
330
2
100
AcDbEntity
  8
0
370
    40
100
AcDbLine
 10
2613.054654787334
 20
581.1851000890073
 30
0.0
 11
2649.883811924295
 21
581.4109198465034
 31
0.0
  0
LINE
  5
43E
330
2
100
AcDbEntity
  8
0
370
    40
100
AcDbLine
 10
2632.120437519784
 20
588.1290125353744
 30
0.0
 11
2660.136357467751
 21
752.6216433115141
 31
0.0
  0
LINE
  5
43F
330
2
100
AcDbEntity
  8
0
370
    40
100
AcDbLine
 10
2630.005700363406
 20
575.7125479360065
 30
0.0
 11
2613.054654787334
 21
581.1851000890073
 31
0.0
  0
LINE
  5
440
330
2
100
AcDbEntity
  8
0
100
AcDbLine
 10
2636.971453960422
 20
616.6112632607055
 30
0.0
 11
2879.077654101396
 21
616.6112632607053
 31
0.0
  0
LEADER
  5
441
330
2
100
AcDbEntity
  8
0
100
AcDbLeader
  3
STANDARD
 76
     3
 10
3256.605512620479
 20
484.2541010534029
 30
0.0
 10
3256.605512620479
 20
771.2465329721498
 30
0.0
 10
3428.163997532662
 20
771.2465329721498
 30
0.0
1001
ACAD
1000
DSTYLE
1002
{
1070
   147
1040
10.0
1070
    77
1070
     0
1002
}
  0
LEADER
  5
442
330
2
100
AcDbEntity
  8
0
100
AcDbLeader
  3
STANDARD
 76
     3
 10
3290.050945407574
 20
682.6844616454472
 30
0.0
 10
3379.698586069613
 20
682.6844616454472
 30
0.0
 10
3379.698586069613
 20
151.9283637770086
 30
0.0
1001
ACAD
1000
DSTYLE
1002
{
1070
   147
1040
10.0
1070
    77
1070
     0
1002
}
  0
LEADER
  5
443
330
2
100
AcDbEntity
  8
0
100
AcDbLeader
  3
STANDARD
 76
     3
 10
3178.032359266467
 20
557.1748900118302
 30
0.0
 10
3178.032359266467
 20
852.4689529403495
 30
0.0
 10
3357.810240373013
 20
852.4689529403495
 30
0.0
1001
ACAD
1000
DSTYLE
1002
{
1070
   147
1040
10.0
1070
    77
1070
     0
1002
}
  0
LINE
  5
444
330
2
100
AcDbEntity
  8
0
370
    40
100
AcDbLine
 10
3297.503180671702
 20
533.909784903358
 30
0.0
 11
3304.622909119114
 21
575.7125479360064
 31
0.0
  0
LINE
  5
445
330
2
100
AcDbEntity
  8
0
100
AcDbLine
 10
2941.887689440138
 20
705.8896519042439
 30
0.0
 11
2941.887689440139
 21
441.2541010534028
 31
0.0
  0
LINE
  5
446
330
2
100
AcDbEntity
  8
0
100
AcDbLine
 10
2946.887689440139
 20
441.2541010534028
 30
0.0
 11
2946.887689440138
 21
705.8896519042439
 31
0.0
  0
LINE
  5
447
330
2
100
AcDbEntity
  8
0
100
AcDbLine
 10
3026.887689440138
 20
705.8896519042439
 30
0.0
 11
3026.887689440138
 21
616.6112632607055
 31
0.0
  0
ARC
  5
448
330
2
100
AcDbEntity
  8
0
100
AcDbCircle
 10
3009.659033159606
 20
562.0384349053615
 30
0.0
 40
5.289950575233655
100
AcDbArc
 50
117.853108213191
 51
180.0
  0
CIRCLE
  5
449
330
2
100
AcDbEntity
  8
0
100
AcDbCircle
 10
2992.462071442011
 20
568.8397999306617
 30
0.0
 40
5.289950575233655
  0
ARC
  5
44A
330
2
100
AcDbEntity
  8
0
100
AcDbCircle
 10
2975.265109724414
 20
562.0384349053615
 30
0.0
 40
5.289950575233655
100
AcDbArc
 50
0.0
 51
180.0
  0
CIRCLE
  5
44B
330
2
100
AcDbEntity
  8
0
100
AcDbCircle
 10
2958.068148006818
 20
568.8397999306617
 30
0.0
 40
5.289950575233655
  0
LINE
  5
44C
330
2
100
AcDbEntity
  8
0
100
AcDbLine
 10
3007.187534555802
 20
616.6112632607055
 30
0.0
 11
3007.187534555802
 21
446.2541010534027
 31
0.0
  0
MTEXT
  5
44D
330
2
100
AcDbEntity
  8
0
100
AcDbMText
 10
3112.735421824071
 20
-90.37592084496644
 30
0.0
 40
28.0
 41
388.1370999999999
 71
     1
 72
     5
  1
{\Ftxt.shx;REMOVABLE CENTRE MULLION}
  7
STYLE1
 73
     1
 44
1.0
  0
MTEXT
  5
44E
330
2
100
AcDbEntity
  8
0
100
AcDbMText
 10
3228.262280217286
 20
10.73943154374137
 30
0.0
 40
28.0
 41
388.1370999999999
 71
     1
 72
     5
  1
{\Ftxt.shx;MULLION TOP}
  7
STYLE1
 73
     1
 44
1.0
  0
LINE
  5
44F
330
2
100
AcDbEntity
  8
0
370
    40
100
AcDbLine
 10
2949.460939900911
 20
-269.8996887393127
 30
0.0
 11
2949.570469703093
 21
-250.9086844785174
 31
0.0
  0
LINE
  5
450
330
2
100
AcDbEntity
  8
0
370
    40
100
AcDbLine
 10
2936.420007905287
 20
-235.455938904729
 30
0.0
 11
2949.460939900911
 21
-269.8996887393127
 31
0.0
  0
LEADER
  5
451
330
2
100
AcDbEntity
  8
0
100
AcDbLeader
  3
STANDARD
 76
     2
 10
3187.122183842091
 20
151.9283637770086
 30
0.0
 10
3379.698586069613
 20
151.9283637770086
 30
0.0
1001
ACAD
1000
DSTYLE
1002
{
1070
   147
1040
10.0
1070
    77
1070
     0
1002
}
  0
LEADER
  5
452
330
2
100
AcDbEntity
  8
0
100
AcDbLeader
  3
STANDARD
 76
     3
 10
2993.887689440138
 20
181.7328061899643
 30
0.0
 10
3174.936673243897
 20
3.085724929227581
 30
0.0
 10
3215.490032233337
 20
3.085724929227581
 30
0.0
1001
ACAD
1000
DSTYLE
1002
{
1070
   147
1040
10.0
1070
    77
1070
     0
1002
}
  0
LINE
  5
453
330
2
100
AcDbEntity
  8
0
100
AcDbLine
 10
3289.045964946366
 20
484.2541010534029
 30
0.0
 11
2969.404921745453
 21
484.254101053403
 31
0.0
  0
LINE
  5
454
330
2
100
AcDbEntity
  8
0
100
AcDbLine
 10
3282.573912350456
 20
446.2541010534027
 30
0.0
 11
2954.599090916195
 21
446.2541010534027
 31
0.0
  0
LINE
  5
455
330
2
100
AcDbEntity
  8
0
100
AcDbLine
 10
3260.031214580692
 20
313.8969388461004
 30
0.0
 11
3007.187534555802
 21
313.8969388461002
 31
0.0
  0
LINE
  5
456
330
2
100
AcDbEntity
  8
0
  6
DASHED
 48
60.0
100
AcDbLine
 10
3270.154249680082
 20
373.3333120949754
 30
0.0
 11
3054.599090916195
 21
373.3333120949754
 31
0.0
  0
LINE
  5
457
330
2
100
AcDbEntity
  8
0
  6
DASHED
 48
60.0
100
AcDbLine
 10
3301.465627616739
 20
557.1748900118302
 30
0.0
 11
3054.599090916195
 21
557.1748900118303
 31
0.0
  0
LINE
  5
458
330
2
100
AcDbEntity
  8
0
100
AcDbLine
 10
3032.447803763263
 20
116.1287129420952
 30
0.0
 11
3226.347889321467
 21
116.1287129420952
 31
0.0
  0
LINE
  5
459
330
2
100
AcDbEntity
  8
0
100
AcDbLine
 10
3032.447803763263
 20
121.7965171298455
 30
0.0
 11
3227.313213711111
 21
121.7965171298456
 31
0.0
  0
LINE
  5
45A
330
2
100
AcDbEntity
  8
0
100
AcDbLine
 10
3032.447803763263
 20
194.7184082949124
 30
0.0
 11
3239.733064106204
 21
194.7184082949124
 31
0.0
  0
LINE
  5
45B
330
2
100
AcDbEntity
  8
0
  6
DASHED
 48
30.0
100
AcDbLine
 10
2944.387689440139
 20
351.2541010534028
 30
0.0
 11
2944.387689440139
 21
-209.5117483698413
 31
0.0
  0
LINE
  5
45C
330
2
100
AcDbEntity
  8
0
100
AcDbLine
 10
3032.447803763263
 20
260.4839843232966
 30
0.0
 11
3032.447803763263
 21
102.9816280566319
 31
0.0
  0
LEADER
  5
45D
330
2
100
AcDbEntity
  8
0
100
AcDbLeader
  3
STANDARD
 76
     2
 10
2994.387689440138
 20
-98.13770539887187
 30
0.0
 10
3095.315305458716
 20
-98.13770539887187
 30
0.0
1001
ACAD
1000
DSTYLE
1002
{
1070
   147
1040
10.0
1070
    77
1070
     0
1002
}
  0
LINE
  5
45E
330
2
100
AcDbEntity
  8
0
100
AcDbLine
 10
3032.947803763264
 20
46.1484277934469
 30
0.0
 11
3032.947803763264
 21
-235.123594860119
 31
0.0
  0
LINE
  5
45F
330
2
100
AcDbEntity
  8
0
370
    40
100
AcDbLine
 10
2949.570469703093
 20
-250.9086844785169
 30
0.0
 11
2989.383221655422
 21
-243.3712899982729
 31
0.0
  0
LINE
  5
460
330
2
100
AcDbEntity
  8
0
370
    40
100
AcDbLine
 10
2949.570469703093
 20
-250.9086844785174
 30
0.0
 11
3043.155995250629
 21
-233.1909686939531
 31
0.0
  0
LINE
  5
461
330
2
100
AcDbEntity
  8
0
370
    40
100
AcDbLine
 10
2937.195035142949
 20
-253.2516155136772
 30
0.0
 11
2936.420007905287
 21
-235.455938904729
 31
0.0
  0
LINE
  5
462
330
2
100
AcDbEntity
  8
0
100
AcDbLine
 10
3032.947803763264
 20
46.1484277934469
 30
0.0
 11
2944.387689440139
 21
46.1484277934469
 31
0.0
  0
LINE
  5
463
330
2
100
AcDbEntity
  8
0
100
AcDbLine
 10
2944.387689440139
 20
441.2541010534027
 30
0.0
 11
2944.387689440139
 21
351.2541010534028
 31
0.0
  0
LINE
  5
464
330
2
100
AcDbEntity
  8
0
100
AcDbLine
 10
2939.387689440138
 20
351.2541010534028
 30
0.0
 11
2939.387689440138
 21
436.2541010534028
 31
0.0
  0
LINE
  5
465
330
2
100
AcDbEntity
  8
0
100
AcDbLine
 10
2949.387689440138
 20
351.2541010534028
 30
0.0
 11
2949.387689440138
 21
436.2541010534028
 31
0.0
  0
LINE
  5
466
330
2
100
AcDbEntity
  8
0
100
AcDbLine
 10
2944.387689440139
 20
441.2541010534027
 30
0.0
 11
2944.387689440139
 21
351.2541010534028
 31
0.0
  0
LINE
  5
467
330
2
100
AcDbEntity
  8
0
100
AcDbLine
 10
3007.187534555802
 20
313.8969388461002
 30
0.0
 11
3007.187534555802
 21
450.3260785337938
 31
0.0
  0
LINE
  5
468
330
2
100
AcDbEntity
  8
0
100
AcDbLine
 10
2941.887689440138
 20
351.2541010534028
 30
0.0
 11
3007.187534555802
 21
351.2541010534029
 31
0.0
  0
LINE
  5
469
330
2
100
AcDbEntity
  8
0
100
AcDbLine
 10
2944.387689440139
 20
351.2541010534028
 30
0.0
 11
2939.387689440138
 21
351.2541010534028
 31
0.0
  0
LINE
  5
46A
330
2
100
AcDbEntity
  8
0
100
AcDbLine
 10
2944.387689440139
 20
351.2541010534028
 30
0.0
 11
2949.387689440138
 21
351.2541010534028
 31
0.0
  0
LINE
  5
46B
330
2
100
AcDbEntity
  8
0
100
AcDbLine
 10
2941.887689440139
 20
351.2541010534028
 30
0.0
 11
2946.887689440139
 21
351.2541010534028
 31
0.0
  0
LINE
  5
46C
330
2
100
AcDbEntity
  8
0
100
AcDbLine
 10
3039.947803763263
 20
267.4839843232966
 30
0.0
 11
3040.447803763264
 21
267.4839843232966
 31
0.0
  0
ARC
  5
46D
330
2
100
AcDbEntity
  8
0
100
AcDbCircle
 10
3039.947803763263
 20
260.4839843232966
 30
0.0
 40
7.0
100
AcDbArc
 50
90.0
 51
180.0
  0
LINE
  5
46E
330
2
100
AcDbEntity
  8
0
100
AcDbLine
 10
2925.370457134825
 20
446.2541010534027
 30
0.0
 11
2925.370457134825
 21
491.9169673908144
 31
0.0
  0
LINE
  5
46F
330
2
100
AcDbEntity
  8
0
100
AcDbLine
 10
2963.404921745453
 20
446.2541010534027
 30
0.0
 11
2963.404921745452
 21
491.9169673908144
 31
0.0
  0
LINE
  5
470
330
2
100
AcDbEntity
  8
0
100
AcDbLine
 10
2969.404921745453
 20
446.2541010534027
 30
0.0
 11
2969.404921745452
 21
491.9169673908144
 31
0.0
  0
LINE
  5
471
330
2
100
AcDbEntity
  8
0
100
AcDbLine
 10
2934.176287964083
 20
484.2541010534029
 30
0.0
 11
2934.176287964083
 21
446.2541010534027
 31
0.0
  0
LINE
  5
472
330
2
100
AcDbEntity
  8
0
100
AcDbLine
 10
2954.599090916195
 20
484.2541010534029
 30
0.0
 11
2954.599090916195
 21
446.2541010534027
 31
0.0
  0
LINE
  5
473
330
2
100
AcDbEntity
  8
0
100
AcDbLine
 10
2919.370457134824
 20
446.2541010534027
 30
0.0
 11
2919.370457134824
 21
491.9169673908144
 31
0.0
  0
LINE
  5
474
330
2
100
AcDbEntity
  8
0
100
AcDbLine
 10
2919.370457134824
 20
484.2541010534029
 30
0.0
 11
2919.370457134824
 21
446.2541010534027
 31
0.0
  0
LINE
  5
475
330
2
100
AcDbEntity
  8
0
100
AcDbLine
 10
2954.904921745452
 20
441.2541010534027
 30
0.0
 11
2949.904921745453
 21
441.2541010534027
 31
0.0
  0
LINE
  5
476
330
2
100
AcDbEntity
  8
0
100
AcDbLine
 10
2954.904921745452
 20
441.2541010534027
 30
0.0
 11
2949.904921745453
 21
441.2541010534027
 31
0.0
  0
LINE
  5
477
330
2
100
AcDbEntity
  8
0
100
AcDbLine
 10
2984.387689440138
 20
436.2541010534028
 30
0.0
 11
2944.387689440139
 21
436.2541010534028
 31
0.0
  0
LINE
  5
478
330
2
100
AcDbEntity
  8
0
100
AcDbLine
 10
2949.387689440138
 20
441.2541010534027
 30
0.0
 11
2984.387689440138
 21
441.2541010534027
 31
0.0
  0
LINE
  5
479
330
2
100
AcDbEntity
  8
0
100
AcDbLine
 10
2949.904921745453
 20
446.2541010534027
 30
0.0
 11
2982.904921745452
 21
446.2541010534027
 31
0.0
  0
LINE
  5
47A
330
2
100
AcDbEntity
  8
0
100
AcDbLine
 10
2949.387689440138
 20
441.2541010534027
 30
0.0
 11
2984.387689440138
 21
441.2541010534027
 31
0.0
  0
LINE
  5
47B
330
2
100
AcDbEntity
  8
0
100
AcDbLine
 10
2949.387689440138
 20
441.2541010534027
 30
0.0
 11
2984.387689440138
 21
441.2541010534027
 31
0.0
  0
LINE
  5
47C
330
2
100
AcDbEntity
  8
0
100
AcDbLine
 10
2933.870457134824
 20
441.2541010534027
 30
0.0
 11
2938.870457134825
 21
441.2541010534027
 31
0.0
  0
LINE
  5
47D
330
2
100
AcDbEntity
  8
0
100
AcDbLine
 10
2949.387689440138
 20
441.2541010534027
 30
0.0
 11
2944.387689440139
 21
441.2541010534027
 31
0.0
  0
LINE
  5
47E
330
2
100
AcDbEntity
  8
0
100
AcDbLine
 10
2933.870457134824
 20
441.2541010534027
 30
0.0
 11
2938.870457134825
 21
441.2541010534027
 31
0.0
  0
LINE
  5
47F
330
2
100
AcDbEntity
  8
0
100
AcDbLine
 10
2938.870457134825
 20
441.2541010534027
 30
0.0
 11
2938.870457134825
 21
436.2541010534028
 31
0.0
  0
LINE
  5
480
330
2
100
AcDbEntity
  8
0
100
AcDbLine
 10
2938.870457134825
 20
441.2541010534027
 30
0.0
 11
2938.870457134825
 21
446.2541010534027
 31
0.0
  0
LINE
  5
481
330
2
100
AcDbEntity
  8
0
100
AcDbLine
 10
2925.370457134825
 20
423.1678742663143
 30
0.0
 11
2925.370457134825
 21
429.2541010534027
 31
0.0
  0
LINE
  5
482
330
2
100
AcDbEntity
  8
0
100
AcDbLine
 10
2927.529273221468
 20
436.2541010534028
 30
0.0
 11
2927.529273221468
 21
429.2541010534027
 31
0.0
  0
LINE
  5
483
330
2
100
AcDbEntity
  8
0
100
AcDbLine
 10
2930.929273221468
 20
436.2541010534028
 30
0.0
 11
2930.929273221468
 21
429.2541010534027
 31
0.0
  0
LINE
  5
484
330
2
100
AcDbEntity
  8
0
100
AcDbLine
 10
2949.904921745453
 20
441.2541010534027
 30
0.0
 11
2949.904921745453
 21
436.2541010534028
 31
0.0
  0
LINE
  5
485
330
2
100
AcDbEntity
  8
0
100
AcDbLine
 10
2949.904921745453
 20
441.2541010534027
 30
0.0
 11
2949.904921745453
 21
446.2541010534027
 31
0.0
  0
LINE
  5
486
330
2
100
AcDbEntity
  8
0
100
AcDbLine
 10
2919.370457134824
 20
423.1678742663143
 30
0.0
 11
2919.370457134824
 21
429.2541010534027
 31
0.0
  0
LINE
  5
487
330
2
100
AcDbEntity
  8
0
100
AcDbLine
 10
2917.211641048181
 20
436.2541010534028
 30
0.0
 11
2917.211641048181
 21
429.2541010534027
 31
0.0
  0
LINE
  5
488
330
2
100
AcDbEntity
  8
0
100
AcDbLine
 10
2919.370457134824
 20
423.1678742663143
 30
0.0
 11
2925.370457134825
 21
423.1678742663143
 31
0.0
  0
LINE
  5
489
330
2
100
AcDbEntity
  8
0
100
AcDbLine
 10
2919.370457134824
 20
424.0678742663143
 30
0.0
 11
2925.370457134825
 21
424.0678742663143
 31
0.0
  0
LINE
  5
48A
330
2
100
AcDbEntity
  8
0
100
AcDbLine
 10
2919.370457134824
 20
425.8678742663144
 30
0.0
 11
2925.370457134825
 21
425.8678742663144
 31
0.0
  0
LINE
  5
48B
330
2
100
AcDbEntity
  8
0
100
AcDbLine
 10
2919.370457134824
 20
424.9678742663142
 30
0.0
 11
2925.370457134825
 21
424.9678742663142
 31
0.0
  0
LINE
  5
48C
330
2
100
AcDbEntity
  8
0
100
AcDbLine
 10
2919.370457134824
 20
428.5678742663144
 30
0.0
 11
2925.370457134825
 21
428.5678742663144
 31
0.0
  0
LINE
  5
48D
330
2
100
AcDbEntity
  8
0
100
AcDbLine
 10
2919.370457134824
 20
427.6678742663143
 30
0.0
 11
2925.370457134825
 21
427.6678742663143
 31
0.0
  0
LINE
  5
48E
330
2
100
AcDbEntity
  8
0
100
AcDbLine
 10
2919.370457134824
 20
426.7678742663143
 30
0.0
 11
2925.370457134825
 21
426.7678742663143
 31
0.0
  0
ARC
  5
48F
330
2
100
AcDbEntity
  8
0
100
AcDbCircle
 10
2975.265109724414
 20
376.8901647721834
 30
0.0
 40
5.289950575233655
100
AcDbArc
 50
0.0
 51
180.0
  0
LINE
  5
490
330
2
100
AcDbEntity
  8
0
100
AcDbLine
 10
2980.555060299648
 20
367.8216780717823
 30
0.0
 11
2980.555060299648
 21
376.8901647721832
 31
0.0
  0
LINE
  5
491
330
2
100
AcDbEntity
  8
0
100
AcDbLine
 10
2969.975159149181
 20
367.8216780717823
 30
0.0
 11
2969.975159149181
 21
376.8901647721832
 31
0.0
  0
ARC
  5
492
330
2
100
AcDbEntity
  8
0
100
AcDbCircle
 10
2975.265109724414
 20
367.8216780717825
 30
0.0
 40
5.289950575233655
100
AcDbArc
 50
180.0
 51
0.0
  0
ARC
  5
493
330
2
100
AcDbEntity
  8
0
100
AcDbCircle
 10
2975.265109724414
 20
403.3399176483517
 30
0.0
 40
5.289950575233655
100
AcDbArc
 50
0.0
 51
180.0
  0
LINE
  5
494
330
2
100
AcDbEntity
  8
0
100
AcDbLine
 10
2969.975159149181
 20
394.2714309479506
 30
0.0
 11
2969.975159149181
 21
403.3399176483515
 31
0.0
  0
LINE
  5
495
330
2
100
AcDbEntity
  8
0
100
AcDbLine
 10
2980.555060299648
 20
394.2714309479506
 30
0.0
 11
2980.555060299648
 21
403.3399176483515
 31
0.0
  0
ARC
  5
496
330
2
100
AcDbEntity
  8
0
100
AcDbCircle
 10
2975.265109724414
 20
394.2714309479508
 30
0.0
 40
5.289950575233655
100
AcDbArc
 50
180.0
 51
0.0
  0
LINE
  5
497
330
2
100
AcDbEntity
  8
0
100
AcDbLine
 10
2984.387689440138
 20
441.2541010534027
 30
0.0
 11
2984.387689440138
 21
436.2541010534028
 31
0.0
  0
LINE
  5
498
330
2
100
AcDbEntity
  8
0
100
AcDbLine
 10
2963.404921745453
 20
423.1678742663143
 30
0.0
 11
2963.404921745452
 21
429.2541010534027
 31
0.0
  0
LINE
  5
499
330
2
100
AcDbEntity
  8
0
100
AcDbLine
 10
2961.246105658809
 20
436.2541010534028
 30
0.0
 11
2961.246105658809
 21
429.2541010534027
 31
0.0
  0
LINE
  5
49A
330
2
100
AcDbEntity
  8
0
100
AcDbLine
 10
2969.404921745452
 20
423.1678742663143
 30
0.0
 11
2969.404921745452
 21
429.2541010534027
 31
0.0
  0
LINE
  5
49B
330
2
100
AcDbEntity
  8
0
100
AcDbLine
 10
2971.563737832096
 20
436.2541010534028
 30
0.0
 11
2971.563737832096
 21
429.2541010534027
 31
0.0
  0
LINE
  5
49C
330
2
100
AcDbEntity
  8
0
100
AcDbLine
 10
2974.963737832096
 20
436.2541010534028
 30
0.0
 11
2974.963737832096
 21
429.2541010534027
 31
0.0
  0
LINE
  5
49D
330
2
100
AcDbEntity
  8
0
100
AcDbLine
 10
2982.904921745452
 20
446.2541010534027
 30
0.0
 11
2982.904921745452
 21
441.2541010534027
 31
0.0
  0
LINE
  5
49E
330
2
100
AcDbEntity
  8
0
100
AcDbLine
 10
2969.404921745452
 20
426.7678742663143
 30
0.0
 11
2963.404921745453
 21
426.7678742663143
 31
0.0
  0
LINE
  5
49F
330
2
100
AcDbEntity
  8
0
100
AcDbLine
 10
2969.404921745452
 20
427.6678742663143
 30
0.0
 11
2963.404921745453
 21
427.6678742663143
 31
0.0
  0
LINE
  5
4A0
330
2
100
AcDbEntity
  8
0
100
AcDbLine
 10
2969.404921745452
 20
428.5678742663144
 30
0.0
 11
2963.404921745453
 21
428.5678742663144
 31
0.0
  0
LINE
  5
4A1
330
2
100
AcDbEntity
  8
0
100
AcDbLine
 10
2969.404921745452
 20
424.9678742663142
 30
0.0
 11
2963.404921745453
 21
424.9678742663142
 31
0.0
  0
LINE
  5
4A2
330
2
100
AcDbEntity
  8
0
100
AcDbLine
 10
2969.404921745452
 20
425.8678742663144
 30
0.0
 11
2963.404921745453
 21
425.8678742663144
 31
0.0
  0
LINE
  5
4A3
330
2
100
AcDbEntity
  8
0
100
AcDbLine
 10
2969.404921745452
 20
424.0678742663143
 30
0.0
 11
2963.404921745453
 21
424.0678742663143
 31
0.0
  0
LINE
  5
4A4
330
2
100
AcDbEntity
  8
0
100
AcDbLine
 10
2969.404921745452
 20
423.1678742663143
 30
0.0
 11
2963.404921745453
 21
423.1678742663143
 31
0.0
  0
LINE
  5
4A5
330
2
100
AcDbEntity
  8
0
100
AcDbLine
 10
2984.387689440138
 20
441.2541010534027
 30
0.0
 11
2984.387689440138
 21
436.2541010534028
 31
0.0
  0
LINE
  5
4A6
330
2
100
AcDbEntity
  8
0
100
AcDbLine
 10
2984.387689440138
 20
441.2541010534027
 30
0.0
 11
2984.387689440138
 21
436.2541010534028
 31
0.0
  0
LINE
  5
4A7
330
2
100
AcDbEntity
  8
0
100
AcDbLine
 10
2957.846105658809
 20
436.2541010534028
 30
0.0
 11
2957.846105658809
 21
429.2541010534027
 31
0.0
  0
CIRCLE
  5
4A8
330
2
100
AcDbEntity
  8
0
100
AcDbCircle
 10
2958.068148006818
 20
387.4700659226507
 30
0.0
 40
5.289950575233655
  0
CIRCLE
  5
4A9
330
2
100
AcDbEntity
  8
0
100
AcDbCircle
 10
2958.068148006818
 20
410.141282673652
 30
0.0
 40
5.289950575233655
  0
LINE
  5
4AA
330
2
100
AcDbEntity
  8
0
100
AcDbLine
 10
2974.963737832096
 20
429.2541010534029
 30
0.0
 11
2957.846105658809
 21
429.2541010534027
 31
0.0
  0
LINE
  5
4AB
330
2
100
AcDbEntity
  8
0
100
AcDbLine
 10
2925.370457134825
 20
484.2541010534029
 30
0.0
 11
2934.176287964083
 21
484.2541010534029
 31
0.0
  0
LINE
  5
4AC
330
2
100
AcDbEntity
  8
0
100
AcDbLine
 10
2922.370457134825
 20
494.9169673908144
 30
0.0
 11
2922.370457134825
 21
494.9169673908144
 31
0.0
  0
ARC
  5
4AD
330
2
100
AcDbEntity
  8
0
100
AcDbCircle
 10
2922.370457134825
 20
491.9169673908144
 30
0.0
 40
3.0
100
AcDbArc
 50
90.00000000000055
 51
179.9999999999994
  0
ARC
  5
4AE
330
2
100
AcDbEntity
  8
0
100
AcDbCircle
 10
2922.370457134825
 20
491.9169673908144
 30
0.0
 40
3.0
100
AcDbArc
 50
0.0
 51
90.00000000000111
  0
LINE
  5
4AF
330
2
100
AcDbEntity
  8
0
100
AcDbLine
 10
2980.555060299648
 20
526.5201953287921
 30
0.0
 11
2980.555060299648
 21
535.588682029193
 31
0.0
  0
LINE
  5
4B0
330
2
100
AcDbEntity
  8
0
100
AcDbLine
 10
2969.975159149181
 20
526.5201953287921
 30
0.0
 11
2969.975159149181
 21
535.588682029193
 31
0.0
  0
ARC
  5
4B1
330
2
100
AcDbEntity
  8
0
100
AcDbCircle
 10
2975.265109724414
 20
500.070442452624
 30
0.0
 40
5.289950575233655
100
AcDbArc
 50
180.0
 51
0.0
  0
ARC
  5
4B2
330
2
100
AcDbEntity
  8
0
100
AcDbCircle
 10
2975.265109724414
 20
509.1389291530249
 30
0.0
 40
5.289950575233655
100
AcDbArc
 50
0.0
 51
180.0
  0
ARC
  5
4B3
330
2
100
AcDbEntity
  8
0
100
AcDbCircle
 10
2975.265109724414
 20
526.5201953287924
 30
0.0
 40
5.289950575233655
100
AcDbArc
 50
180.0
 51
0.0
  0
LINE
  5
4B4
330
2
100
AcDbEntity
  8
0
100
AcDbLine
 10
2980.555060299648
 20
500.0704424526237
 30
0.0
 11
2980.555060299648
 21
509.1389291530246
 31
0.0
  0
LINE
  5
4B5
330
2
100
AcDbEntity
  8
0
100
AcDbLine
 10
2969.975159149181
 20
500.0704424526237
 30
0.0
 11
2969.975159149181
 21
509.1389291530246
 31
0.0
  0
ARC
  5
4B6
330
2
100
AcDbEntity
  8
0
100
AcDbCircle
 10
2975.265109724414
 20
535.5886820291932
 30
0.0
 40
5.289950575233655
100
AcDbArc
 50
0.0
 51
180.0
  0
LINE
  5
4B7
330
2
100
AcDbEntity
  8
0
100
AcDbLine
 10
2969.975159149181
 20
552.9699482049602
 30
0.0
 11
2969.975159149181
 21
562.0384349053613
 31
0.0
  0
LINE
  5
4B8
330
2
100
AcDbEntity
  8
0
100
AcDbLine
 10
2980.555060299648
 20
552.9699482049602
 30
0.0
 11
2980.555060299648
 21
562.0384349053613
 31
0.0
  0
ARC
  5
4B9
330
2
100
AcDbEntity
  8
0
100
AcDbCircle
 10
2975.265109724414
 20
552.9699482049604
 30
0.0
 40
5.289950575233655
100
AcDbArc
 50
180.0
 51
0.0
  0
ARC
  5
4BA
330
2
100
AcDbEntity
  8
0
100
AcDbCircle
 10
2966.404921745452
 20
491.9169673908144
 30
0.0
 40
3.0
100
AcDbArc
 50
89.99999999999889
 51
180.0
  0
ARC
  5
4BB
330
2
100
AcDbEntity
  8
0
100
AcDbCircle
 10
2966.404921745452
 20
491.9169673908144
 30
0.0
 40
3.0
100
AcDbArc
 50
0.0000000000005413
 51
89.99999999999948
  0
LINE
  5
4BC
330
2
100
AcDbEntity
  8
0
100
AcDbLine
 10
2966.404921745452
 20
494.9169673908144
 30
0.0
 11
2966.404921745452
 21
494.9169673908144
 31
0.0
  0
CIRCLE
  5
4BD
330
2
100
AcDbEntity
  8
0
100
AcDbCircle
 10
2958.068148006818
 20
500.8261496776576
 30
0.0
 40
5.289950575233655
  0
CIRCLE
  5
4BE
330
2
100
AcDbEntity
  8
0
100
AcDbCircle
 10
2958.068148006818
 20
523.497366428659
 30
0.0
 40
5.289950575233655
  0
CIRCLE
  5
4BF
330
2
100
AcDbEntity
  8
0
100
AcDbCircle
 10
2958.068148006818
 20
546.1685831796603
 30
0.0
 40
5.289950575233655
  0
LINE
  5
4C0
330
2
100
AcDbEntity
  8
0
100
AcDbLine
 10
2954.599090916195
 20
484.2541010534029
 30
0.0
 11
2963.404921745452
 21
484.2541010534029
 31
0.0
  0
ARC
  5
4C1
330
2
100
AcDbEntity
  8
0
100
AcDbCircle
 10
3009.659033159606
 20
429.78967052452
 30
0.0
 40
5.289950575233655
100
AcDbArc
 50
117.8531082131913
 51
180.0
  0
ARC
  5
4C2
330
2
100
AcDbEntity
  8
0
100
AcDbCircle
 10
3009.659033159606
 20
403.3399176483517
 30
0.0
 40
5.289950575233655
100
AcDbArc
 50
117.8531082131913
 51
180.0
  0
ARC
  5
4C3
330
2
100
AcDbEntity
  8
0
100
AcDbCircle
 10
3009.659033159606
 20
394.2714309479508
 30
0.0
 40
5.289950575233655
100
AcDbArc
 50
180.0
 51
242.1468917868086
  0
ARC
  5
4C4
330
2
100
AcDbEntity
  8
0
100
AcDbCircle
 10
3009.659033159606
 20
420.7211838241192
 30
0.0
 40
5.289950575233655
100
AcDbArc
 50
180.0
 51
242.1468917868086
  0
ARC
  5
4C5
330
2
100
AcDbEntity
  8
0
100
AcDbCircle
 10
3009.659033159606
 20
367.8216780717825
 30
0.0
 40
5.289950575233655
100
AcDbArc
 50
180.0
 51
242.1468917868086
  0
ARC
  5
4C6
330
2
100
AcDbEntity
  8
0
100
AcDbCircle
 10
3009.659033159606
 20
376.8901647721834
 30
0.0
 40
5.289950575233655
100
AcDbArc
 50
117.8531082131913
 51
180.0
  0
LINE
  5
4C7
330
2
100
AcDbEntity
  8
0
100
AcDbLine
 10
3004.369082584372
 20
420.7211838241189
 30
0.0
 11
3004.369082584372
 21
429.7896705245197
 31
0.0
  0
LINE
  5
4C8
330
2
100
AcDbEntity
  8
0
100
AcDbLine
 10
3004.369082584372
 20
367.8216780717823
 30
0.0
 11
3004.369082584372
 21
376.8901647721832
 31
0.0
  0
LINE
  5
4C9
330
2
100
AcDbEntity
  8
0
100
AcDbLine
 10
3004.369082584372
 20
394.2714309479506
 30
0.0
 11
3004.369082584372
 21
403.3399176483515
 31
0.0
  0
CIRCLE
  5
4CA
330
2
100
AcDbEntity
  8
0
100
AcDbCircle
 10
2992.462071442011
 20
387.4700659226507
 30
0.0
 40
5.289950575233655
  0
CIRCLE
  5
4CB
330
2
100
AcDbEntity
  8
0
100
AcDbCircle
 10
2992.462071442011
 20
410.141282673652
 30
0.0
 40
5.289950575233655
  0
CIRCLE
  5
4CC
330
2
100
AcDbEntity
  8
0
100
AcDbCircle
 10
2992.462071442011
 20
432.8124994246534
 30
0.0
 40
5.289950575233655
  0
ARC
  5
4CD
330
2
100
AcDbEntity
  8
0
100
AcDbCircle
 10
3009.659033159606
 20
535.5886820291932
 30
0.0
 40
5.289950575233655
100
AcDbArc
 50
117.853108213191
 51
180.0
  0
ARC
  5
4CE
330
2
100
AcDbEntity
  8
0
100
AcDbCircle
 10
3009.659033159606
 20
552.9699482049604
 30
0.0
 40
5.289950575233655
100
AcDbArc
 50
180.0
 51
242.1468917868089
  0
ARC
  5
4CF
330
2
100
AcDbEntity
  8
0
100
AcDbCircle
 10
3009.659033159606
 20
500.070442452624
 30
0.0
 40
5.289950575233655
100
AcDbArc
 50
180.0
 51
242.1468917868089
  0
ARC
  5
4D0
330
2
100
AcDbEntity
  8
0
100
AcDbCircle
 10
3009.659033159606
 20
509.1389291530249
 30
0.0
 40
5.289950575233655
100
AcDbArc
 50
117.8531082131913
 51
180.0
  0
ARC
  5
4D1
330
2
100
AcDbEntity
  8
0
100
AcDbCircle
 10
3009.659033159606
 20
526.5201953287924
 30
0.0
 40
5.289950575233655
100
AcDbArc
 50
180.0
 51
242.1468917868089
  0
LINE
  5
4D2
330
2
100
AcDbEntity
  8
0
100
AcDbLine
 10
3004.369082584372
 20
526.5201953287921
 30
0.0
 11
3004.369082584372
 21
535.588682029193
 31
0.0
  0
LINE
  5
4D3
330
2
100
AcDbEntity
  8
0
100
AcDbLine
 10
3004.369082584372
 20
500.0704424526237
 30
0.0
 11
3004.369082584372
 21
509.1389291530246
 31
0.0
  0
LINE
  5
4D4
330
2
100
AcDbEntity
  8
0
100
AcDbLine
 10
3004.369082584372
 20
552.9699482049602
 30
0.0
 11
3004.369082584372
 21
562.0384349053613
 31
0.0
  0
CIRCLE
  5
4D5
330
2
100
AcDbEntity
  8
0
100
AcDbCircle
 10
2992.462071442011
 20
523.497366428659
 30
0.0
 40
5.289950575233655
  0
CIRCLE
  5
4D6
330
2
100
AcDbEntity
  8
0
100
AcDbCircle
 10
2992.462071442011
 20
500.8261496776576
 30
0.0
 40
5.289950575233655
  0
CIRCLE
  5
4D7
330
2
100
AcDbEntity
  8
0
100
AcDbCircle
 10
2992.462071442011
 20
546.1685831796603
 30
0.0
 40
5.289950575233655
  0
LINE
  5
4D8
330
2
100
AcDbEntity
  8
0
370
    40
100
AcDbLine
 10
3218.769863866043
 20
71.63510553721244
 30
0.0
 11
3263.978182156272
 21
337.0711584077353
 31
0.0
  0
LINE
  5
4D9
330
2
100
AcDbEntity
  8
0
370
    40
100
AcDbLine
 10
3266.09291931265
 20
349.4876230071031
 30
0.0
 11
3297.503180671702
 21
533.909784903358
 31
0.0
  0
LINE
  5
4DA
330
2
100
AcDbEntity
  8
0
370
    40
100
AcDbLine
 10
3247.027136580201
 20
342.5437105607357
 30
0.0
 11
3283.856293717161
 21
342.7695303182322
 31
0.0
  0
LINE
  5
4DB
330
2
100
AcDbEntity
  8
0
370
    40
100
AcDbLine
 10
3263.978182156272
 20
337.0711584077348
 30
0.0
 11
3247.027136580201
 21
342.5437105607357
 31
0.0
  0
LINE
  5
4DC
330
2
100
AcDbEntity
  8
0
370
    40
100
AcDbLine
 10
3283.856293717161
 20
342.7695303182322
 30
0.0
 11
3266.09291931265
 21
349.4876230071031
 31
0.0
  0
LINE
  5
4DD
330
2
100
AcDbEntity
  8
0
100
AcDbLine
 10
3379.698586069613
 20
417.3064127112279
 30
0.0
 11
3458.958080935057
 21
417.3064127112279
 31
0.0
  0
MTEXT
  5
4DE
330
2
100
AcDbEntity
  8
0
100
AcDbMText
 10
3489.267908086816
 20
434.0791237423468
 30
0.0
 40
28.0
 41
388.1370999999999
 71
     1
 72
     5
  1
{\Ftxt.shx;STRUCTURAL \PFRAMEWORK}
  7
STYLE1
 73
     1
 44
1.0
  0
MTEXT
  5
4DF
330
2
100
AcDbEntity
  8
0
100
AcDbMText
 10
3370.582488356962
 20
904.6397652720379
 30
0.0
 40
28.0
 41
882.5761999999999
 71
     1
 72
     5
  1
{\Ftxt.shx;200mm DIA. SPIRAL \PTUBE ROLLER}
  7
STYLE1
 73
     1
 44
1.0
  0
MTEXT
  5
4E0
330
2
100
AcDbEntity
  8
0
100
AcDbMText
 10
3442.222824916814
 20
778.9002395866637
 30
0.0
 40
28.0
 41
388.1370999999999
 71
     1
 72
     5
  1
{\Ftxt.shx;SHAFT}
  7
STYLE1
 73
     1
 44
1.0
  0
MTEXT
  5
4E1
330
2
100
AcDbEntity
  8
0
100
AcDbMText
 10
3154.011331225132
 20
955.9433733133191
 30
0.0
 40
28.0
 41
388.1370999999999
 71
     1
 72
     5
  1
{\Ftxt.shx;CURTAIN}
  7
STYLE1
 73
     1
 44
1.0
  0
LINE
  5
4E2
330
2
100
AcDbEntity
  8
0
100
AcDbLine
 10
3311.58866271613
 20
616.6112632607053
 30
0.0
 11
3007.187534555802
 21
616.6112632607055
 31
0.0
  0
LINE
  5
4E3
330
2
100
AcDbEntity
  8
0
  6
DASHED
 48
30.0
100
AcDbLine
 10
2944.387689440139
 20
891.5689581551742
 30
0.0
 11
2944.387689440139
 21
705.8896519042439
 31
0.0
  0
LINE
  5
4E4
330
2
100
AcDbEntity
  8
0
100
AcDbLine
 10
2941.887689440138
 20
705.8896519042439
 30
0.0
 11
3026.887689440137
 21
705.8896519042439
 31
0.0
  0
ARC
  5
4E5
330
2
100
AcDbEntity
  8
0
100
AcDbCircle
 10
2975.265109724414
 20
667.8374464100345
 30
0.0
 40
5.289950575233655
100
AcDbArc
 50
0.0
 51
180.0
  0
CIRCLE
  5
4E6
330
2
100
AcDbEntity
  8
0
100
AcDbCircle
 10
2958.068148006818
 20
667.0817391850009
 30
0.0
 40
5.289950575233655
  0
LINE
  5
4E7
330
2
100
AcDbEntity
  8
0
100
AcDbLine
 10
2969.975159149181
 20
632.3192068334651
 30
0.0
 11
2969.975159149181
 21
641.3876935338659
 31
0.0
  0
LINE
  5
4E8
330
2
100
AcDbEntity
  8
0
100
AcDbLine
 10
2980.555060299648
 20
632.3192068334651
 30
0.0
 11
2980.555060299648
 21
641.3876935338659
 31
0.0
  0
ARC
  5
4E9
330
2
100
AcDbEntity
  8
0
100
AcDbCircle
 10
2975.265109724414
 20
605.8694539572971
 30
0.0
 40
5.289950575233655
100
AcDbArc
 50
180.0
 51
0.0
  0
LINE
  5
4EA
330
2
100
AcDbEntity
  8
0
100
AcDbLine
 10
2980.555060299648
 20
579.4197010811285
 30
0.0
 11
2980.555060299648
 21
588.4881877815296
 31
0.0
  0
LINE
  5
4EB
330
2
100
AcDbEntity
  8
0
100
AcDbLine
 10
2969.975159149181
 20
579.4197010811285
 30
0.0
 11
2969.975159149181
 21
588.4881877815296
 31
0.0
  0
ARC
  5
4EC
330
2
100
AcDbEntity
  8
0
100
AcDbCircle
 10
2975.265109724414
 20
579.4197010811287
 30
0.0
 40
5.289950575233655
100
AcDbArc
 50
180.0
 51
0.0
  0
ARC
  5
4ED
330
2
100
AcDbEntity
  8
0
100
AcDbCircle
 10
2975.265109724414
 20
588.4881877815296
 30
0.0
 40
5.289950575233655
100
AcDbArc
 50
0.0
 51
180.0
  0
ARC
  5
4EE
330
2
100
AcDbEntity
  8
0
100
AcDbCircle
 10
2975.265109724414
 20
632.3192068334654
 30
0.0
 40
5.289950575233655
100
AcDbArc
 50
180.0
 51
0.0
  0
LINE
  5
4EF
330
2
100
AcDbEntity
  8
0
100
AcDbLine
 10
2969.975159149181
 20
605.8694539572968
 30
0.0
 11
2969.975159149181
 21
614.9379406576977
 31
0.0
  0
LINE
  5
4F0
330
2
100
AcDbEntity
  8
0
100
AcDbLine
 10
2980.555060299648
 20
605.8694539572968
 30
0.0
 11
2980.555060299648
 21
614.9379406576977
 31
0.0
  0
ARC
  5
4F1
330
2
100
AcDbEntity
  8
0
100
AcDbCircle
 10
2975.265109724414
 20
614.9379406576979
 30
0.0
 40
5.289950575233655
100
AcDbArc
 50
0.0
 51
180.0
  0
ARC
  5
4F2
330
2
100
AcDbEntity
  8
0
100
AcDbCircle
 10
2975.265109724414
 20
658.7689597096336
 30
0.0
 40
5.289950575233655
100
AcDbArc
 50
180.0
 51
0.0
  0
ARC
  5
4F3
330
2
100
AcDbEntity
  8
0
100
AcDbCircle
 10
2975.265109724414
 20
641.3876935338662
 30
0.0
 40
5.289950575233655
100
AcDbArc
 50
0.0
 51
180.0
  0
LINE
  5
4F4
330
2
100
AcDbEntity
  8
0
100
AcDbLine
 10
2980.555060299648
 20
658.7689597096335
 30
0.0
 11
2980.555060299648
 21
667.8374464100343
 31
0.0
  0
LINE
  5
4F5
330
2
100
AcDbEntity
  8
0
100
AcDbLine
 10
2969.975159149181
 20
658.7689597096335
 30
0.0
 11
2969.975159149181
 21
667.8374464100343
 31
0.0
  0
CIRCLE
  5
4F6
330
2
100
AcDbEntity
  8
0
100
AcDbCircle
 10
2958.068148006818
 20
591.511016681663
 30
0.0
 40
5.289950575233655
  0
CIRCLE
  5
4F7
330
2
100
AcDbEntity
  8
0
100
AcDbCircle
 10
2958.068148006818
 20
614.1822334326644
 30
0.0
 40
5.289950575233655
  0
CIRCLE
  5
4F8
330
2
100
AcDbEntity
  8
0
100
AcDbCircle
 10
2958.068148006818
 20
644.4105224339996
 30
0.0
 40
5.289950575233655
  0
LINE
  5
4F9
330
2
100
AcDbEntity
  8
0
100
AcDbLine
 10
2969.975159149181
 20
685.2187125858018
 30
0.0
 11
2969.975159149181
 21
694.2871992862026
 31
0.0
  0
LINE
  5
4FA
330
2
100
AcDbEntity
  8
0
100
AcDbLine
 10
2980.555060299648
 20
685.2187125858018
 30
0.0
 11
2980.555060299648
 21
694.2871992862026
 31
0.0
  0
ARC
  5
4FB
330
2
100
AcDbEntity
  8
0
100
AcDbCircle
 10
2975.265109724414
 20
685.2187125858019
 30
0.0
 40
5.289950575233655
100
AcDbArc
 50
180.0
 51
0.0
  0
ARC
  5
4FC
330
2
100
AcDbEntity
  8
0
100
AcDbCircle
 10
2975.265109724414
 20
694.2871992862028
 30
0.0
 40
5.289950575233655
100
AcDbArc
 50
0.0
 51
180.0
  0
CIRCLE
  5
4FD
330
2
100
AcDbEntity
  8
0
100
AcDbCircle
 10
2958.068148006818
 20
693.5314920611692
 30
0.0
 40
5.289950575233655
  0
ARC
  5
4FE
330
2
100
AcDbEntity
  8
0
100
AcDbCircle
 10
3009.659033159606
 20
667.8374464100345
 30
0.0
 40
5.289950575233655
100
AcDbArc
 50
0.0
 51
180.0
  0
CIRCLE
  5
4FF
330
2
100
AcDbEntity
  8
0
100
AcDbCircle
 10
2992.462071442011
 20
667.0817391850009
 30
0.0
 40
5.289950575233655
  0
LINE
  5
500
330
2
100
AcDbEntity
  8
0
100
AcDbLine
 10
3014.948983734839
 20
632.3192068334651
 30
0.0
 11
3014.948983734839
 21
641.3876935338659
 31
0.0
  0
LINE
  5
501
330
2
100
AcDbEntity
  8
0
100
AcDbLine
 10
3004.369082584372
 20
632.3192068334651
 30
0.0
 11
3004.369082584372
 21
641.3876935338659
 31
0.0
  0
ARC
  5
502
330
2
100
AcDbEntity
  8
0
100
AcDbCircle
 10
3009.659033159606
 20
632.3192068334654
 30
0.0
 40
5.289950575233655
100
AcDbArc
 50
180.0
 51
0.0
  0
ARC
  5
503
330
2
100
AcDbEntity
  8
0
100
AcDbCircle
 10
3009.659033159606
 20
614.9379406576979
 30
0.0
 40
5.289950575233655
100
AcDbArc
 50
18.4405814661382
 51
180.0
  0
ARC
  5
504
330
2
100
AcDbEntity
  8
0
100
AcDbCircle
 10
3009.659033159606
 20
579.4197010811287
 30
0.0
 40
5.289950575233655
100
AcDbArc
 50
180.0
 51
242.1468917868089
  0
ARC
  5
505
330
2
100
AcDbEntity
  8
0
100
AcDbCircle
 10
3009.659033159606
 20
588.4881877815296
 30
0.0
 40
5.289950575233655
100
AcDbArc
 50
117.853108213191
 51
180.0
  0
ARC
  5
506
330
2
100
AcDbEntity
  8
0
100
AcDbCircle
 10
3009.659033159606
 20
605.8694539572971
 30
0.0
 40
5.289950575233655
100
AcDbArc
 50
180.0
 51
242.1468917868089
  0
LINE
  5
507
330
2
100
AcDbEntity
  8
0
100
AcDbLine
 10
3004.369082584372
 20
579.4197010811285
 30
0.0
 11
3004.369082584372
 21
588.4881877815296
 31
0.0
  0
LINE
  5
508
330
2
100
AcDbEntity
  8
0
100
AcDbLine
 10
3004.369082584372
 20
605.8694539572968
 30
0.0
 11
3004.369082584372
 21
614.9379406576977
 31
0.0
  0
ARC
  5
509
330
2
100
AcDbEntity
  8
0
100
AcDbCircle
 10
3009.659033159606
 20
658.7689597096336
 30
0.0
 40
5.289950575233655
100
AcDbArc
 50
180.0
 51
0.0
  0
ARC
  5
50A
330
2
100
AcDbEntity
  8
0
100
AcDbCircle
 10
3009.659033159606
 20
641.3876935338662
 30
0.0
 40
5.289950575233655
100
AcDbArc
 50
0.0
 51
180.0
  0
LINE
  5
50B
330
2
100
AcDbEntity
  8
0
100
AcDbLine
 10
3004.369082584372
 20
658.7689597096335
 30
0.0
 11
3004.369082584372
 21
667.8374464100343
 31
0.0
  0
LINE
  5
50C
330
2
100
AcDbEntity
  8
0
100
AcDbLine
 10
3014.948983734839
 20
658.7689597096335
 30
0.0
 11
3014.948983734839
 21
667.8374464100343
 31
0.0
  0
CIRCLE
  5
50D
330
2
100
AcDbEntity
  8
0
100
AcDbCircle
 10
2992.462071442011
 20
591.511016681663
 30
0.0
 40
5.289950575233655
  0
CIRCLE
  5
50E
330
2
100
AcDbEntity
  8
0
100
AcDbCircle
 10
2992.462071442011
 20
614.1822334326644
 30
0.0
 40
5.289950575233655
  0
CIRCLE
  5
50F
330
2
100
AcDbEntity
  8
0
100
AcDbCircle
 10
2992.462071442011
 20
644.4105224339996
 30
0.0
 40
5.289950575233655
  0
ARC
  5
510
330
2
100
AcDbEntity
  8
0
100
AcDbCircle
 10
3009.659033159606
 20
685.2187125858019
 30
0.0
 40
5.289950575233655
100
AcDbArc
 50
180.0
 51
0.0
  0
ARC
  5
511
330
2
100
AcDbEntity
  8
0
100
AcDbCircle
 10
3009.659033159606
 20
694.2871992862028
 30
0.0
 40
5.289950575233655
100
AcDbArc
 50
0.0
 51
180.0
  0
LINE
  5
512
330
2
100
AcDbEntity
  8
0
100
AcDbLine
 10
3004.369082584372
 20
685.2187125858018
 30
0.0
 11
3004.369082584372
 21
694.2871992862026
 31
0.0
  0
LINE
  5
513
330
2
100
AcDbEntity
  8
0
100
AcDbLine
 10
3014.948983734839
 20
685.2187125858018
 30
0.0
 11
3014.948983734839
 21
694.2871992862026
 31
0.0
  0
CIRCLE
  5
514
330
2
100
AcDbEntity
  8
0
100
AcDbCircle
 10
2992.462071442011
 20
693.5314920611692
 30
0.0
 40
5.289950575233655
  0
LEADER
  5
515
330
2
100
AcDbEntity
  8
0
100
AcDbLeader
  3
STANDARD
 76
     3
 10
3112.027334377644
 20
616.6112632607053
 30
0.0
 10
3112.027334377644
 20
910.2469779005987
 30
0.0
 10
3166.748785149462
 20
910.2469779005987
 30
0.0
1001
ACAD
1000
DSTYLE
1002
{
1070
   147
1040
10.0
1070
    77
1070
     0
1002
}
  0
LINE
  5
516
330
2
100
AcDbEntity
  8
0
370
    40
100
AcDbLine
 10
3306.737646275492
 20
588.1290125353744
 30
0.0
 11
3334.753566223459
 21
752.6216433115141
 31
0.0
  0
LINE
  5
517
330
2
100
AcDbEntity
  8
0
370
    40
100
AcDbLine
 10
3304.622909119113
 20
575.7125479360065
 30
0.0
 11
3287.671863543042
 21
581.1851000890073
 31
0.0
  0
LINE
  5
518
330
2
100
AcDbEntity
  8
0
370
    40
100
AcDbLine
 10
3287.671863543042
 20
581.1851000890073
 30
0.0
 11
3324.501020680003
 21
581.4109198465034
 31
0.0
  0
LINE
  5
519
330
2
100
AcDbEntity
  8
0
370
    40
100
AcDbLine
 10
3324.501020680003
 20
581.4109198465034
 30
0.0
 11
3306.737646275492
 21
588.1290125353744
 31
0.0
  0
LINE
  5
51A
330
2
100
AcDbEntity
  8
0
370
    40
100
AcDbLine
 10
3306.737646275491
 20
588.1290125353742
 30
0.0
 11
3313.540922996166
 21
628.073761369613
 31
0.0
  0
LINE
  5
51B
330
2
100
AcDbEntity
  8
0
100
AcDbLine
 10
2834.176287964083
 20
557.1748900118303
 30
0.0
 11
2834.176287964083
 21
484.254101053403
 31
0.0
  0
LINE
  5
51C
330
2
100
AcDbEntity
  8
0
100
AcDbLine
 10
2834.176287964083
 20
373.3333120949754
 30
0.0
 11
2834.176287964083
 21
446.2541010534027
 31
0.0
  0
LINE
  5
51D
330
2
100
AcDbEntity
  8
0
100
AcDbLine
 10
3054.599090916195
 20
557.1748900118303
 30
0.0
 11
3054.599090916195
 21
484.2541010534029
 31
0.0
  0
LINE
  5
51E
330
2
100
AcDbEntity
  8
0
100
AcDbLine
 10
3054.599090916195
 20
373.3333120949754
 30
0.0
 11
3054.599090916195
 21
446.2541010534027
 31
0.0
  0
LINE
  5
51F
330
2
100
AcDbEntity
  8
0
100
AcDbLine
 10
2855.827575117013
 20
46.1484277934469
 30
0.0
 11
2944.387689440139
 21
46.1484277934469
 31
0.0
  0
LINE
  5
520
330
2
100
AcDbEntity
  8
0
100
AcDbLine
 10
2855.827575117013
 20
46.1484277934469
 30
0.0
 11
2855.827575117014
 21
-268.6561935444872
 31
0.0
  0
LINE
  5
521
330
2
100
AcDbEntity
  8
0
100
AcDbLine
 10
2856.327575117014
 20
260.4839843232966
 30
0.0
 11
2856.327575117014
 21
102.9816280566319
 31
0.0
  0
LINE
  5
522
330
2
100
AcDbEntity
  8
0
100
AcDbLine
 10
2848.827575117013
 20
267.4839843232966
 30
0.0
 11
2848.327575117013
 21
267.4839843232966
 31
0.0
  0
ARC
  5
523
330
2
100
AcDbEntity
  8
0
100
AcDbCircle
 10
2848.827575117013
 20
260.4839843232966
 30
0.0
 40
7.0
100
AcDbArc
 50
0.000000000000007
 51
90.0
  0
LEADER
  5
524
330
2
100
AcDbEntity
  8
0
100
AcDbLeader
  3
STANDARD
 76
     3
 10
2939.387689440138
 20
363.0588597074743
 30
0.0
 10
2763.020806274995
 20
244.5056694207796
 30
0.0
 10
2556.473500999524
 20
244.5056694207796
 30
0.0
1001
ACAD
1000
DSTYLE
1002
{
1070
   147
1040
10.0
1070
    77
1070
     0
1002
}
  0
ENDSEC
  0
SECTION
  2
OBJECTS
  0
DICTIONARY
  5
7
330
0
100
AcDbDictionary
281
     1
  3
ACAD_GROUP
350
53C
  3
ACAD_LAYOUT
350
528
  3
ACAD_MLINESTYLE
350
53D
  3
ACAD_PLOTSETTINGS
350
53E
  3
ACAD_PLOTSTYLENAME
350
6
  3
AcDbVariableDictionary
350
546
  0
DICTIONARY
  5
53C
102
{ACAD_REACTORS
330
7
102
}
330
7
100
AcDbDictionary
281
     1
  0
DICTIONARY
  5
528
102
{ACAD_REACTORS
330
7
102
}
330
7
100
AcDbDictionary
281
     1
  3
mirage
350
52C
  3
Model
350
527
  0
DICTIONARY
  5
53D
102
{ACAD_REACTORS
330
7
102
}
330
7
100
AcDbDictionary
281
     1
  3
STANDARD
350
53F
  0
DICTIONARY
  5
53E
102
{ACAD_REACTORS
330
7
102
}
330
7
100
AcDbDictionary
281
     1
  0
ACDBDICTIONARYWDFLT
  5
6
102
{ACAD_REACTORS
330
7
102
}
330
7
100
AcDbDictionary
281
     1
  3
Normal
350
5
100
AcDbDictionaryWithDefault
340
5
  0
DICTIONARY
  5
546
102
{ACAD_REACTORS
330
7
102
}
330
7
100
AcDbDictionary
281
     1
  3
DIMASSOC
350
547
  0
LAYOUT
  5
52C
102
{ACAD_REACTORS
330
528
102
}
330
528
100
AcDbPlotSettings
  1

  2
HP LaserJet 5N
  4
A4
  6

 40
6.043083190917968
 41
6.720414161682128
 42
7.821090698242187
 43
5.027069091796875
 44
210.0579986572265
 45
296.9259948730469
 46
0.0
 47
0.0
 48
0.0
 49
0.0
140
0.0
141
0.0
142
1.0
143
1.0
 70
   688
 72
     1
 73
     0
 74
     5
  7

 75
    16
147
1.0
148
0.0
149
0.0
100
AcDbLayout
  1
mirage
 70
     1
 71
     1
 10
-6.043083190917968
 20
-6.720414161682128
 11
204.0149154663085
 21
290.2055807113647
 12
0.0
 22
0.0
 32
0.0
 14
-84.0
 24
-0.1575368999165647
 34
0.0
 15
211.0941500469197
 25
282.033201554023
 35
0.0
146
0.0
 13
0.0
 23
0.0
 33
0.0
 16
1.0
 26
0.0
 36
0.0
 17
0.0
 27
1.0
 37
0.0
 76
     0
330
529
  0
LAYOUT
  5
527
102
{ACAD_REACTORS
330
528
102
}
330
528
100
AcDbPlotSettings
  1

  2
HP LaserJet 5N - Reception
  4
A4
  6

 40
6.043083190917968
 41
6.720414161682128
 42
7.821090698242187
 43
5.027069091796875
 44
210.0579986572265
 45
296.9259948730469
 46
0.0
 47
0.0
 48
1247.962481013386
 49
-462.2982024585817
140
3947.729282488846
141
1000.001337832762
142
1.0
143
9.466936292440527
 70
 11952
 72
     1
 73
     1
 74
     4
  7

 75
     0
147
0.1056307942833114
148
-1247.962481013386
149
462.2982024585817
100
AcDbLayout
  1
Model
 70
     1
 71
     0
 10
0.0
 20
0.0
 11
12.0
 21
9.0
 12
0.0
 22
0.0
 32
0.0
 14
0.0
 24
0.0
 34
0.0
 15
0.0
 25
0.0
 35
0.0
146
0.0
 13
0.0
 23
0.0
 33
0.0
 16
1.0
 26
0.0
 36
0.0
 17
0.0
 27
1.0
 37
0.0
 76
     0
330
2
  0
MLINESTYLE
  5
53F
102
{ACAD_REACTORS
330
53D
102
}
330
53D
100
AcDbMlineStyle
  2
STANDARD
 70
     0
  3

 62
     0
 51
90.0
 52
90.0
 71
     2
 49
0.5
 62
   256
  6
BYLAYER
 49
-0.5
 62
   256
  6
BYLAYER
  0
ACDBPLACEHOLDER
  5
5
102
{ACAD_REACTORS
330
6
102
}
330
6
  0
DICTIONARYVAR
  5
547
102
{ACAD_REACTORS
330
546
102
}
330
546
100
DictionaryVariables
280
     0
  1
1
  0
ENDSEC
  0
EOF
