  0
SECTION
  2
HEADER
  9
$ACADVER
  1
AC1015
  9
$ACADMAINTVER
 70
    13
  9
$DWGCODEPAGE
  3
ANSI_1252
  9
$INSBASE
 10
-1773.648560399957
 20
-996.5359546546388
 30
0.0
  9
$EXTMIN
 10
-1814.682225758521
 20
-996.5359546546405
 30
0.0
  9
$EXTMAX
 10
5450.221003601046
 20
4269.3925816383
 30
0.0
  9
$LIMMIN
 10
0.0
 20
0.0
  9
$LIMMAX
 10
420.0
 20
297.0
  9
$ORTHOMODE
 70
     0
  9
$REGENMODE
 70
     1
  9
$FILLMODE
 70
     1
  9
$QTEXTMODE
 70
     0
  9
$MIRRTEXT
 70
     1
  9
$LTSCALE
 40
1.0
  9
$ATTMODE
 70
     1
  9
$TEXTSIZE
 40
5.0
  9
$TRACEWID
 40
1.0
  9
$TEXTSTYLE
  7
Standard
  9
$CLAYER
  8
0
  9
$CELTYPE
  6
ByLayer
  9
$CECOLOR
 62
   256
  9
$CELTSCALE
 40
1.0
  9
$DISPSILH
 70
     0
  9
$DIMSCALE
 40
4.0
  9
$DIMASZ
 40
7.5
  9
$DIMEXO
 40
3.0
  9
$DIMDLI
 40
3.75
  9
$DIMRND
 40
0.0
  9
$DIMDLE
 40
0.0
  9
$DIMEXE
 40
1.25
  9
$DIMTP
 40
0.0
  9
$DIMTM
 40
0.0
  9
$DIMTXT
 40
20.0
  9
$DIMCEN
 40
2.5
  9
$DIMTSZ
 40
0.0
  9
$DIMTOL
 70
     0
  9
$DIMLIM
 70
     0
  9
$DIMTIH
 70
     0
  9
$DIMTOH
 70
     0
  9
$DIMSE1
 70
     0
  9
$DIMSE2
 70
     0
  9
$DIMTAD
 70
     1
  9
$DIMZIN
 70
     8
  9
$DIMBLK
  1

  9
$DIMASO
 70
     1
  9
$DIMSHO
 70
     1
  9
$DIMPOST
  1

  9
$DIMAPOST
  1

  9
$DIMALT
 70
     0
  9
$DIMALTD
 70
     3
  9
$DIMALTF
 40
0.03937007874016
  9
$DIMLFAC
 40
1.0
  9
$DIMTOFL
 70
     1
  9
$DIMTVP
 40
0.0
  9
$DIMTIX
 70
     0
  9
$DIMSOXD
 70
     0
  9
$DIMSAH
 70
     0
  9
$DIMBLK1
  1

  9
$DIMBLK2
  1

  9
$DIMSTYLE
  2
ISO-25
  9
$DIMCLRD
 70
     0
  9
$DIMCLRE
 70
     0
  9
$DIMCLRT
 70
     0
  9
$DIMTFAC
 40
1.0
  9
$DIMGAP
 40
0.625
  9
$DIMJUST
 70
     0
  9
$DIMSD1
 70
     0
  9
$DIMSD2
 70
     0
  9
$DIMTOLJ
 70
     0
  9
$DIMTZIN
 70
     8
  9
$DIMALTZ
 70
     0
  9
$DIMALTTZ
 70
     0
  9
$DIMUPT
 70
     0
  9
$DIMDEC
 70
     2
  9
$DIMTDEC
 70
     2
  9
$DIMALTU
 70
     2
  9
$DIMALTTD
 70
     3
  9
$DIMTXSTY
  7
Standard
  9
$DIMAUNIT
 70
     0
  9
$DIMADEC
 70
     0
  9
$DIMALTRND
 40
0.0
  9
$DIMAZIN
 70
     0
  9
$DIMDSEP
 70
    44
  9
$DIMATFIT
 70
     3
  9
$DIMFRAC
 70
     0
  9
$DIMLDRBLK
  1

  9
$DIMLUNIT
 70
     2
  9
$DIMLWD
 70
    -2
  9
$DIMLWE
 70
    -2
  9
$DIMTMOVE
 70
     0
  9
$LUNITS
 70
     2
  9
$LUPREC
 70
     4
  9
$SKETCHINC
 40
1.0
  9
$FILLETRAD
 40
10.0
  9
$AUNITS
 70
     0
  9
$AUPREC
 70
     0
  9
$MENU
  1
.
  9
$ELEVATION
 40
0.0
  9
$PELEVATION
 40
0.0
  9
$THICKNESS
 40
0.0
  9
$LIMCHECK
 70
     0
  9
$CHAMFERA
 40
10.0
  9
$CHAMFERB
 40
10.0
  9
$CHAMFERC
 40
20.0
  9
$CHAMFERD
 40
0.0
  9
$SKPOLY
 70
     0
  9
$TDCREATE
 40
2452723.348062037
  9
$TDUCREATE
 40
2452722.931395370
  9
$TDUPDATE
 40
2453647.410705578
  9
$TDUUPDATE
 40
2453646.994038912
  9
$TDINDWG
 40
0.6647137963
  9
$TDUSRTIMER
 40
0.6647137963
  9
$USRTIMER
 70
     1
  9
$ANGBASE
 50
0.0
  9
$ANGDIR
 70
     0
  9
$PDMODE
 70
     0
  9
$PDSIZE
 40
0.0
  9
$PLINEWID
 40
0.0
  9
$SPLFRAME
 70
     0
  9
$SPLINETYPE
 70
     6
  9
$SPLINESEGS
 70
     8
  9
$HANDSEED
  5
263
  9
$SURFTAB1
 70
     6
  9
$SURFTAB2
 70
     6
  9
$SURFTYPE
 70
     6
  9
$SURFU
 70
     6
  9
$SURFV
 70
     6
  9
$UCSBASE
  2

  9
$UCSNAME
  2

  9
$UCSORG
 10
0.0
 20
0.0
 30
0.0
  9
$UCSXDIR
 10
1.0
 20
0.0
 30
0.0
  9
$UCSYDIR
 10
0.0
 20
1.0
 30
0.0
  9
$UCSORTHOREF
  2

  9
$UCSORTHOVIEW
 70
     0
  9
$UCSORGTOP
 10
0.0
 20
0.0
 30
0.0
  9
$UCSORGBOTTOM
 10
0.0
 20
0.0
 30
0.0
  9
$UCSORGLEFT
 10
0.0
 20
0.0
 30
0.0
  9
$UCSORGRIGHT
 10
0.0
 20
0.0
 30
0.0
  9
$UCSORGFRONT
 10
0.0
 20
0.0
 30
0.0
  9
$UCSORGBACK
 10
0.0
 20
0.0
 30
0.0
  9
$PUCSBASE
  2

  9
$PUCSNAME
  2

  9
$PUCSORG
 10
0.0
 20
0.0
 30
0.0
  9
$PUCSXDIR
 10
1.0
 20
0.0
 30
0.0
  9
$PUCSYDIR
 10
0.0
 20
1.0
 30
0.0
  9
$PUCSORTHOREF
  2

  9
$PUCSORTHOVIEW
 70
     0
  9
$PUCSORGTOP
 10
0.0
 20
0.0
 30
0.0
  9
$PUCSORGBOTTOM
 10
0.0
 20
0.0
 30
0.0
  9
$PUCSORGLEFT
 10
0.0
 20
0.0
 30
0.0
  9
$PUCSORGRIGHT
 10
0.0
 20
0.0
 30
0.0
  9
$PUCSORGFRONT
 10
0.0
 20
0.0
 30
0.0
  9
$PUCSORGBACK
 10
0.0
 20
0.0
 30
0.0
  9
$USERI1
 70
     0
  9
$USERI2
 70
     0
  9
$USERI3
 70
     0
  9
$USERI4
 70
     0
  9
$USERI5
 70
     0
  9
$USERR1
 40
0.0
  9
$USERR2
 40
0.0
  9
$USERR3
 40
0.0
  9
$USERR4
 40
0.0
  9
$USERR5
 40
0.0
  9
$WORLDVIEW
 70
     1
  9
$SHADEDGE
 70
     3
  9
$SHADEDIF
 70
    70
  9
$TILEMODE
 70
     1
  9
$MAXACTVP
 70
    64
  9
$PINSBASE
 10
0.0
 20
0.0
 30
0.0
  9
$PLIMCHECK
 70
     0
  9
$PEXTMIN
 10
-84.0
 20
-0.1575368999165647
 30
0.0
  9
$PEXTMAX
 10
231.0653720154696
 20
282.033201554023
 30
0.0
  9
$PLIMMIN
 10
-6.043083190917968
 20
-6.720414161682128
  9
$PLIMMAX
 10
204.0149154663085
 20
290.2055807113647
  9
$UNITMODE
 70
     0
  9
$VISRETAIN
 70
     1
  9
$PLINEGEN
 70
     0
  9
$PSLTSCALE
 70
     1
  9
$TREEDEPTH
 70
  3020
  9
$CMLSTYLE
  2
Standard
  9
$CMLJUST
 70
     0
  9
$CMLSCALE
 40
20.0
  9
$PROXYGRAPHICS
 70
     1
  9
$MEASUREMENT
 70
     1
  9
$CELWEIGHT
370
    -1
  9
$ENDCAPS
280
     0
  9
$JOINSTYLE
280
     0
  9
$LWDISPLAY
290
     0
  9
$INSUNITS
 70
     4
  9
$HYPERLINKBASE
  1

  9
$STYLESHEET
  1

  9
$XEDIT
290
     1
  9
$CEPSNTYPE
380
     0
  9
$PSTYLEMODE
290
     1
  9
$FINGERPRINTGUID
  2
{EB501956-3997-4F2D-B8E1-A36BFC11541A}
  9
$VERSIONGUID
  2
{30D9EFCE-14B9-4668-9818-DD75CDE9F767}
  9
$EXTNAMES
290
     1
  9
$PSVPSCALE
 40
0.0
  9
$OLESTARTUP
290
     0
  0
ENDSEC
  0
SECTION
  2
CLASSES
  0
CLASS
  1
ACDBDICTIONARYWDFLT
  2
AcDbDictionaryWithDefault
  3
AutoCAD 2000
 90
        0
280
     0
281
     0
  0
CLASS
  1
ACDBPLACEHOLDER
  2
AcDbPlaceHolder
  3
AutoCAD 2000
 90
        0
280
     0
281
     0
  0
CLASS
  1
LAYOUT
  2
AcDbLayout
  3
AutoCAD 2000
 90
        0
280
     0
281
     0
  0
CLASS
  1
DIMASSOC
  2
AcDbDimAssoc
  3
"AcDbDimAssoc|Product Desc:     AcDim ARX App For Dimension|Company:          Autodesk, Inc.|WEB Address:      www.autodesk.com"
 90
        0
280
     0
281
     0
  0
CLASS
  1
DICTIONARYVAR
  2
AcDbDictionaryVar
  3
AutoCAD 2000
 90
        0
280
     0
281
     0
  0
ENDSEC
  0
SECTION
  2
TABLES
  0
TABLE
  2
VPORT
  5
251
330
0
100
AcDbSymbolTable
 70
     4
  0
VPORT
  5
262
330
251
100
AcDbSymbolTableRecord
100
AcDbViewportTableRecord
  2
*Active
 70
     0
 10
0.0
 20
0.0
 11
1.0
 21
1.0
 12
2299.41766558731
 22
903.7213097157598
 13
0.0
 23
0.0
 14
10.0
 24
10.0
 15
10.0
 25
10.0
 16
0.0
 26
0.0
 36
1.0
 17
0.0
 27
0.0
 37
0.0
 40
4016.210434045889
 41
1.786259541984732
 42
50.0
 43
0.0
 44
0.0
 50
0.0
 51
0.0
 71
     0
 72
   100
 73
     1
 74
     3
 75
     0
 76
     0
 77
     0
 78
     0
281
     0
 65
     1
110
0.0
120
0.0
130
0.0
111
1.0
121
0.0
131
0.0
112
0.0
122
1.0
132
0.0
 79
     0
146
0.0
  0
ENDTAB
  0
TABLE
  2
LTYPE
  5
24C
330
0
100
AcDbSymbolTable
 70
     2
  0
LTYPE
  5
24D
330
24C
100
AcDbSymbolTableRecord
100
AcDbLinetypeTableRecord
  2
ByBlock
 70
     0
  3

 72
    65
 73
     0
 40
0.0
  0
LTYPE
  5
24E
330
24C
100
AcDbSymbolTableRecord
100
AcDbLinetypeTableRecord
  2
ByLayer
 70
     0
  3

 72
    65
 73
     0
 40
0.0
  0
LTYPE
  5
A
330
24C
100
AcDbSymbolTableRecord
100
AcDbLinetypeTableRecord
  2
Continuous
 70
     0
  3
Solid line
 72
    65
 73
     0
 40
0.0
  0
LTYPE
  5
166
330
24C
100
AcDbSymbolTableRecord
100
AcDbLinetypeTableRecord
  2
ACAD_ISO03W100
 70
     0
  3
ISO dash space __    __    __    __    __    __
 72
    65
 73
     2
 40
30.0
 49
12.0
 74
     0
 49
-18.0
 74
     0
  0
ENDTAB
  0
TABLE
  2
LAYER
  5
249
330
0
100
AcDbSymbolTable
 70
    68
  0
LAYER
  5
6
330
249
100
AcDbSymbolTableRecord
100
AcDbLayerTableRecord
  2
0
 70
     0
 62
     7
  6
Continuous
370
    -3
390
7
  0
LAYER
  5
11C
330
249
100
AcDbSymbolTableRecord
100
AcDbLayerTableRecord
  2
VM001I1$010
 70
     0
 62
     7
  6
Continuous
370
    -3
390
7
  0
LAYER
  5
11E
330
249
100
AcDbSymbolTableRecord
100
AcDbLayerTableRecord
  2
VE001I1$101
 70
     0
 62
     7
  6
Continuous
370
    -3
390
7
  0
LAYER
  5
51
330
249
100
AcDbSymbolTableRecord
100
AcDbLayerTableRecord
  2
VM001I2$010
 70
     0
 62
     7
  6
Continuous
370
    -3
390
7
  0
LAYER
  5
53
330
249
100
AcDbSymbolTableRecord
100
AcDbLayerTableRecord
  2
VE001I2$101
 70
     0
 62
     7
  6
Continuous
370
    -3
390
7
  0
LAYER
  5
118
330
249
100
AcDbSymbolTableRecord
100
AcDbLayerTableRecord
  2
VM001I3$010
 70
     0
 62
     7
  6
Continuous
370
    -3
390
7
  0
LAYER
  5
11A
330
249
100
AcDbSymbolTableRecord
100
AcDbLayerTableRecord
  2
VE001I3$101
 70
     0
 62
     7
  6
Continuous
370
    -3
390
7
  0
LAYER
  5
120
330
249
100
AcDbSymbolTableRecord
100
AcDbLayerTableRecord
  2
VM001I4$010
 70
     0
 62
     7
  6
Continuous
370
    -3
390
7
  0
LAYER
  5
122
330
249
100
AcDbSymbolTableRecord
100
AcDbLayerTableRecord
  2
VE001I4$101
 70
     0
 62
     7
  6
Continuous
370
    -3
390
7
  0
LAYER
  5
B6
330
249
100
AcDbSymbolTableRecord
100
AcDbLayerTableRecord
  2
VM001I5$010
 70
     0
 62
     7
  6
Continuous
370
    -3
390
7
  0
LAYER
  5
B8
330
249
100
AcDbSymbolTableRecord
100
AcDbLayerTableRecord
  2
VE001I5$101
 70
     0
 62
     7
  6
Continuous
370
    -3
390
7
  0
LAYER
  5
128
330
249
100
AcDbSymbolTableRecord
100
AcDbLayerTableRecord
  2
VM001I6$010
 70
     0
 62
     7
  6
Continuous
370
    -3
390
7
  0
LAYER
  5
12A
330
249
100
AcDbSymbolTableRecord
100
AcDbLayerTableRecord
  2
VE001I6$101
 70
     0
 62
     7
  6
Continuous
370
    -3
390
7
  0
LAYER
  5
F0
330
249
100
AcDbSymbolTableRecord
100
AcDbLayerTableRecord
  2
VM001I7$010
 70
     0
 62
     7
  6
Continuous
370
    -3
390
7
  0
LAYER
  5
F2
330
249
100
AcDbSymbolTableRecord
100
AcDbLayerTableRecord
  2
VE001I7$101
 70
     0
 62
     7
  6
Continuous
370
    -3
390
7
  0
LAYER
  5
124
330
249
100
AcDbSymbolTableRecord
100
AcDbLayerTableRecord
  2
VM001I8$010
 70
     0
 62
     7
  6
Continuous
370
    -3
390
7
  0
LAYER
  5
126
330
249
100
AcDbSymbolTableRecord
100
AcDbLayerTableRecord
  2
VE001I8$101
 70
     0
 62
     7
  6
Continuous
370
    -3
390
7
  0
LAYER
  5
AE
330
249
100
AcDbSymbolTableRecord
100
AcDbLayerTableRecord
  2
VM001I9$010
 70
     0
 62
     7
  6
Continuous
370
    -3
390
7
  0
LAYER
  5
B0
330
249
100
AcDbSymbolTableRecord
100
AcDbLayerTableRecord
  2
VE001I9$101
 70
     0
 62
     7
  6
Continuous
370
    -3
390
7
  0
LAYER
  5
102
330
249
100
AcDbSymbolTableRecord
100
AcDbLayerTableRecord
  2
VM001I10$010
 70
     0
 62
     7
  6
Continuous
370
    -3
390
7
  0
LAYER
  5
104
330
249
100
AcDbSymbolTableRecord
100
AcDbLayerTableRecord
  2
VE001I10$101
 70
     0
 62
     7
  6
Continuous
370
    -3
390
7
  0
LAYER
  5
F4
330
249
100
AcDbSymbolTableRecord
100
AcDbLayerTableRecord
  2
VM001I11$010
 70
     0
 62
     7
  6
Continuous
370
    -3
390
7
  0
LAYER
  5
F6
330
249
100
AcDbSymbolTableRecord
100
AcDbLayerTableRecord
  2
VE001I11$101
 70
     0
 62
     7
  6
Continuous
370
    -3
390
7
  0
LAYER
  5
E8
330
249
100
AcDbSymbolTableRecord
100
AcDbLayerTableRecord
  2
VM001I12$010
 70
     0
 62
     7
  6
Continuous
370
    -3
390
7
  0
LAYER
  5
EA
330
249
100
AcDbSymbolTableRecord
100
AcDbLayerTableRecord
  2
VE001I12$101
 70
     0
 62
     7
  6
Continuous
370
    -3
390
7
  0
LAYER
  5
110
330
249
100
AcDbSymbolTableRecord
100
AcDbLayerTableRecord
  2
VM001I13$010
 70
     0
 62
     7
  6
Continuous
370
    -3
390
7
  0
LAYER
  5
112
330
249
100
AcDbSymbolTableRecord
100
AcDbLayerTableRecord
  2
VE001I13$101
 70
     0
 62
     7
  6
Continuous
370
    -3
390
7
  0
LAYER
  5
E0
330
249
100
AcDbSymbolTableRecord
100
AcDbLayerTableRecord
  2
VM001I14$010
 70
     0
 62
     7
  6
Continuous
370
    -3
390
7
  0
LAYER
  5
E2
330
249
100
AcDbSymbolTableRecord
100
AcDbLayerTableRecord
  2
VE001I14$101
 70
     0
 62
     7
  6
Continuous
370
    -3
390
7
  0
LAYER
  5
106
330
249
100
AcDbSymbolTableRecord
100
AcDbLayerTableRecord
  2
VM001I15$010
 70
     0
 62
     7
  6
Continuous
370
    -3
390
7
  0
LAYER
  5
108
330
249
100
AcDbSymbolTableRecord
100
AcDbLayerTableRecord
  2
VE001I15$101
 70
     0
 62
     7
  6
Continuous
370
    -3
390
7
  0
LAYER
  5
EC
330
249
100
AcDbSymbolTableRecord
100
AcDbLayerTableRecord
  2
VM001I16$010
 70
     0
 62
     7
  6
Continuous
370
    -3
390
7
  0
LAYER
  5
EE
330
249
100
AcDbSymbolTableRecord
100
AcDbLayerTableRecord
  2
VE001I16$101
 70
     0
 62
     7
  6
Continuous
370
    -3
390
7
  0
LAYER
  5
CA
330
249
100
AcDbSymbolTableRecord
100
AcDbLayerTableRecord
  2
VM001I17$010
 70
     0
 62
     7
  6
Continuous
370
    -3
390
7
  0
LAYER
  5
CC
330
249
100
AcDbSymbolTableRecord
100
AcDbLayerTableRecord
  2
VE001I17$101
 70
     0
 62
     7
  6
Continuous
370
    -3
390
7
  0
LAYER
  5
60
330
249
100
AcDbSymbolTableRecord
100
AcDbLayerTableRecord
  2
VM001I18$010
 70
     0
 62
     7
  6
Continuous
370
    -3
390
7
  0
LAYER
  5
62
330
249
100
AcDbSymbolTableRecord
100
AcDbLayerTableRecord
  2
VE001I18$101
 70
     0
 62
     7
  6
Continuous
370
    -3
390
7
  0
LAYER
  5
B2
330
249
100
AcDbSymbolTableRecord
100
AcDbLayerTableRecord
  2
VM001I19$010
 70
     0
 62
     7
  6
Continuous
370
    -3
390
7
  0
LAYER
  5
B4
330
249
100
AcDbSymbolTableRecord
100
AcDbLayerTableRecord
  2
VE001I19$101
 70
     0
 62
     7
  6
Continuous
370
    -3
390
7
  0
LAYER
  5
DC
330
249
100
AcDbSymbolTableRecord
100
AcDbLayerTableRecord
  2
VM001I20$010
 70
     0
 62
     7
  6
Continuous
370
    -3
390
7
  0
LAYER
  5
DE
330
249
100
AcDbSymbolTableRecord
100
AcDbLayerTableRecord
  2
VE001I20$101
 70
     0
 62
     7
  6
Continuous
370
    -3
390
7
  0
LAYER
  5
FE
330
249
100
AcDbSymbolTableRecord
100
AcDbLayerTableRecord
  2
VM001I21$010
 70
     0
 62
     7
  6
Continuous
370
    -3
390
7
  0
LAYER
  5
100
330
249
100
AcDbSymbolTableRecord
100
AcDbLayerTableRecord
  2
VE001I21$101
 70
     0
 62
     7
  6
Continuous
370
    -3
390
7
  0
LAYER
  5
55
330
249
100
AcDbSymbolTableRecord
100
AcDbLayerTableRecord
  2
VM001I22$010
 70
     0
 62
     7
  6
Continuous
370
    -3
390
7
  0
LAYER
  5
57
330
249
100
AcDbSymbolTableRecord
100
AcDbLayerTableRecord
  2
VE001I22$101
 70
     0
 62
     7
  6
Continuous
370
    -3
390
7
  0
LAYER
  5
C4
330
249
100
AcDbSymbolTableRecord
100
AcDbLayerTableRecord
  2
VM001I23$010
 70
     0
 62
     7
  6
Continuous
370
    -3
390
7
  0
LAYER
  5
C6
330
249
100
AcDbSymbolTableRecord
100
AcDbLayerTableRecord
  2
VE001I23$101
 70
     0
 62
     7
  6
Continuous
370
    -3
390
7
  0
LAYER
  5
E4
330
249
100
AcDbSymbolTableRecord
100
AcDbLayerTableRecord
  2
VM001I24$010
 70
     0
 62
     7
  6
Continuous
370
    -3
390
7
  0
LAYER
  5
E6
330
249
100
AcDbSymbolTableRecord
100
AcDbLayerTableRecord
  2
VE001I24$101
 70
     0
 62
     7
  6
Continuous
370
    -3
390
7
  0
LAYER
  5
5C
330
249
100
AcDbSymbolTableRecord
100
AcDbLayerTableRecord
  2
VM001I25$010
 70
     0
 62
     7
  6
Continuous
370
    -3
390
7
  0
LAYER
  5
5E
330
249
100
AcDbSymbolTableRecord
100
AcDbLayerTableRecord
  2
VE001I25$101
 70
     0
 62
     7
  6
Continuous
370
    -3
390
7
  0
LAYER
  5
BA
330
249
100
AcDbSymbolTableRecord
100
AcDbLayerTableRecord
  2
VM001I26$010
 70
     0
 62
     7
  6
Continuous
370
    -3
390
7
  0
LAYER
  5
BC
330
249
100
AcDbSymbolTableRecord
100
AcDbLayerTableRecord
  2
VE001I26$101
 70
     0
 62
     7
  6
Continuous
370
    -3
390
7
  0
LAYER
  5
C0
330
249
100
AcDbSymbolTableRecord
100
AcDbLayerTableRecord
  2
VM001I27$010
 70
     0
 62
     7
  6
Continuous
370
    -3
390
7
  0
LAYER
  5
BE
330
249
100
AcDbSymbolTableRecord
100
AcDbLayerTableRecord
  2
VE001I27$101
 70
     0
 62
     7
  6
Continuous
370
    -3
390
7
  0
LAYER
  5
D4
330
249
100
AcDbSymbolTableRecord
100
AcDbLayerTableRecord
  2
VM001I28$010
 70
     0
 62
     7
  6
Continuous
370
    -3
390
7
  0
LAYER
  5
D6
330
249
100
AcDbSymbolTableRecord
100
AcDbLayerTableRecord
  2
VE001I28$101
 70
     0
 62
     7
  6
Continuous
370
    -3
390
7
  0
LAYER
  5
114
330
249
100
AcDbSymbolTableRecord
100
AcDbLayerTableRecord
  2
VM001I29$010
 70
     0
 62
     7
  6
Continuous
370
    -3
390
7
  0
LAYER
  5
116
330
249
100
AcDbSymbolTableRecord
100
AcDbLayerTableRecord
  2
VE001I29$101
 70
     0
 62
     7
  6
Continuous
370
    -3
390
7
  0
LAYER
  5
D0
330
249
100
AcDbSymbolTableRecord
100
AcDbLayerTableRecord
  2
VM001I31$010
 70
     0
 62
     7
  6
Continuous
370
    -3
390
7
  0
LAYER
  5
D2
330
249
100
AcDbSymbolTableRecord
100
AcDbLayerTableRecord
  2
VE001I31$101
 70
     0
 62
     7
  6
Continuous
370
    -3
390
7
  0
LAYER
  5
FA
330
249
100
AcDbSymbolTableRecord
100
AcDbLayerTableRecord
  2
VM001I32$010
 70
     0
 62
     7
  6
Continuous
370
    -3
390
7
  0
LAYER
  5
FC
330
249
100
AcDbSymbolTableRecord
100
AcDbLayerTableRecord
  2
VE001I32$101
 70
     0
 62
     7
  6
Continuous
370
    -3
390
7
  0
LAYER
  5
D8
330
249
100
AcDbSymbolTableRecord
100
AcDbLayerTableRecord
  2
VM001I33$010
 70
     0
 62
     7
  6
Continuous
370
    -3
390
7
  0
LAYER
  5
DA
330
249
100
AcDbSymbolTableRecord
100
AcDbLayerTableRecord
  2
VE001I33$101
 70
     0
 62
     7
  6
Continuous
370
    -3
390
7
  0
LAYER
  5
10C
330
249
100
AcDbSymbolTableRecord
100
AcDbLayerTableRecord
  2
VM001I34$010
 70
     0
 62
     7
  6
Continuous
370
    -3
390
7
  0
LAYER
  5
10E
330
249
100
AcDbSymbolTableRecord
100
AcDbLayerTableRecord
  2
VE001I34$101
 70
     0
 62
     7
  6
Continuous
370
    -3
390
7
  0
LAYER
  5
15
330
249
100
AcDbSymbolTableRecord
100
AcDbLayerTableRecord
  2
Defpoints
 70
     0
 62
     7
  6
Continuous
290
     0
370
    -3
390
7
  0
ENDTAB
  0
TABLE
  2
STYLE
  5
24A
330
0
100
AcDbSymbolTable
 70
     1
  0
STYLE
  5
B
330
24A
100
AcDbSymbolTableRecord
100
AcDbTextStyleTableRecord
  2
Standard
 70
     0
 40
5.0
 41
1.0
 50
0.0
 71
     0
 42
5.0
  3
txt.shx
  4

  0
ENDTAB
  0
TABLE
  2
VIEW
  5
24F
330
0
100
AcDbSymbolTable
 70
     0
  0
ENDTAB
  0
TABLE
  2
UCS
  5
250
330
0
100
AcDbSymbolTable
 70
     0
  0
ENDTAB
  0
TABLE
  2
APPID
  5
253
330
0
100
AcDbSymbolTable
 70
     1
  0
APPID
  5
1A
330
253
100
AcDbSymbolTableRecord
100
AcDbRegAppTableRecord
  2
ACAD
 70
     0
  0
ENDTAB
  0
TABLE
  2
DIMSTYLE
  5
254
330
0
100
AcDbSymbolTable
 70
     1
100
AcDbDimStyleTable
 71
     1
340
C
  0
DIMSTYLE
105
C
102
{ACAD_REACTORS
330
69
330
3
330
42
330
28
330
1B
330
35
330
1FB
330
225
330
1CF
330
1F8
330
21A
102
}
330
254
100
AcDbSymbolTableRecord
100
AcDbDimStyleTableRecord
  2
ISO-25
 70
     0
 40
4.0
 41
7.5
 42
3.0
 43
3.75
 44
1.25
 73
     0
 74
     0
 77
     1
 78
     8
140
20.0
141
2.5
143
0.03937007874016
147
0.625
171
     3
172
     1
271
     2
272
     2
274
     3
278
    44
283
     0
284
     8
340
B
  0
ENDTAB
  0
TABLE
  2
BLOCK_RECORD
  5
1
330
0
100
AcDbSymbolTable
 70
     7
  0
BLOCK_RECORD
  5
2
330
1
100
AcDbSymbolTableRecord
100
AcDbBlockTableRecord
  2
*Model_Space
340
243
  0
BLOCK_RECORD
  5
245
330
1
100
AcDbSymbolTableRecord
100
AcDbBlockTableRecord
  2
*Paper_Space
340
248
  0
BLOCK_RECORD
  5
29
330
1
100
AcDbSymbolTableRecord
100
AcDbBlockTableRecord
  2
*D0
340
0
  0
BLOCK_RECORD
  5
AC
330
1
100
AcDbSymbolTableRecord
100
AcDbBlockTableRecord
  2
guide
340
0
310
28000000200000002000000001000800000000000004000000000000000000000000000000000000000000004000000080000000FF000000002000004020000080200000FF200000004000004040000080400000FF400000006000004060000080600000FF600000008000004080000080800000FF80000000A0000040A000
310
0080A00000FFA0000000C0000040C0000080C00000FFC0000000FF000040FF000080FF0000FFFF0000000020004000200080002000FF002000002020004020200080202000FF202000004020004040200080402000FF402000006020004060200080602000FF602000008020004080200080802000FF80200000A0200040A0
310
200080A02000FFA0200000C0200040C0200080C02000FFC0200000FF200040FF200080FF2000FFFF2000000040004000400080004000FF004000002040004020400080204000FF204000004040004040400080404000FF404000006040004060400080604000FF604000008040004080400080804000FF80400000A0400040
310
A0400080A04000FFA0400000C0400040C0400080C04000FFC0400000FF400040FF400080FF4000FFFF4000000060004000600080006000FF006000002060004020600080206000FF206000004060004040600080406000FF406000006060004060600080606000FF606000008060004080600080806000FF80600000A06000
310
40A0600080A06000FFA0600000C0600040C0600080C06000FFC0600000FF600040FF600080FF6000FFFF6000000080004000800080008000FF008000002080004020800080208000FF208000004080004040800080408000FF408000006080004060800080608000FF608000008080004080800080808000FF80800000A080
310
0040A0800080A08000FFA0800000C0800040C0800080C08000FFC0800000FF800040FF800080FF8000FFFF80000000A0004000A0008000A000FF00A0000020A0004020A0008020A000FF20A0000040A0004040A0008040A000FF40A0000060A0004060A0008060A000FF60A0000080A0004080A0008080A000FF80A00000A0
310
A00040A0A00080A0A000FFA0A00000C0A00040C0A00080C0A000FFC0A00000FFA00040FFA00080FFA000FFFFA0000000C0004000C0008000C000FF00C0000020C0004020C0008020C000FF20C0000040C0004040C0008040C000FF40C0000060C0004060C0008060C000FF60C0000080C0004080C0008080C000FF80C00000
310
A0C00040A0C00080A0C000FFA0C00000C0C00040C0C00080C0C000FFC0C00000FFC00040FFC00080FFC000FFFFC0000000FF004000FF008000FF00FF00FF000020FF004020FF008020FF00FF20FF000040FF004040FF008040FF00FF40FF000060FF004060FF008060FF00FF60FF000080FF004080FF008080FF00FF80FF00
310
00A0FF0040A0FF0080A0FF00FFA0FF0000C0FF0040C0FF0080C0FF00FFC0FF0000FFFF0040FFFF0080FFFF00FFFFFF00FFFFFFFFFFFFFFFFFFFFFFFFFFFFFFFFFFFFFFFFFFFFFFFFFFFFFFFFFFFFFFFFFFFFFFFFFFFFFFFFFFFFFFFFFFFFFFFFFFFFFFFFFFFFFFFFFFFFFFFFFFFFFFFFFFFFFFFFFFFFFFFFFFFFFFFFFFFFFF
310
FFFFFFFFFFFFFFFFFFFFFFFFFFFFFFFFFFFFFFFFFFFFFFFFFFFFFFFFFFFFFFFFFFFFFFFFFFFFFFFFFFFFFFFFFFFFFFFFFFFFFFFFFFFFFFFFFFFFFFFFFFFFFFFFFFFFFFFFFFFFFFFFFFFFFFFFFFFFFFFFFFFFFFFFFFFFFFFFFFFFFFFFFFFFFFFFFFFFFFFFFFFFFFFFFFFFFFFFFFFFFFFFFFFFFFFFFFFFFFFFFFFFFFFFFFFFFF
310
FFFFFFFFFFFFFFFFFFFFFFFFFFFFFFFFFFFFFFFF0000000000000000000000000000000000000000000000000000000000FFFFFF000000000000000000000000000000000000000000000000000000FF00FFFFFFFFFFFFFFFFFFFFFFFFFFFFFFFFFFFFFFFFFFFFFF0000FFFFFFFF00FF00FFFFFFFFFFFFFFFFFFFFFFFFFFFF
310
FFFFFFFFFFFFFFFFFF0000FFFFFFFF00FF00FFFFFFFFFFFFFFFFFFFFFFFFFFFFFFFFFFFFFFFFFFFFFF0000FFFFFFFF00FF00FFFFFFFFFFFFFFFFFFFFFFFFFFFFFFFFFFFFFFFFFFFFFF0000FFFFFFFF00FF00FFFFFFFFFFFFFFFFFFFFFFFFFFFFFFFFFFFFFFFFFFFFFF0000FFFFFFFF00FF00FFFFFFFFFFFFFFFFFFFFFFFFFF
310
FFFFFFFFFFFFFFFFFFFF0000FFFFFFFF00FF00FFFFFFFFFFFFFFFFFFFFFFFFFFFFFFFFFFFFFFFFFFFFFF0000FFFFFFFF000000FFFFFFFFFFFFFFFFFFFFFFFFFFFFFFFFFFFFFFFFFFFFFF0000FFFFFFFF000000FFFFFFFFFFFFFFFFFFFFFFFFFFFFFFFFFFFFFFFFFFFFFF0000FFFFFFFF00FF00FFFFFFFFFFFFFFFFFFFFFFFF
310
FFFFFFFFFFFFFFFFFFFFFF0000FFFFFFFF00FF00FFFFFFFFFFFFFFFFFFFFFFFFFFFFFFFFFFFFFFFFFFFFFF0000FFFFFFFF00FF00FFFFFFFFFFFFFFFFFFFFFFFFFFFFFFFFFFFFFFFFFFFFFF0000FFFFFFFF00FF00FFFFFFFFFFFFFFFFFFFFFFFFFFFFFFFFFFFFFFFFFFFFFF0000FFFFFFFF00FF00FFFFFFFFFFFFFFFFFFFFFF
310
FFFFFFFFFFFFFFFFFFFFFFFF0000FFFFFFFF00FF00FFFFFF000000000000000000000000000000000000000000000000000000FF00FFFFFF0000000000000000000000000000000000000000000000000000000000FFFFFFFFFFFFFFFFFFFFFFFFFFFFFFFFFFFFFFFFFFFFFFFFFFFFFFFFFFFFFFFFFFFFFFFFFFFFFFFFFFFF
310
FFFFFFFFFFFFFFFFFFFFFFFFFFFFFFFFFFFFFFFFFFFFFFFFFFFFFFFFFFFFFFFFFFFFFFFFFFFFFFFFFFFFFFFFFFFFFFFFFFFFFFFFFFFFFFFFFFFFFFFFFFFFFFFFFFFFFFFFFFFFFFFFFFFFFFFFFFFFFFFFFFFFFFFFFFFFFFFFFFFFFFFFFFFFFFFFFFFFFFFFFFFFFFFFFFFFFFFFFFFFFFFFFFFFFFFFFFFFFFFFFFFFFFFFFFFFFF
310
FFFFFFFFFFFFFFFFFFFFFFFFFFFFFFFFFFFFFFFFFFFFFFFFFFFFFFFFFFFFFFFFFFFFFFFFFFFFFFFFFFFFFFFFFFFFFFFFFFFFFFFFFFFFFFFF
102
{BLKREFS
331
130
331
AB
331
132
331
138
331
149
331
13C
331
150
331
193
331
14E
102
}
1001
ACAD
1000
DesignCenter Data
1002
{
1070
     1
1070
     4
1002
}
  0
BLOCK_RECORD
  5
43
330
1
100
AcDbSymbolTableRecord
100
AcDbBlockTableRecord
  2
*D2
340
0
  0
BLOCK_RECORD
  5
36
330
1
100
AcDbSymbolTableRecord
100
AcDbBlockTableRecord
  2
*D3
340
0
  0
BLOCK_RECORD
  5
D
330
1
100
AcDbSymbolTableRecord
100
AcDbBlockTableRecord
  2
*D4
340
0
  0
BLOCK_RECORD
  5
6A
330
1
100
AcDbSymbolTableRecord
100
AcDbBlockTableRecord
  2
*D5
340
0
  0
BLOCK_RECORD
  5
1C
330
1
100
AcDbSymbolTableRecord
100
AcDbBlockTableRecord
  2
*D6
340
0
  0
ENDTAB
  0
ENDSEC
  0
SECTION
  2
BLOCKS
  0
BLOCK
  5
241
330
2
100
AcDbEntity
  8
0
100
AcDbBlockBegin
  2
*Model_Space
 70
     0
 10
0.0
 20
0.0
 30
0.0
  3
*Model_Space
  1

  0
ENDBLK
  5
242
330
2
100
AcDbEntity
  8
0
100
AcDbBlockEnd
  0
BLOCK
  5
246
330
245
100
AcDbEntity
 67
     1
  8
0
100
AcDbBlockBegin
  2
*Paper_Space
 70
     0
 10
0.0
 20
0.0
 30
0.0
  3
*Paper_Space
  1

  0
ENDBLK
  5
247
330
245
100
AcDbEntity
 67
     1
  8
0
100
AcDbBlockEnd
  0
BLOCK
  5
33
330
29
100
AcDbEntity
  8
0
100
AcDbBlockBegin
  2
*D0
 70
     1
 10
0.0
 20
0.0
 30
0.0
  3
*D0
  1

  0
LINE
  5
2A
330
29
100
AcDbEntity
  8
0
 62
     0
370
    -2
100
AcDbLine
 10
3149.272708326135
 20
1684.371301723117
 30
0.0
 11
3020.398913457822
 21
1684.371301723117
 31
0.0
  0
LINE
  5
2B
330
29
100
AcDbEntity
  8
0
 62
     0
370
    -2
100
AcDbLine
 10
3149.272708326135
 20
1538.811192568276
 30
0.0
 11
3020.398913457822
 21
1538.811192568276
 31
0.0
  0
LINE
  5
2C
330
29
100
AcDbEntity
  8
0
 62
     0
370
    -2
100
AcDbLine
 10
3025.398913457822
 20
1654.371301723117
 30
0.0
 11
3025.398913457822
 21
1568.811192568276
 31
0.0
  0
MTEXT
  5
2D
330
29
100
AcDbEntity
  8
0
 62
     0
100
AcDbMText
 10
744.8889244226329
 20
3204.167246620596
 30
0.0
 40
5.0
 41
0.0
 71
     5
 72
     1
  1
31
 11
0.0000000000000001
 21
1.0
 31
0.0
 73
     1
 44
1.0
  0
SOLID
  5
2E
330
29
100
AcDbEntity
  8
0
 62
     0
100
AcDbTrace
 10
3020.398913457822
 20
1654.371301723117
 30
0.0
 11
3030.398913457822
 21
1654.371301723117
 31
0.0
 12
3025.398913457822
 22
1684.371301723117
 32
0.0
 13
3025.398913457822
 23
1684.371301723117
 33
0.0
  0
SOLID
  5
2F
330
29
100
AcDbEntity
  8
0
 62
     0
100
AcDbTrace
 10
3020.398913457822
 20
1568.811192568276
 30
0.0
 11
3030.398913457822
 21
1568.811192568276
 31
0.0
 12
3025.398913457822
 22
1538.811192568276
 32
0.0
 13
3025.398913457822
 23
1538.811192568276
 33
0.0
  0
POINT
  5
30
330
29
100
AcDbEntity
  8
Defpoints
 62
     0
100
AcDbPoint
 10
3161.272708326135
 20
1684.371301723117
 30
0.0
  0
POINT
  5
31
330
29
100
AcDbEntity
  8
Defpoints
 62
     0
100
AcDbPoint
 10
3161.272708326135
 20
1538.811192568276
 30
0.0
  0
POINT
  5
32
330
29
100
AcDbEntity
  8
Defpoints
 62
     0
100
AcDbPoint
 10
3025.398913457822
 20
1538.811192568276
 30
0.0
  0
ENDBLK
  5
34
330
29
100
AcDbEntity
  8
0
100
AcDbBlockEnd
  0
BLOCK
  5
12B
330
AC
100
AcDbEntity
  8
0
100
AcDbBlockBegin
  2
guide
 70
     0
 10
0.0
 20
0.0
 30
0.0
  3
guide
  1

  0
LINE
  5
AD
330
AC
100
AcDbEntity
  8
VM001I9$010
  6
Continuous
100
AcDbLine
 10
1226.791679468572
 20
1018.944327957144
 30
0.0
 11
1185.952638372682
 21
1018.944327957144
 31
0.0
  0
LINE
  5
AF
330
AC
100
AcDbEntity
  8
VE001I9$101
  6
Continuous
100
AcDbLine
 10
1226.791679468572
 20
1018.944327957144
 30
0.0
 11
1185.952638372682
 21
1018.944327957144
 31
0.0
  0
LINE
  5
B1
330
AC
100
AcDbEntity
  8
VM001I19$010
  6
Continuous
100
AcDbLine
 10
1220.010857550764
 20
1020.896382751665
 30
0.0
 11
1185.952638372682
 21
1020.896382751665
 31
0.0
  0
LINE
  5
B3
330
AC
100
AcDbEntity
  8
VE001I19$101
  6
Continuous
100
AcDbLine
 10
1220.010857550764
 20
1020.896382751665
 30
0.0
 11
1185.952638372682
 21
1020.896382751665
 31
0.0
  0
LINE
  5
B5
330
AC
100
AcDbEntity
  8
VM001I5$010
  6
Continuous
100
AcDbLine
 10
1226.791679468573
 20
1048.944327957144
 30
0.0
 11
1185.952638372682
 21
1048.944327957144
 31
0.0
  0
LINE
  5
B7
330
AC
100
AcDbEntity
  8
VE001I5$101
  6
Continuous
100
AcDbLine
 10
1226.791679468573
 20
1048.944327957144
 30
0.0
 11
1185.952638372682
 21
1048.944327957144
 31
0.0
  0
LINE
  5
B9
330
AC
100
AcDbEntity
  8
VM001I26$010
  6
Continuous
100
AcDbLine
 10
1220.010857550764
 20
1046.992273162624
 30
0.0
 11
1185.952638372682
 21
1046.992273162624
 31
0.0
  0
LINE
  5
BB
330
AC
100
AcDbEntity
  8
VE001I26$101
  6
Continuous
100
AcDbLine
 10
1220.010857550764
 20
1046.992273162624
 30
0.0
 11
1185.952638372682
 21
1046.992273162624
 31
0.0
  0
ARC
  5
BD
330
AC
100
AcDbEntity
  8
VE001I27$101
  6
Continuous
100
AcDbCircle
 10
1185.952638372682
 20
1019.920355354405
 30
0.0
 40
0.9760273972602723
100
AcDbArc
 50
90.0
 51
270.0
  0
ARC
  5
BF
330
AC
100
AcDbEntity
  8
VM001I27$010
  6
Continuous
100
AcDbCircle
 10
1185.952638372682
 20
1019.920355354405
 30
0.0
 40
0.9760273972602723
100
AcDbArc
 50
90.0
 51
270.0
  0
ARC
  5
C1
330
AC
100
AcDbEntity
  8
VM001I27$010
  6
Continuous
100
AcDbCircle
 10
1185.952638372682
 20
1047.968300559884
 30
0.0
 40
0.9760273972602723
100
AcDbArc
 50
90.0
 51
270.0
  0
ARC
  5
C2
330
AC
100
AcDbEntity
  8
VE001I27$101
  6
Continuous
100
AcDbCircle
 10
1185.952638372682
 20
1047.968300559884
 30
0.0
 40
0.9760273972602723
100
AcDbArc
 50
90.0
 51
270.0
  0
LINE
  5
C3
330
AC
100
AcDbEntity
  8
VM001I23$010
  6
Continuous
100
AcDbLine
 10
1220.832775358983
 20
1021.718300559884
 30
0.0
 11
1220.832775358983
 21
1033.379259463993
 31
0.0
  0
LINE
  5
C5
330
AC
100
AcDbEntity
  8
VE001I23$101
  6
Continuous
100
AcDbLine
 10
1220.832775358983
 20
1021.718300559884
 30
0.0
 11
1220.832775358983
 21
1033.379259463993
 31
0.0
  0
LINE
  5
C7
330
AC
100
AcDbEntity
  8
VM001I2$010
  6
Continuous
100
AcDbLine
 10
1222.425241112408
 20
1021.718300559884
 30
0.0
 11
1222.425241112408
 21
1046.170355354404
 31
0.0
  0
LINE
  5
C8
330
AC
100
AcDbEntity
  8
VE001I2$101
  6
Continuous
100
AcDbLine
 10
1222.425241112408
 20
1021.718300559884
 30
0.0
 11
1222.425241112408
 21
1046.170355354404
 31
0.0
  0
LINE
  5
C9
330
AC
100
AcDbEntity
  8
VM001I17$010
  6
Continuous
100
AcDbLine
 10
1233.880720564463
 20
1018.944327957144
 30
0.0
 11
1233.880720564463
 21
1033.379259463993
 31
0.0
  0
LINE
  5
CB
330
AC
100
AcDbEntity
  8
VE001I17$101
  6
Continuous
100
AcDbLine
 10
1233.880720564463
 20
1018.944327957144
 30
0.0
 11
1233.880720564463
 21
1033.379259463993
 31
0.0
  0
LINE
  5
CD
330
AC
100
AcDbEntity
  8
VM001I25$010
  6
Continuous
100
AcDbLine
 10
1231.928665769942
 20
1021.718300559884
 30
0.0
 11
1231.928665769942
 21
1046.170355354404
 31
0.0
  0
LINE
  5
CE
330
AC
100
AcDbEntity
  8
VE001I25$101
  6
Continuous
100
AcDbLine
 10
1231.928665769942
 20
1021.718300559884
 30
0.0
 11
1231.928665769942
 21
1046.170355354404
 31
0.0
  0
ARC
  5
CF
330
AC
100
AcDbEntity
  8
VM001I31$010
  6
Continuous
100
AcDbCircle
 10
1220.010857550764
 20
1021.718300559884
 30
0.0
 40
0.8219178082191767
100
AcDbArc
 50
270.0
 51
0.0
  0
ARC
  5
D1
330
AC
100
AcDbEntity
  8
VE001I31$101
  6
Continuous
100
AcDbCircle
 10
1220.010857550764
 20
1021.718300559884
 30
0.0
 40
0.8219178082191767
100
AcDbArc
 50
270.0
 51
0.0
  0
ARC
  5
D3
330
AC
100
AcDbEntity
  8
VM001I28$010
  6
Continuous
100
AcDbCircle
 10
1231.106747961723
 20
1021.718300559884
 30
0.0
 40
0.8219178082191767
100
AcDbArc
 50
270.0
 51
0.0
  0
ARC
  5
D5
330
AC
100
AcDbEntity
  8
VE001I28$101
  6
Continuous
100
AcDbCircle
 10
1231.106747961723
 20
1021.718300559884
 30
0.0
 40
0.8219178082191767
100
AcDbArc
 50
270.0
 51
0.0
  0
ARC
  5
D7
330
AC
100
AcDbEntity
  8
VM001I33$010
  6
Continuous
100
AcDbCircle
 10
1223.247158920627
 20
1021.718300559884
 30
0.0
 40
0.8219178082191767
100
AcDbArc
 50
180.0
 51
270.0
  0
ARC
  5
D9
330
AC
100
AcDbEntity
  8
VE001I33$101
  6
Continuous
100
AcDbCircle
 10
1223.247158920627
 20
1021.718300559884
 30
0.0
 40
0.8219178082191767
100
AcDbArc
 50
180.0
 51
270.0
  0
LINE
  5
DB
330
AC
100
AcDbEntity
  8
VM001I20$010
  6
Continuous
100
AcDbLine
 10
1227.613597276792
 20
1019.252547135226
 30
0.0
 11
1227.099898646654
 21
1019.252547135226
 31
0.0
  0
LINE
  5
DD
330
AC
100
AcDbEntity
  8
VE001I20$101
  6
Continuous
100
AcDbLine
 10
1227.613597276792
 20
1019.252547135226
 30
0.0
 11
1227.099898646654
 21
1019.252547135226
 31
0.0
  0
LINE
  5
DF
330
AC
100
AcDbEntity
  8
VM001I14$010
  6
Continuous
100
AcDbLine
 10
1227.613597276792
 20
1019.252547135226
 30
0.0
 11
1227.921816454874
 21
1018.944327957144
 31
0.0
  0
LINE
  5
E1
330
AC
100
AcDbEntity
  8
VE001I14$101
  6
Continuous
100
AcDbLine
 10
1227.613597276792
 20
1019.252547135226
 30
0.0
 11
1227.921816454874
 21
1018.944327957144
 31
0.0
  0
LINE
  5
E3
330
AC
100
AcDbEntity
  8
VM001I24$010
  6
Continuous
100
AcDbLine
 10
1227.099898646654
 20
1019.252547135226
 30
0.0
 11
1226.791679468572
 21
1018.944327957144
 31
0.0
  0
LINE
  5
E5
330
AC
100
AcDbEntity
  8
VE001I24$101
  6
Continuous
100
AcDbLine
 10
1227.099898646654
 20
1019.252547135226
 30
0.0
 11
1226.791679468572
 21
1018.944327957144
 31
0.0
  0
LINE
  5
E7
330
AC
100
AcDbEntity
  8
VM001I12$010
  6
Continuous
100
AcDbLine
 10
1231.106747961723
 20
1020.896382751665
 30
0.0
 11
1223.247158920628
 21
1020.896382751665
 31
0.0
  0
LINE
  5
E9
330
AC
100
AcDbEntity
  8
VE001I12$101
  6
Continuous
100
AcDbLine
 10
1231.106747961723
 20
1020.896382751665
 30
0.0
 11
1223.247158920628
 21
1020.896382751665
 31
0.0
  0
LINE
  5
EB
330
AC
100
AcDbEntity
  8
VM001I16$010
  6
Continuous
100
AcDbLine
 10
1233.880720564463
 20
1018.944327957144
 30
0.0
 11
1227.921816454874
 21
1018.944327957144
 31
0.0
  0
LINE
  5
ED
330
AC
100
AcDbEntity
  8
VE001I16$101
  6
Continuous
100
AcDbLine
 10
1233.880720564463
 20
1018.944327957144
 30
0.0
 11
1227.921816454874
 21
1018.944327957144
 31
0.0
  0
LINE
  5
EF
330
AC
100
AcDbEntity
  8
VM001I7$010
  6
Continuous
100
AcDbLine
 10
1221.140994537066
 20
1033.687478642076
 30
0.0
 11
1220.832775358983
 21
1033.379259463993
 31
0.0
  0
LINE
  5
F1
330
AC
100
AcDbEntity
  8
VE001I7$101
  6
Continuous
100
AcDbLine
 10
1221.140994537066
 20
1033.687478642076
 30
0.0
 11
1220.832775358983
 21
1033.379259463993
 31
0.0
  0
LINE
  5
F3
330
AC
100
AcDbEntity
  8
VM001I11$010
  6
Continuous
100
AcDbLine
 10
1221.140994537066
 20
1034.201177272213
 30
0.0
 11
1220.832775358983
 21
1034.509396450295
 31
0.0
  0
LINE
  5
F5
330
AC
100
AcDbEntity
  8
VE001I11$101
  6
Continuous
100
AcDbLine
 10
1221.140994537066
 20
1034.201177272213
 30
0.0
 11
1220.832775358983
 21
1034.509396450295
 31
0.0
  0
LINE
  5
F7
330
AC
100
AcDbEntity
  8
VM001I22$010
  6
Continuous
100
AcDbLine
 10
1220.832775358983
 20
1034.509396450295
 30
0.0
 11
1220.832775358983
 21
1046.170355354404
 31
0.0
  0
LINE
  5
F8
330
AC
100
AcDbEntity
  8
VE001I22$101
  6
Continuous
100
AcDbLine
 10
1220.832775358983
 20
1034.509396450295
 30
0.0
 11
1220.832775358983
 21
1046.170355354404
 31
0.0
  0
ARC
  5
F9
330
AC
100
AcDbEntity
  8
VM001I32$010
  6
Continuous
100
AcDbCircle
 10
1220.010857550764
 20
1046.170355354404
 30
0.0
 40
0.8219178082191767
100
AcDbArc
 50
0.0
 51
90.0
  0
ARC
  5
FB
330
AC
100
AcDbEntity
  8
VE001I32$101
  6
Continuous
100
AcDbCircle
 10
1220.010857550764
 20
1046.170355354404
 30
0.0
 40
0.8219178082191767
100
AcDbArc
 50
0.0
 51
90.0
  0
LINE
  5
FD
330
AC
100
AcDbEntity
  8
VM001I21$010
  6
Continuous
100
AcDbLine
 10
1221.140994537066
 20
1033.687478642076
 30
0.0
 11
1221.140994537066
 21
1034.201177272213
 31
0.0
  0
LINE
  5
FF
330
AC
100
AcDbEntity
  8
VE001I21$101
  6
Continuous
100
AcDbLine
 10
1221.140994537066
 20
1033.687478642076
 30
0.0
 11
1221.140994537066
 21
1034.201177272213
 31
0.0
  0
LINE
  5
101
330
AC
100
AcDbEntity
  8
VM001I10$010
  6
Continuous
100
AcDbLine
 10
1233.572501386381
 20
1033.687478642076
 30
0.0
 11
1233.880720564463
 21
1033.379259463993
 31
0.0
  0
LINE
  5
103
330
AC
100
AcDbEntity
  8
VE001I10$101
  6
Continuous
100
AcDbLine
 10
1233.572501386381
 20
1033.687478642076
 30
0.0
 11
1233.880720564463
 21
1033.379259463993
 31
0.0
  0
LINE
  5
105
330
AC
100
AcDbEntity
  8
VM001I15$010
  6
Continuous
100
AcDbLine
 10
1233.572501386381
 20
1034.201177272213
 30
0.0
 11
1233.880720564463
 21
1034.509396450295
 31
0.0
  0
LINE
  5
107
330
AC
100
AcDbEntity
  8
VE001I15$101
  6
Continuous
100
AcDbLine
 10
1233.572501386381
 20
1034.201177272213
 30
0.0
 11
1233.880720564463
 21
1034.509396450295
 31
0.0
  0
LINE
  5
109
330
AC
100
AcDbEntity
  8
VM001I18$010
  6
Continuous
100
AcDbLine
 10
1233.880720564463
 20
1034.509396450295
 30
0.0
 11
1233.880720564463
 21
1048.944327957144
 31
0.0
  0
LINE
  5
10A
330
AC
100
AcDbEntity
  8
VE001I18$101
  6
Continuous
100
AcDbLine
 10
1233.880720564463
 20
1034.509396450295
 30
0.0
 11
1233.880720564463
 21
1048.944327957144
 31
0.0
  0
ARC
  5
10B
330
AC
100
AcDbEntity
  8
VM001I34$010
  6
Continuous
100
AcDbCircle
 10
1231.106747961723
 20
1046.170355354404
 30
0.0
 40
0.8219178082191767
100
AcDbArc
 50
0.0
 51
90.0
  0
ARC
  5
10D
330
AC
100
AcDbEntity
  8
VE001I34$101
  6
Continuous
100
AcDbCircle
 10
1231.106747961723
 20
1046.170355354404
 30
0.0
 40
0.8219178082191767
100
AcDbArc
 50
0.0
 51
90.0
  0
LINE
  5
10F
330
AC
100
AcDbEntity
  8
VM001I13$010
  6
Continuous
100
AcDbLine
 10
1233.572501386381
 20
1033.687478642076
 30
0.0
 11
1233.572501386381
 21
1034.201177272213
 31
0.0
  0
LINE
  5
111
330
AC
100
AcDbEntity
  8
VE001I13$101
  6
Continuous
100
AcDbLine
 10
1233.572501386381
 20
1033.687478642076
 30
0.0
 11
1233.572501386381
 21
1034.201177272213
 31
0.0
  0
ARC
  5
113
330
AC
100
AcDbEntity
  8
VM001I29$010
  6
Continuous
100
AcDbCircle
 10
1223.247158920628
 20
1046.170355354404
 30
0.0
 40
0.8219178082191767
100
AcDbArc
 50
90.0
 51
180.0
  0
ARC
  5
115
330
AC
100
AcDbEntity
  8
VE001I29$101
  6
Continuous
100
AcDbCircle
 10
1223.247158920628
 20
1046.170355354404
 30
0.0
 40
0.8219178082191767
100
AcDbArc
 50
90.0
 51
180.0
  0
LINE
  5
117
330
AC
100
AcDbEntity
  8
VM001I3$010
  6
Continuous
100
AcDbLine
 10
1227.613597276792
 20
1048.636108779062
 30
0.0
 11
1227.099898646654
 21
1048.636108779062
 31
0.0
  0
LINE
  5
119
330
AC
100
AcDbEntity
  8
VE001I3$101
  6
Continuous
100
AcDbLine
 10
1227.613597276792
 20
1048.636108779062
 30
0.0
 11
1227.099898646654
 21
1048.636108779062
 31
0.0
  0
LINE
  5
11B
330
AC
100
AcDbEntity
  8
VM001I1$010
  6
Continuous
100
AcDbLine
 10
1227.613597276792
 20
1048.636108779062
 30
0.0
 11
1227.921816454874
 21
1048.944327957144
 31
0.0
  0
LINE
  5
11D
330
AC
100
AcDbEntity
  8
VE001I1$101
  6
Continuous
100
AcDbLine
 10
1227.613597276792
 20
1048.636108779062
 30
0.0
 11
1227.921816454874
 21
1048.944327957144
 31
0.0
  0
LINE
  5
11F
330
AC
100
AcDbEntity
  8
VM001I4$010
  6
Continuous
100
AcDbLine
 10
1227.099898646654
 20
1048.636108779062
 30
0.0
 11
1226.791679468573
 21
1048.944327957144
 31
0.0
  0
LINE
  5
121
330
AC
100
AcDbEntity
  8
VE001I4$101
  6
Continuous
100
AcDbLine
 10
1227.099898646654
 20
1048.636108779062
 30
0.0
 11
1226.791679468573
 21
1048.944327957144
 31
0.0
  0
LINE
  5
123
330
AC
100
AcDbEntity
  8
VM001I8$010
  6
Continuous
100
AcDbLine
 10
1231.106747961723
 20
1046.992273162624
 30
0.0
 11
1223.247158920628
 21
1046.992273162624
 31
0.0
  0
LINE
  5
125
330
AC
100
AcDbEntity
  8
VE001I8$101
  6
Continuous
100
AcDbLine
 10
1231.106747961723
 20
1046.992273162624
 30
0.0
 11
1223.247158920628
 21
1046.992273162624
 31
0.0
  0
LINE
  5
127
330
AC
100
AcDbEntity
  8
VM001I6$010
  6
Continuous
100
AcDbLine
 10
1233.880720564463
 20
1048.944327957144
 30
0.0
 11
1227.921816454874
 21
1048.944327957144
 31
0.0
  0
LINE
  5
129
330
AC
100
AcDbEntity
  8
VE001I6$101
  6
Continuous
100
AcDbLine
 10
1233.880720564463
 20
1048.944327957144
 30
0.0
 11
1227.921816454874
 21
1048.944327957144
 31
0.0
  0
ENDBLK
  5
12C
330
AC
100
AcDbEntity
  8
0
100
AcDbBlockEnd
  0
BLOCK
  5
4D
330
43
100
AcDbEntity
  8
0
100
AcDbBlockBegin
  2
*D2
 70
     1
 10
0.0
 20
0.0
 30
0.0
  3
*D2
  1

  0
LINE
  5
44
330
43
100
AcDbEntity
  8
0
 62
     0
370
    -2
100
AcDbLine
 10
4387.143752841455
 20
1485.944271277455
 30
0.0
 11
4387.143752841455
 21
1398.922262032293
 31
0.0
  0
LINE
  5
45
330
43
100
AcDbEntity
  8
0
 62
     0
370
    -2
100
AcDbLine
 10
4596.906244446816
 20
1485.944271277455
 30
0.0
 11
4596.906244446816
 21
1398.922262032293
 31
0.0
  0
LINE
  5
46
330
43
100
AcDbEntity
  8
0
 62
     0
370
    -2
100
AcDbLine
 10
4417.143752841456
 20
1403.922262032293
 30
0.0
 11
4566.906244446816
 21
1403.922262032293
 31
0.0
  0
MTEXT
  5
47
330
43
100
AcDbEntity
  8
0
 62
     0
100
AcDbMText
 10
986.4657413503095
 20
4266.892581638301
 30
0.0
 40
5.0
 41
0.0
 71
     5
 72
     1
  1
48
 73
     1
 44
1.0
  0
SOLID
  5
48
330
43
100
AcDbEntity
  8
0
 62
     0
100
AcDbTrace
 10
4417.143752841456
 20
1408.922262032293
 30
0.0
 11
4417.143752841456
 21
1398.922262032293
 31
0.0
 12
4387.143752841455
 22
1403.922262032293
 32
0.0
 13
4387.143752841455
 23
1403.922262032293
 33
0.0
  0
SOLID
  5
49
330
43
100
AcDbEntity
  8
0
 62
     0
100
AcDbTrace
 10
4566.906244446816
 20
1408.922262032293
 30
0.0
 11
4566.906244446816
 21
1398.922262032293
 31
0.0
 12
4596.906244446816
 22
1403.922262032293
 32
0.0
 13
4596.906244446816
 23
1403.922262032293
 33
0.0
  0
POINT
  5
4A
330
43
100
AcDbEntity
  8
Defpoints
 62
     0
100
AcDbPoint
 10
4387.143752841455
 20
1497.944271277455
 30
0.0
  0
POINT
  5
4B
330
43
100
AcDbEntity
  8
Defpoints
 62
     0
100
AcDbPoint
 10
4596.906244446816
 20
1497.944271277455
 30
0.0
  0
POINT
  5
4C
330
43
100
AcDbEntity
  8
Defpoints
 62
     0
100
AcDbPoint
 10
4596.906244446816
 20
1403.922262032293
 30
0.0
  0
ENDBLK
  5
4E
330
43
100
AcDbEntity
  8
0
100
AcDbBlockEnd
  0
BLOCK
  5
40
330
36
100
AcDbEntity
  8
0
100
AcDbBlockBegin
  2
*D3
 70
     1
 10
0.0
 20
0.0
 30
0.0
  3
*D3
  1

  0
LINE
  5
37
330
36
100
AcDbEntity
  8
0
 62
     0
370
    -2
100
AcDbLine
 10
4367.143752841456
 20
1684.371301723117
 30
0.0
 11
4238.26995797314
 21
1684.371301723117
 31
0.0
  0
LINE
  5
38
330
36
100
AcDbEntity
  8
0
 62
     0
370
    -2
100
AcDbLine
 10
4367.143752841456
 20
1538.811192568276
 30
0.0
 11
4238.26995797314
 21
1538.811192568276
 31
0.0
  0
LINE
  5
39
330
36
100
AcDbEntity
  8
0
 62
     0
370
    -2
100
AcDbLine
 10
4243.269957973139
 20
1654.371301723117
 30
0.0
 11
4243.269957973139
 21
1568.811192568276
 31
0.0
  0
MTEXT
  5
3A
330
36
100
AcDbEntity
  8
0
 62
     0
100
AcDbMText
 10
379.793722879443
 20
3196.925200307528
 30
0.0
 40
5.0
 41
0.0
 71
     5
 72
     1
  1
31
 11
0.0000000000000001
 21
1.0
 31
0.0
 73
     1
 44
1.0
  0
SOLID
  5
3B
330
36
100
AcDbEntity
  8
0
 62
     0
100
AcDbTrace
 10
4238.26995797314
 20
1654.371301723117
 30
0.0
 11
4248.269957973139
 21
1654.371301723117
 31
0.0
 12
4243.269957973139
 22
1684.371301723117
 32
0.0
 13
4243.269957973139
 23
1684.371301723117
 33
0.0
  0
SOLID
  5
3C
330
36
100
AcDbEntity
  8
0
 62
     0
100
AcDbTrace
 10
4238.26995797314
 20
1568.811192568276
 30
0.0
 11
4248.269957973139
 21
1568.811192568276
 31
0.0
 12
4243.269957973139
 22
1538.811192568276
 32
0.0
 13
4243.269957973139
 23
1538.811192568276
 33
0.0
  0
POINT
  5
3D
330
36
100
AcDbEntity
  8
Defpoints
 62
     0
100
AcDbPoint
 10
4379.143752841455
 20
1684.371301723117
 30
0.0
  0
POINT
  5
3E
330
36
100
AcDbEntity
  8
Defpoints
 62
     0
100
AcDbPoint
 10
4379.143752841455
 20
1538.811192568276
 30
0.0
  0
POINT
  5
3F
330
36
100
AcDbEntity
  8
Defpoints
 62
     0
100
AcDbPoint
 10
4243.269957973139
 20
1538.811192568276
 30
0.0
  0
ENDBLK
  5
41
330
36
100
AcDbEntity
  8
0
100
AcDbBlockEnd
  0
BLOCK
  5
18
330
D
100
AcDbEntity
  8
0
100
AcDbBlockBegin
  2
*D4
 70
     1
 10
0.0
 20
0.0
 30
0.0
  3
*D4
  1

  0
LINE
  5
E
330
D
100
AcDbEntity
  8
0
 62
     0
370
    -2
100
AcDbLine
 10
2868.519538630257
 20
1684.371301723117
 30
0.0
 11
2871.871411070979
 21
1684.371301723117
 31
0.0
  0
LINE
  5
F
330
D
100
AcDbEntity
  8
0
 62
     0
370
    -2
100
AcDbLine
 10
2909.136540620751
 20
1459.591247145697
 30
0.0
 11
2871.871411070979
 21
1459.591247145697
 31
0.0
  0
LINE
  5
10
330
D
100
AcDbEntity
  8
0
 62
     0
370
    -2
100
AcDbLine
 10
2876.871411070979
 20
1654.371301723117
 30
0.0
 11
2876.871411070979
 21
1489.591247145697
 31
0.0
  0
MTEXT
  5
11
330
D
100
AcDbEntity
  8
0
 62
     0
100
AcDbMText
 10
-1811.765559091854
 20
2503.397251798623
 30
0.0
 40
5.0
 41
0.0
 71
     5
 72
     1
  1
224,78
 11
0.0000000000000001
 21
1.0
 31
0.0
 73
     1
 44
1.0
  0
SOLID
  5
12
330
D
100
AcDbEntity
  8
0
 62
     0
100
AcDbTrace
 10
2871.871411070979
 20
1654.371301723117
 30
0.0
 11
2881.871411070979
 21
1654.371301723117
 31
0.0
 12
2876.871411070979
 22
1684.371301723117
 32
0.0
 13
2876.871411070979
 23
1684.371301723117
 33
0.0
  0
SOLID
  5
13
330
D
100
AcDbEntity
  8
0
 62
     0
100
AcDbTrace
 10
2871.871411070979
 20
1489.591247145697
 30
0.0
 11
2881.871411070979
 21
1489.591247145697
 31
0.0
 12
2876.871411070979
 22
1459.591247145697
 32
0.0
 13
2876.871411070979
 23
1459.591247145697
 33
0.0
  0
POINT
  5
14
330
D
100
AcDbEntity
  8
Defpoints
 62
     0
100
AcDbPoint
 10
2880.519538630257
 20
1684.371301723117
 30
0.0
  0
POINT
  5
16
330
D
100
AcDbEntity
  8
Defpoints
 62
     0
100
AcDbPoint
 10
2921.13654062075
 20
1459.591247145697
 30
0.0
  0
POINT
  5
17
330
D
100
AcDbEntity
  8
Defpoints
 62
     0
100
AcDbPoint
 10
2876.871411070979
 20
1459.591247145697
 30
0.0
  0
ENDBLK
  5
19
330
D
100
AcDbEntity
  8
0
100
AcDbBlockEnd
  0
BLOCK
  5
74
330
6A
100
AcDbEntity
  8
0
100
AcDbBlockBegin
  2
*D5
 70
     1
 10
0.0
 20
0.0
 30
0.0
  3
*D5
  1

  0
LINE
  5
6B
330
6A
100
AcDbEntity
  8
0
 62
     0
370
    -2
100
AcDbLine
 10
3169.272708326135
 20
1272.121170165572
 30
0.0
 11
3169.272708326135
 21
1350.325984570488
 31
0.0
  0
LINE
  5
6C
330
6A
100
AcDbEntity
  8
0
 62
     0
370
    -2
100
AcDbLine
 10
3449.123736353211
 20
1549.591247145697
 30
0.0
 11
3449.123736353211
 21
1340.325984570488
 31
0.0
  0
LINE
  5
6D
330
6A
100
AcDbEntity
  8
0
 62
     0
370
    -2
100
AcDbLine
 10
3199.272708326136
 20
1345.325984570489
 30
0.0
 11
3419.12373635321
 21
1345.325984570489
 31
0.0
  0
MTEXT
  5
6E
330
6A
100
AcDbEntity
  8
0
 62
     0
100
AcDbMText
 10
1480.471441856583
 20
4226.121780219523
 30
0.0
 40
5.0
 41
0.0
 71
     5
 72
     1
  1
66
 73
     1
 44
1.0
  0
SOLID
  5
6F
330
6A
100
AcDbEntity
  8
0
 62
     0
100
AcDbTrace
 10
3199.272708326136
 20
1350.325984570488
 30
0.0
 11
3199.272708326136
 21
1340.325984570488
 31
0.0
 12
3169.272708326135
 22
1345.325984570489
 32
0.0
 13
3169.272708326135
 23
1345.325984570489
 33
0.0
  0
SOLID
  5
70
330
6A
100
AcDbEntity
  8
0
 62
     0
100
AcDbTrace
 10
3419.12373635321
 20
1350.325984570488
 30
0.0
 11
3419.12373635321
 21
1340.325984570488
 31
0.0
 12
3449.123736353211
 22
1345.325984570489
 32
0.0
 13
3449.123736353211
 23
1345.325984570489
 33
0.0
  0
POINT
  5
71
330
6A
100
AcDbEntity
  8
Defpoints
 62
     0
100
AcDbPoint
 10
3169.272708326135
 20
1260.121170165572
 30
0.0
  0
POINT
  5
72
330
6A
100
AcDbEntity
  8
Defpoints
 62
     0
100
AcDbPoint
 10
3449.123736353211
 20
1561.591247145697
 30
0.0
  0
POINT
  5
73
330
6A
100
AcDbEntity
  8
Defpoints
 62
     0
100
AcDbPoint
 10
3449.123736353211
 20
1345.325984570489
 30
0.0
  0
ENDBLK
  5
75
330
6A
100
AcDbEntity
  8
0
100
AcDbBlockEnd
  0
BLOCK
  5
26
330
1C
100
AcDbEntity
  8
0
100
AcDbBlockBegin
  2
*D6
 70
     1
 10
0.0
 20
0.0
 30
0.0
  3
*D6
  1

  0
LINE
  5
1D
330
1C
100
AcDbEntity
  8
0
 62
     0
370
    -2
100
AcDbLine
 10
3169.272708326135
 20
1276.462512473362
 30
0.0
 11
3169.272708326135
 21
1429.844373103498
 31
0.0
  0
LINE
  5
1E
330
1C
100
AcDbEntity
  8
0
 62
     0
370
    -2
100
AcDbLine
 10
3377.12373635321
 20
1549.591247145697
 30
0.0
 11
3377.12373635321
 21
1419.844373103498
 31
0.0
  0
LINE
  5
1F
330
1C
100
AcDbEntity
  8
0
 62
     0
370
    -2
100
AcDbLine
 10
3199.272708326136
 20
1424.844373103498
 30
0.0
 11
3347.12373635321
 21
1424.844373103498
 31
0.0
  0
MTEXT
  5
20
330
1C
100
AcDbEntity
  8
0
 62
     0
100
AcDbMText
 10
744.8889244226329
 20
3233.135431872869
 30
0.0
 40
5.0
 41
0.0
 71
     5
 72
     1
  1
48
 73
     1
 44
1.0
  0
SOLID
  5
21
330
1C
100
AcDbEntity
  8
0
 62
     0
100
AcDbTrace
 10
3199.272708326136
 20
1429.844373103498
 30
0.0
 11
3199.272708326136
 21
1419.844373103498
 31
0.0
 12
3169.272708326135
 22
1424.844373103498
 32
0.0
 13
3169.272708326135
 23
1424.844373103498
 33
0.0
  0
SOLID
  5
22
330
1C
100
AcDbEntity
  8
0
 62
     0
100
AcDbTrace
 10
3347.12373635321
 20
1429.844373103498
 30
0.0
 11
3347.12373635321
 21
1419.844373103498
 31
0.0
 12
3377.12373635321
 22
1424.844373103498
 32
0.0
 13
3377.12373635321
 23
1424.844373103498
 33
0.0
  0
POINT
  5
23
330
1C
100
AcDbEntity
  8
Defpoints
 62
     0
100
AcDbPoint
 10
3169.272708326135
 20
1264.462512473362
 30
0.0
  0
POINT
  5
24
330
1C
100
AcDbEntity
  8
Defpoints
 62
     0
100
AcDbPoint
 10
3377.12373635321
 20
1561.591247145697
 30
0.0
  0
POINT
  5
25
330
1C
100
AcDbEntity
  8
Defpoints
 62
     0
100
AcDbPoint
 10
3377.12373635321
 20
1424.844373103498
 30
0.0
  0
ENDBLK
  5
27
330
1C
100
AcDbEntity
  8
0
100
AcDbBlockEnd
  0
ENDSEC
  0
SECTION
  2
ENTITIES
  0
DIMENSION
  5
3
102
{ACAD_XDICTIONARY
360
4
102
}
102
{ACAD_REACTORS
330
5
102
}
330
2
100
AcDbEntity
  8
0
100
AcDbDimension
  2
*D4
 10
2876.871411070979
 20
1459.591247145697
 30
0.0
 11
-1811.765559091854
 21
2503.397251798623
 31
0.0
 70
   160
 71
     5
 42
224.7800545774207
  3
ISO-25
100
AcDbAlignedDimension
 13
2880.519538630257
 23
1684.371301723117
 33
0.0
 14
2921.13654062075
 24
1459.591247145697
 34
0.0
 50
90.0
100
AcDbRotatedDimension
1001
ACAD
1000
DSTYLE
1002
{
1070
   279
1070
     2
1002
}
  0
DIMENSION
  5
1B
330
2
100
AcDbEntity
  8
0
100
AcDbDimension
  2
*D6
 10
3377.12373635321
 20
1424.844373103498
 30
0.0
 11
744.8889244226329
 21
3233.135431872869
 31
0.0
 70
   160
  1
48
 71
     5
 42
207.8510280270748
  3
ISO-25
100
AcDbAlignedDimension
 13
3169.272708326135
 23
1264.462512473362
 33
0.0
 14
3377.12373635321
 24
1561.591247145697
 34
0.0
100
AcDbRotatedDimension
1001
ACAD
1000
DSTYLE
1002
{
1070
   279
1070
     2
1002
}
  0
DIMENSION
  5
28
330
2
100
AcDbEntity
  8
0
100
AcDbDimension
  2
*D0
 10
3025.398913457822
 20
1538.811192568276
 30
0.0
 11
744.8889244226329
 21
3204.167246620596
 31
0.0
 70
   128
  1
31
 71
     5
 42
145.5601091548414
  3
ISO-25
100
AcDbAlignedDimension
 13
3161.272708326135
 23
1684.371301723117
 33
0.0
 14
3161.272708326135
 24
1538.811192568276
 34
0.0
 50
90.0
100
AcDbRotatedDimension
1001
ACAD
1000
DSTYLE
1002
{
1070
   279
1070
     2
1002
}
  0
DIMENSION
  5
35
330
2
100
AcDbEntity
  8
0
100
AcDbDimension
  2
*D3
 10
4243.269957973139
 20
1538.811192568276
 30
0.0
 11
379.793722879443
 21
3196.925200307528
 31
0.0
 70
   128
  1
31
 71
     5
 42
145.5601091548414
  3
ISO-25
100
AcDbAlignedDimension
 13
4379.143752841455
 23
1684.371301723117
 33
0.0
 14
4379.143752841455
 24
1538.811192568276
 34
0.0
 50
90.0
100
AcDbRotatedDimension
1001
ACAD
1000
DSTYLE
1002
{
1070
   279
1070
     2
1002
}
  0
DIMENSION
  5
42
330
2
100
AcDbEntity
  8
0
100
AcDbDimension
  2
*D2
 10
4596.906244446816
 20
1403.922262032293
 30
0.0
 11
986.4657413503095
 21
4266.892581638301
 31
0.0
 70
   128
  1
48
 71
     5
 42
209.762491605361
  3
ISO-25
100
AcDbAlignedDimension
 13
4387.143752841455
 23
1497.944271277455
 33
0.0
 14
4596.906244446816
 24
1497.944271277455
 34
0.0
100
AcDbRotatedDimension
1001
ACAD
1000
DSTYLE
1002
{
1070
   279
1070
     2
1002
}
  0
MTEXT
  5
4F
330
2
100
AcDbEntity
  8
0
100
AcDbMText
 10
2089.565985981953
 20
1659.24867610138
 30
0.0
 40
30.0
 41
813.3625
 71
     1
 72
     5
  1
45mm MIN. SLOT IN UNDERSIDE OF BULKHEAD, FOR ENTIRE LENGTH OF ROLLER DOOR, TO ACCOMODATE BOTTOM RAIL
 73
     1
 44
1.0
  0
LINE
  5
50
330
2
100
AcDbEntity
  8
VM001I2$010
  6
Continuous
100
AcDbLine
 10
3321.266731157489
 20
1562.253676911246
 30
0.0
 11
3321.266731157489
 21
1660.061896089327
 31
0.0
  0
LINE
  5
52
330
2
100
AcDbEntity
  8
VE001I2$101
  6
Continuous
100
AcDbLine
 10
3321.266731157489
 20
1562.253676911246
 30
0.0
 11
3321.266731157489
 21
1660.061896089327
 31
0.0
  0
LINE
  5
54
330
2
100
AcDbEntity
  8
VM001I22$010
  6
Continuous
100
AcDbLine
 10
3314.89686814379
 20
1613.418060472889
 30
0.0
 11
3314.89686814379
 21
1660.061896089327
 31
0.0
  0
LINE
  5
56
330
2
100
AcDbEntity
  8
VE001I22$101
  6
Continuous
100
AcDbLine
 10
3314.89686814379
 20
1613.418060472889
 30
0.0
 11
3314.89686814379
 21
1660.061896089327
 31
0.0
  0
HATCH
  5
58
330
2
100
AcDbEntity
  8
0
100
AcDbHatch
 10
0.0
 20
0.0
 30
0.0
210
0.0
220
0.0
230
1.0
  2
ANSI31
 70
     0
 71
     0
 91
        2
 92
        7
 72
     0
 73
     1
 93
        4
 10
3449.123736353211
 20
1611.591247145697
 10
3377.12373635321
 20
1611.591247145697
 10
3377.12373635321
 20
1561.591247145697
 10
3449.123736353211
 20
1561.591247145697
 97
        0
 92
        7
 72
     0
 73
     1
 93
        4
 10
3449.123736353211
 20
1661.591247145697
 10
3377.12373635321
 20
1661.591247145697
 10
3377.12373635321
 20
1611.591247145697
 10
3449.123736353211
 20
1611.591247145697
 97
        0
 75
     0
 76
     1
 52
0.0
 41
4.0
 77
     0
 78
     1
 53
45.0
 43
2543.339909867501
 44
915.3227542428169
 45
-8.980256121069151
 46
8.980256121069153
 79
     0
 47
0.294668751043348
 98
        2
 10
3420.794372035681
 20
1589.033879572519
 10
3410.171783145833
 20
1635.002201609512
  0
LINE
  5
59
330
2
100
AcDbEntity
  8
0
100
AcDbLine
 10
3449.123736353211
 20
1561.591247145697
 30
0.0
 11
3449.123736353211
 21
1661.591247145697
 31
0.0
  0
LINE
  5
5A
330
2
100
AcDbEntity
  8
0
100
AcDbLine
 10
3377.12373635321
 20
1661.591247145697
 30
0.0
 11
3377.12373635321
 21
1561.591247145697
 31
0.0
  0
LINE
  5
5B
330
2
100
AcDbEntity
  8
VM001I25$010
  6
Continuous
100
AcDbLine
 10
3359.280429787626
 20
1562.253676911246
 30
0.0
 11
3359.280429787626
 21
1660.061896089327
 31
0.0
  0
LINE
  5
5D
330
2
100
AcDbEntity
  8
VE001I25$101
  6
Continuous
100
AcDbLine
 10
3359.280429787626
 20
1562.253676911246
 30
0.0
 11
3359.280429787626
 21
1660.061896089327
 31
0.0
  0
LINE
  5
5F
330
2
100
AcDbEntity
  8
VM001I18$010
  6
Continuous
100
AcDbLine
 10
3367.088648965709
 20
1613.418060472889
 30
0.0
 11
3367.088648965709
 21
1671.157786500286
 31
0.0
  0
LINE
  5
61
330
2
100
AcDbEntity
  8
VE001I18$101
  6
Continuous
100
AcDbLine
 10
3367.088648965709
 20
1613.418060472889
 30
0.0
 11
3367.088648965709
 21
1671.157786500286
 31
0.0
  0
LINE
  5
63
330
2
100
AcDbEntity
  8
0
100
AcDbLine
 10
3875.0351999315
 20
1962.194402835
 30
0.0
 11
3875.035199931499
 21
1611.591247145697
 31
0.0
  0
LINE
  5
64
330
2
100
AcDbEntity
  8
0
100
AcDbLine
 10
3823.035199931498
 20
1681.157786500286
 30
0.0
 11
3823.035199931498
 21
1541.157786500286
 31
0.0
  0
LINE
  5
65
330
2
100
AcDbEntity
  8
0
100
AcDbLine
 10
3463.035199931498
 20
1681.157786500286
 30
0.0
 11
3463.035199931498
 21
1541.157786500286
 31
0.0
  0
LINE
  5
66
330
2
100
AcDbEntity
  8
0
100
AcDbLine
 10
3463.035199931498
 20
1541.157786500286
 30
0.0
 11
3823.035199931498
 21
1681.157786500286
 31
0.0
  0
LINE
  5
67
330
2
100
AcDbEntity
  8
0
100
AcDbLine
 10
3463.035199931498
 20
1681.157786500286
 30
0.0
 11
3823.035199931498
 21
1541.157786500286
 31
0.0
  0
LINE
  5
68
330
2
100
AcDbEntity
  8
0
100
AcDbLine
 10
3835.035199931498
 20
1922.194402834999
 30
0.0
 11
3835.035199931498
 21
1611.591247145697
 31
0.0
  0
DIMENSION
  5
69
330
2
100
AcDbEntity
  8
0
100
AcDbDimension
  2
*D5
 10
3449.123736353211
 20
1345.325984570489
 30
0.0
 11
1480.471441856583
 21
4226.121780219523
 31
0.0
 70
   160
  1
66
 71
     5
 42
279.8510280270747
  3
ISO-25
100
AcDbAlignedDimension
 13
3169.272708326135
 23
1260.121170165572
 33
0.0
 14
3449.123736353211
 24
1561.591247145697
 34
0.0
100
AcDbRotatedDimension
1001
ACAD
1000
DSTYLE
1002
{
1070
   279
1070
     2
1002
}
  0
LINE
  5
76
330
2
100
AcDbEntity
  8
0
100
AcDbLine
 10
4956.906244446816
 20
1689.236248320177
 30
0.0
 11
4956.906244446816
 21
1549.236248320177
 31
0.0
  0
LINE
  5
77
330
2
100
AcDbEntity
  8
VM001I18$010
  6
Continuous
100
AcDbLine
 10
4584.959693481027
 20
1613.418060472889
 30
0.0
 11
4584.959693481027
 21
1671.157786500286
 31
0.0
  0
LINE
  5
78
330
2
100
AcDbEntity
  8
VE001I18$101
  6
Continuous
100
AcDbLine
 10
4584.959693481027
 20
1613.418060472889
 30
0.0
 11
4584.959693481027
 21
1671.157786500286
 31
0.0
  0
LINE
  5
79
330
2
100
AcDbEntity
  8
VM001I22$010
  6
Continuous
100
AcDbLine
 10
4532.767912659108
 20
1613.418060472889
 30
0.0
 11
4532.767912659108
 21
1660.061896089327
 31
0.0
  0
LINE
  5
7A
330
2
100
AcDbEntity
  8
VE001I22$101
  6
Continuous
100
AcDbLine
 10
4532.767912659108
 20
1613.418060472889
 30
0.0
 11
4532.767912659108
 21
1660.061896089327
 31
0.0
  0
LINE
  5
7B
330
2
100
AcDbEntity
  8
VM001I2$010
  6
Continuous
100
AcDbLine
 10
4539.137775672808
 20
1562.253676911246
 30
0.0
 11
4539.137775672808
 21
1660.061896089327
 31
0.0
  0
LINE
  5
7C
330
2
100
AcDbEntity
  8
VE001I2$101
  6
Continuous
100
AcDbLine
 10
4539.137775672808
 20
1562.253676911246
 30
0.0
 11
4539.137775672808
 21
1660.061896089327
 31
0.0
  0
LINE
  5
7D
330
2
100
AcDbEntity
  8
VM001I25$010
  6
Continuous
100
AcDbLine
 10
4577.151474302945
 20
1562.253676911246
 30
0.0
 11
4577.151474302945
 21
1660.061896089327
 31
0.0
  0
LINE
  5
7E
330
2
100
AcDbEntity
  8
VE001I25$101
  6
Continuous
100
AcDbLine
 10
4577.151474302945
 20
1562.253676911246
 30
0.0
 11
4577.151474302945
 21
1660.061896089327
 31
0.0
  0
LINE
  5
7F
330
2
100
AcDbEntity
  8
0
100
AcDbLine
 10
4596.906244446816
 20
1689.236248320177
 30
0.0
 11
4596.906244446816
 21
1549.236248320177
 31
0.0
  0
LINE
  5
80
330
2
100
AcDbEntity
  8
0
100
AcDbLine
 10
4596.906244446816
 20
1689.236248320177
 30
0.0
 11
4956.906244446816
 21
1549.236248320177
 31
0.0
  0
LINE
  5
81
330
2
100
AcDbEntity
  8
0
100
AcDbLine
 10
4596.906244446816
 20
1549.236248320177
 30
0.0
 11
4956.906244446816
 21
1689.236248320177
 31
0.0
  0
LINE
  5
82
330
2
100
AcDbEntity
  8
0
100
AcDbLine
 10
4968.004275038492
 20
1922.194402834999
 30
0.0
 11
4968.004275038492
 21
1537.944271277455
 31
0.0
  0
LINE
  5
83
330
2
100
AcDbEntity
  8
0
100
AcDbLine
 10
5008.004275038491
 20
1962.194402835
 30
0.0
 11
5008.004275038487
 21
1497.944271277455
 31
0.0
  0
LINE
  5
84
330
2
100
AcDbEntity
  8
0
100
AcDbLine
 10
3806.721494526917
 20
578.9968232930505
 30
0.0
 11
3871.955463647963
 21
578.9968232930505
 31
0.0
  0
LINE
  5
85
330
2
100
AcDbEntity
  8
0
100
AcDbLine
 10
3871.955463647963
 20
526.4472370566527
 30
0.0
 11
3806.721494526917
 21
526.4472370566527
 31
0.0
  0
LINE
  5
86
330
2
100
AcDbEntity
  8
0
100
AcDbLine
 10
3806.721494526917
 20
584.4329873864707
 30
0.0
 11
3967.994362631725
 21
584.4329873864707
 31
0.0
  0
LINE
  5
87
330
2
100
AcDbEntity
  8
0
100
AcDbLine
 10
3806.721494526917
 20
521.011072963232
 30
0.0
 11
3877.391627741383
 21
521.011072963232
 31
0.0
  0
LINE
  5
88
330
2
100
AcDbEntity
  8
0
100
AcDbLine
 10
3716.234762426637
 20
105.5092844251482
 30
0.0
 11
3953.278252896165
 21
-131.5342060443781
 31
0.0
  0
LINE
  5
89
330
2
100
AcDbEntity
  8
0
100
AcDbLine
 10
3953.278252896165
 20
-118.7210443973763
 30
0.0
 11
3722.641343250138
 21
111.9158652486494
 31
0.0
  0
MTEXT
  5
8A
330
2
100
AcDbEntity
  8
0
100
AcDbMText
 10
3457.833654257552
 20
790.5191237876563
 30
0.0
 40
30.0
 41
516.8401367299196
 71
     1
 72
     5
  1
STANDARD 180° CENTRE MULLION
 73
     1
 44
1.0
  0
LWPOLYLINE
  5
8B
330
2
100
AcDbEntity
  8
0
100
AcDbPolyline
 90
        4
 70
     1
 43
0.0
 10
2575.685305944633
 20
964.4309155051686
 10
4949.586668481592
 20
964.4309155051686
 10
4949.586668481592
 20
-996.5359546546405
 10
2575.685305944633
 20
-996.5359546546405
  0
LINE
  5
8C
330
2
100
AcDbEntity
  8
0
100
AcDbLine
 10
3823.035199931498
 20
1541.157786500286
 30
0.0
 11
3463.035199931498
 21
1541.157786500286
 31
0.0
  0
LINE
  5
8D
330
2
100
AcDbEntity
  8
0
100
AcDbLine
 10
3209.272708326135
 20
1300.121170165573
 30
0.0
 11
3835.035199931498
 21
1300.121170165573
 31
0.0
  0
LINE
  5
8E
330
2
100
AcDbEntity
  8
0
100
AcDbLine
 10
3169.272708326135
 20
1260.121170165573
 30
0.0
 11
3875.035199931499
 21
1260.121170165573
 31
0.0
  0
LINE
  5
8F
330
2
100
AcDbEntity
  8
0
100
AcDbLine
 10
3226.406849257397
 20
-145.7590963375617
 30
0.0
 11
3226.406849257397
 21
13.57293830708431
 31
0.0
  0
LINE
  5
90
330
2
100
AcDbEntity
  8
0
100
AcDbLine
 10
3217.346575768363
 20
-145.7590963375619
 30
0.0
 11
3217.346575768363
 21
17.32582646505216
 31
0.0
  0
MTEXT
  5
91
330
2
100
AcDbEntity
  8
0
100
AcDbMText
 10
2648.56844861904
 20
43.11117525310993
 30
0.0
 40
30.0
 41
347.418
 71
     1
 72
     5
  1
FABRICATED 135° REVERSE MULLION
 73
     1
 44
1.0
  0
MTEXT
  5
92
330
2
100
AcDbEntity
  8
0
100
AcDbMText
 10
3421.012025165492
 20
26.70789941417143
 30
0.0
 40
30.0
 41
347.418
 71
     1
 72
     5
  1
FABRICATED 90° REVERSE MULLION
 73
     1
 44
1.0
  0
MTEXT
  5
93
330
2
100
AcDbEntity
  8
0
100
AcDbMText
 10
2683.024921871689
 20
-333.9234920734003
 30
0.0
 40
30.0
 41
347.418
 71
     1
 72
     5
  1
FABRICATED 135° CLEARANCE MULLION
 73
     1
 44
1.0
  0
LINE
  5
94
330
2
100
AcDbEntity
  8
0
100
AcDbLine
 10
2834.072447477271
 20
-874.4487049079889
 30
0.0
 11
2980.142490253087
 21
-728.3786621321723
 31
0.0
  0
LINE
  5
95
330
2
100
AcDbEntity
  8
0
100
AcDbLine
 10
3021.144607523492
 20
-769.380779402577
 30
0.0
 11
2875.074564747676
 21
-915.4508221783935
 31
0.0
  0
LINE
  5
96
330
2
100
AcDbEntity
  8
0
100
AcDbLine
 10
2922.483262841581
 20
-860.3542270962876
 30
0.0
 11
2968.610644770786
 21
-814.2268451670821
 31
0.0
  0
LINE
  5
97
330
2
100
AcDbEntity
  8
0
100
AcDbLine
 10
2935.296424488583
 20
-780.9126248848788
 30
0.0
 11
2889.169042559377
 21
-827.0400068140833
 31
0.0
  0
MTEXT
  5
98
330
2
100
AcDbEntity
  8
0
100
AcDbMText
 10
3246.372608258658
 20
-823.9213070155189
 30
0.0
 40
30.0
 41
347.418
 71
     1
 72
     5
  1
REMOVABLE SIDE MULLION
 73
     1
 44
1.0
  0
LEADER
  5
99
330
2
100
AcDbEntity
  8
0
100
AcDbLeader
  3
ISO-25
 76
     2
 10
2948.109586135584
 20
-842.4158007904852
 30
0.0
 10
3205.870825019119
 20
-842.4158007904852
 30
0.0
1001
ACAD
1000
DSTYLE
1002
{
1070
   147
1040
0.625
1070
    77
1070
     0
1002
}
  0
LINE
  5
9A
330
2
100
AcDbEntity
  8
0
100
AcDbLine
 10
2885.325094065276
 20
-830.8839553081838
 30
0.0
 11
2837.916395971371
 21
-878.2926534020889
 31
0.0
  0
LINE
  5
9B
330
2
100
AcDbEntity
  8
0
100
AcDbLine
 10
2768.236353279693
 20
-853.1552999059567
 30
0.0
 11
2896.367969749708
 21
-981.2869163759705
 31
0.0
  0
LINE
  5
9C
330
2
100
AcDbEntity
  8
0
100
AcDbLine
 10
2774.642934103194
 20
-846.7487190824554
 30
0.0
 11
2902.774550573209
 21
-974.8803355524701
 31
0.0
  0
LINE
  5
9D
330
2
100
AcDbEntity
  8
0
100
AcDbLine
 10
2837.916395971371
 20
-878.2926534020889
 30
0.0
 11
2834.072447477271
 21
-874.4487049079889
 31
0.0
  0
LINE
  5
9E
330
2
100
AcDbEntity
  8
0
100
AcDbLine
 10
2875.074564747676
 20
-915.4508221783935
 30
0.0
 11
2871.230616253575
 21
-911.6068736842931
 31
0.0
  0
LINE
  5
9F
330
2
100
AcDbEntity
  8
0
100
AcDbLine
 10
2922.483262841581
 20
-860.3542270962876
 30
0.0
 11
2889.169042559377
 21
-827.0400068140833
 31
0.0
  0
LINE
  5
A0
330
2
100
AcDbEntity
  8
0
100
AcDbLine
 10
2885.325094065277
 20
-830.8839553081844
 30
0.0
 11
2918.63931434748
 21
-864.1981755903881
 31
0.0
  0
LINE
  5
A1
330
2
100
AcDbEntity
  8
0
100
AcDbLine
 10
2871.230616253575
 20
-911.6068736842931
 30
0.0
 11
2918.63931434748
 21
-864.1981755903881
 31
0.0
  0
LINE
  5
A2
330
2
100
AcDbEntity
  8
0
100
AcDbLine
 10
3217.346575768365
 20
-253.3244860398417
 30
0.0
 11
3217.346575768365
 21
-575.741443487102
 31
0.0
  0
LINE
  5
A3
330
2
100
AcDbEntity
  8
0
100
AcDbLine
 10
3226.406849257399
 20
-253.3244860398417
 30
0.0
 11
3226.406849257399
 21
-579.4943316450703
 31
0.0
  0
LEADER
  5
A4
330
2
100
AcDbEntity
  8
0
100
AcDbLeader
  3
ISO-25
 76
     2
 10
3217.346575768365
 20
-414.5329647634718
 30
0.0
 10
2989.269537371439
 20
-414.5329647634718
 30
0.0
1001
ACAD
1000
DSTYLE
1002
{
1070
   147
1040
0.625
1070
    77
1070
     0
1002
}
  0
LINE
  5
A5
330
2
100
AcDbEntity
  8
0
100
AcDbLine
 10
2972.454593264887
 20
-810.3828966729816
 30
0.0
 11
3017.300659029391
 21
-765.536830908477
 31
0.0
  0
LINE
  5
A6
330
2
100
AcDbEntity
  8
0
100
AcDbLine
 10
2980.142490253087
 20
-728.3786621321723
 30
0.0
 11
2983.986438747187
 21
-732.2226106262728
 31
0.0
  0
LINE
  5
A7
330
2
100
AcDbEntity
  8
0
100
AcDbLine
 10
2972.454593264887
 20
-810.3828966729816
 30
0.0
 11
2939.140372982683
 21
-777.0686763907783
 31
0.0
  0
LINE
  5
A8
330
2
100
AcDbEntity
  8
0
100
AcDbLine
 10
2935.296424488583
 20
-780.9126248848788
 30
0.0
 11
2968.610644770786
 21
-814.2268451670821
 31
0.0
  0
LINE
  5
A9
330
2
100
AcDbEntity
  8
0
100
AcDbLine
 10
2983.986438747187
 20
-732.2226106262728
 30
0.0
 11
2939.140372982683
 21
-777.0686763907783
 31
0.0
  0
LINE
  5
AA
330
2
100
AcDbEntity
  8
0
100
AcDbLine
 10
3217.346575768365
 20
-575.741443487102
 30
0.0
 11
3104.681813610885
 21
-688.4062056445823
 31
0.0
  0
INSERT
  5
AB
330
2
100
AcDbEntity
  8
0
100
AcDbBlockReference
  2
guide
 10
2888.128733506796
 20
-3511.013697771895
 30
0.0
 41
1.812054697806801
 42
1.812054697806843
 43
1.81205469780682
 50
44.99999999999936
  0
LINE
  5
12D
330
2
100
AcDbEntity
  8
0
100
AcDbLine
 10
3226.406849257399
 20
-579.4943316450699
 30
0.0
 11
3111.088394434387
 21
-694.8127864680841
 31
0.0
  0
LINE
  5
12E
330
2
100
AcDbEntity
  8
0
100
AcDbLine
 10
3017.300659029391
 20
-765.536830908477
 30
0.0
 11
3021.144607523492
 21
-769.380779402577
 31
0.0
  0
LINE
  5
12F
330
2
100
AcDbEntity
  8
0
100
AcDbLine
 10
3111.088394434386
 20
-694.8127864680823
 30
0.0
 11
3104.681813610885
 21
-688.4062056445818
 31
0.0
  0
INSERT
  5
130
330
2
100
AcDbEntity
  8
0
100
AcDbBlockReference
  2
guide
 10
5060.105322651108
 20
1895.686563699769
 30
0.0
 41
-1.812054697806843
 42
1.812054697806843
 43
1.81205469780682
 50
90.0
  0
LINE
  5
131
330
2
100
AcDbEntity
  8
0
100
AcDbLine
 10
3226.406849257399
 20
-253.3244860398417
 30
0.0
 11
3217.346575768365
 21
-253.3244860398417
 31
0.0
  0
INSERT
  5
132
330
2
100
AcDbEntity
  8
0
100
AcDbBlockReference
  2
guide
 10
1312.977969160189
 20
-2294.770146077174
 30
0.0
 41
-1.812054697806843
 42
1.812054697806843
 43
1.81205469780682
 50
270.0
  0
LINE
  5
133
330
2
100
AcDbEntity
  8
0
100
AcDbLine
 10
3217.346575768363
 20
-145.7590963375619
 30
0.0
 11
3226.406849257397
 21
-145.7590963375617
 31
0.0
  0
MTEXT
  5
134
330
2
100
AcDbEntity
  8
0
100
AcDbMText
 10
2723.002727677103
 20
778.9688696652131
 30
0.0
 40
30.0
 41
616.2213137558227
 71
     1
 72
     5
  1
STANDARD 30mm WIDE x 48mm DEEP SIDE GUIDE
 73
     1
 44
1.0
  0
MTEXT
  5
135
330
2
100
AcDbEntity
  8
0
100
AcDbMText
 10
2084.79324346867
 20
1363.824138424958
 30
0.0
 40
30.0
 41
896.2714
 71
     1
 72
     5
  1
66mm RECOMMENDED SIDE ROOM REQUIRED EACH SIDE OF THE DOOR, TO ENABLE THE CURTAIN TO BE REMOVED FOR SERVICE AND MAINTENANCE
 73
     1
 44
1.0
  0
LINE
  5
136
330
2
100
AcDbEntity
  8
0
100
AcDbLine
 10
3226.406849257397
 20
13.57293830708317
 30
0.0
 11
3339.071611414878
 21
126.2377004645641
 31
0.0
  0
LINE
  5
137
330
2
100
AcDbEntity
  8
0
100
AcDbLine
 10
3217.346575768365
 20
17.3258264650517
 30
0.0
 11
3332.665030591377
 21
132.6442812880652
 31
0.0
  0
INSERT
  5
138
330
2
100
AcDbEntity
  8
0
100
AcDbBlockReference
  2
guide
 10
3505.653361095661
 20
2998.816523015183
 30
0.0
 41
1.812054697806801
 42
1.812054697806843
 43
1.81205469780682
 50
224.9999999999993
  0
LEADER
  5
139
330
2
100
AcDbEntity
  8
0
100
AcDbLeader
  3
ISO-25
 76
     2
 10
2898.720527640937
 20
521.011072963232
 30
0.0
 10
2898.720527640937
 20
371.8039319520631
 30
0.0
1001
ACAD
1000
DSTYLE
1002
{
1070
   147
1040
0.625
1070
    77
1070
     0
1002
}
  0
LEADER
  5
13A
330
2
100
AcDbEntity
  8
0
100
AcDbLeader
  3
ISO-25
 76
     2
 10
3217.346575768363
 20
17.32582646505085
 30
0.0
 10
2990.13510333548
 20
17.32582646505085
 30
0.0
1001
ACAD
1000
DSTYLE
1002
{
1070
   147
1040
0.625
1070
    77
1070
     0
1002
}
  0
MTEXT
  5
13B
330
2
100
AcDbEntity
  8
0
100
AcDbMText
 10
2790.338793727074
 20
356.8036774393324
 30
0.0
 40
30.0
 41
347.418
 71
     1
 72
     5
  1
TIMBER STUD
 73
     1
 44
1.0
  0
INSERT
  5
13C
330
2
100
AcDbEntity
  8
0
100
AcDbBlockReference
  2
guide
 10
5236.054946950221
 20
2427.309641937907
 30
0.0
 41
1.812054697806814
 42
1.812054697806843
 43
1.81205469780682
 50
180.0
  0
LINE
  5
13D
330
2
100
AcDbEntity
  8
0
100
AcDbLine
 10
2985.699153135664
 20
643.3247650651924
 30
0.0
 11
2985.699153135664
 21
462.1192952845104
 31
0.0
  0
LINE
  5
13E
330
2
100
AcDbEntity
  8
0
100
AcDbLine
 10
2994.759426624698
 20
643.3247650651924
 30
0.0
 11
2994.759426624698
 21
462.1192952845104
 31
0.0
  0
LINE
  5
13F
330
2
100
AcDbEntity
  8
0
100
AcDbLine
 10
2817.17806623963
 20
584.4329873864707
 30
0.0
 11
2980.262989042244
 21
584.4329873864707
 31
0.0
  0
LINE
  5
140
330
2
100
AcDbEntity
  8
0
100
AcDbLine
 10
2980.262989042244
 20
521.011072963232
 30
0.0
 11
2817.17806623963
 21
521.011072963232
 31
0.0
  0
LINE
  5
141
330
2
100
AcDbEntity
  8
0
100
AcDbLine
 10
2817.17806623963
 20
584.4329873864707
 30
0.0
 11
2980.262989042244
 21
521.011072963232
 31
0.0
  0
LINE
  5
142
330
2
100
AcDbEntity
  8
0
100
AcDbLine
 10
2817.17806623963
 20
521.011072963232
 30
0.0
 11
2980.262989042244
 21
584.4329873864707
 31
0.0
  0
LINE
  5
143
330
2
100
AcDbEntity
  8
0
100
AcDbLine
 10
2817.17806623963
 20
521.011072963232
 30
0.0
 11
2817.17806623963
 21
584.4329873864707
 31
0.0
  0
LINE
  5
144
330
2
100
AcDbEntity
  8
0
100
AcDbLine
 10
2980.262989042244
 20
584.4329873864707
 30
0.0
 11
2980.262989042244
 21
521.011072963232
 31
0.0
  0
LEADER
  5
145
330
2
100
AcDbEntity
  8
0
100
AcDbLeader
  3
ISO-25
 76
     2
 10
3050.042609074741
 20
580.9267856595499
 30
0.0
 10
3050.042609074741
 20
671.3639496037976
 30
0.0
1001
ACAD
1000
DSTYLE
1002
{
1070
   147
1040
0.625
1070
    77
1070
     0
1002
}
  0
LINE
  5
146
330
2
100
AcDbEntity
  8
0
100
AcDbLine
 10
3639.014014547563
 20
195.5431939512241
 30
0.0
 11
3517.288978901049
 21
317.2682295977379
 31
0.0
  0
LINE
  5
147
330
2
100
AcDbEntity
  8
0
100
AcDbLine
 10
3517.288978901049
 20
304.4550679507358
 30
0.0
 11
3632.607433724062
 21
189.1366131277232
 31
0.0
  0
LEADER
  5
148
330
2
100
AcDbEntity
  8
0
100
AcDbLeader
  3
ISO-25
 76
     2
 10
3517.288978901049
 20
304.4550679507358
 30
0.0
 10
3517.288978901049
 20
68.1864279685015
 30
0.0
1001
ACAD
1000
DSTYLE
1002
{
1070
   147
1040
0.625
1070
    77
1070
     0
1002
}
  0
INSERT
  5
149
330
2
100
AcDbEntity
  8
0
100
AcDbBlockReference
  2
guide
 10
3179.010863150446
 20
-2627.06429817609
 30
0.0
 41
1.812054697806801
 42
1.812054697806843
 43
1.81205469780682
 50
44.99999999999936
  0
LINE
  5
14A
330
2
100
AcDbEntity
  8
0
100
AcDbLine
 10
3517.288978901049
 20
317.2682295977379
 30
0.0
 11
3395.563943254536
 21
195.5431939512241
 31
0.0
  0
LINE
  5
14B
330
2
100
AcDbEntity
  8
0
100
AcDbLine
 10
3401.970524078036
 20
189.1366131277232
 30
0.0
 11
3517.288978901049
 21
304.4550679507358
 31
0.0
  0
LINE
  5
14C
330
2
100
AcDbEntity
  8
0
100
AcDbLine
 10
3332.665030591376
 20
132.6442812880648
 30
0.0
 11
3339.071611414878
 21
126.2377004645638
 31
0.0
  0
LINE
  5
14D
330
2
100
AcDbEntity
  8
0
100
AcDbLine
 10
3395.563943254536
 20
195.5431939512241
 30
0.0
 11
3401.970524078036
 21
189.1366131277232
 31
0.0
  0
INSERT
  5
14E
330
2
100
AcDbEntity
  8
0
100
AcDbBlockReference
  2
guide
 10
6505.18625627468
 20
22.55486344693895
 30
0.0
 41
1.812054697806801
 42
1.812054697806843
 43
1.81205469780682
 50
135.0000000000006
  0
LINE
  5
14F
330
2
100
AcDbEntity
  8
0
100
AcDbLine
 10
3632.607433724062
 20
189.1366131277232
 30
0.0
 11
3639.014014547563
 21
195.5431939512241
 31
0.0
  0
INSERT
  5
150
330
2
100
AcDbEntity
  8
0
100
AcDbBlockReference
  2
guide
 10
900.0338511228246
 20
328.468945352738
 30
0.0
 41
1.812054697806801
 42
1.812054697806843
 43
1.81205469780682
 50
315.0000000000007
  0
LINE
  5
151
330
2
100
AcDbEntity
  8
0
100
AcDbLine
 10
3722.641343250138
 20
111.9158652486494
 30
0.0
 11
3716.234762426637
 21
105.5092844251482
 31
0.0
  0
LEADER
  5
152
330
2
100
AcDbEntity
  8
0
100
AcDbLeader
  3
ISO-25
 76
     3
 10
3530.123950369896
 20
578.9968232930505
 30
0.0
 10
3592.068688040086
 20
578.9968232930505
 30
0.0
 10
3592.068688040086
 20
691.3094948476409
 30
0.0
1001
ACAD
1000
DSTYLE
1002
{
1070
   147
1040
0.625
1070
    77
1070
     0
1002
}
  0
LINE
  5
153
330
2
100
AcDbEntity
  8
0
100
AcDbLine
 10
3530.123950369896
 20
523.7291550099423
 30
0.0
 11
3323.549714819918
 21
523.7291550099423
 31
0.0
  0
LINE
  5
154
330
2
100
AcDbEntity
  8
0
100
AcDbLine
 10
3323.549714819918
 20
581.7149053397606
 30
0.0
 11
3530.123950369896
 21
581.7149053397606
 31
0.0
  0
LINE
  5
155
330
2
100
AcDbEntity
  8
0
100
AcDbLine
 10
3396.031902732191
 20
529.1653191033629
 30
0.0
 11
3461.265871853236
 21
529.1653191033629
 31
0.0
  0
LINE
  5
156
330
2
100
AcDbEntity
  8
0
100
AcDbLine
 10
3461.265871853236
 20
576.2787412463401
 30
0.0
 11
3396.031902732191
 21
576.2787412463401
 31
0.0
  0
LINE
  5
157
330
2
100
AcDbEntity
  8
0
100
AcDbLine
 10
3323.549714819918
 20
529.1653191033629
 30
0.0
 11
3390.59573863877
 21
529.1653191033629
 31
0.0
  0
LINE
  5
158
330
2
100
AcDbEntity
  8
0
100
AcDbLine
 10
3390.59573863877
 20
576.2787412463401
 30
0.0
 11
3323.549714819918
 21
576.2787412463401
 31
0.0
  0
LINE
  5
159
330
2
100
AcDbEntity
  8
0
100
AcDbLine
 10
3323.549714819918
 20
576.2787412463401
 30
0.0
 11
3323.549714819918
 21
581.7149053397606
 31
0.0
  0
LINE
  5
15A
330
2
100
AcDbEntity
  8
0
100
AcDbLine
 10
3323.549714819918
 20
523.7291550099423
 30
0.0
 11
3323.549714819918
 21
529.1653191033629
 31
0.0
  0
LINE
  5
15B
330
2
100
AcDbEntity
  8
0
100
AcDbLine
 10
3396.031902732191
 20
529.1653191033629
 30
0.0
 11
3396.031902732191
 21
576.2787412463401
 31
0.0
  0
LINE
  5
15C
330
2
100
AcDbEntity
  8
0
100
AcDbLine
 10
3390.59573863877
 20
576.2787412463401
 30
0.0
 11
3390.59573863877
 21
529.1653191033629
 31
0.0
  0
LINE
  5
15D
330
2
100
AcDbEntity
  8
0
100
AcDbLine
 10
3466.702035946656
 20
529.1653191033629
 30
0.0
 11
3530.123950369896
 21
529.1653191033629
 31
0.0
  0
LINE
  5
15E
330
2
100
AcDbEntity
  8
0
100
AcDbLine
 10
3530.123950369896
 20
576.2787412463401
 30
0.0
 11
3466.702035946656
 21
576.2787412463401
 31
0.0
  0
LINE
  5
15F
330
2
100
AcDbEntity
  8
0
100
AcDbLine
 10
3461.265871853236
 20
576.2787412463401
 30
0.0
 11
3461.265871853236
 21
529.1653191033629
 31
0.0
  0
LINE
  5
160
330
2
100
AcDbEntity
  8
0
100
AcDbLine
 10
3466.702035946656
 20
529.1653191033629
 30
0.0
 11
3466.702035946656
 21
576.2787412463401
 31
0.0
  0
LINE
  5
161
330
2
100
AcDbEntity
  8
0
100
AcDbLine
 10
3530.123950369896
 20
581.7149053397606
 30
0.0
 11
3530.123950369896
 21
576.2787412463401
 31
0.0
  0
LINE
  5
162
330
2
100
AcDbEntity
  8
0
100
AcDbLine
 10
3530.123950369896
 20
529.1653191033629
 30
0.0
 11
3530.123950369896
 21
523.7291550099423
 31
0.0
  0
LINE
  5
163
330
2
100
AcDbEntity
  8
0
100
AcDbLine
 10
3806.721494526917
 20
584.4329873864707
 30
0.0
 11
3806.721494526917
 21
578.9968232930505
 31
0.0
  0
LINE
  5
164
330
2
100
AcDbEntity
  8
0
100
AcDbLine
 10
3806.721494526917
 20
526.4472370566527
 30
0.0
 11
3806.721494526917
 21
521.011072963232
 31
0.0
  0
LINE
  5
165
330
2
100
AcDbEntity
  8
0
  6
ACAD_ISO03W100
 48
0.5
100
AcDbLine
 10
2694.294847148674
 20
1459.591247145697
 30
0.0
 11
3169.272708326135
 21
1459.591247145697
 31
0.0
  0
MTEXT
  5
167
330
2
100
AcDbEntity
  8
0
100
AcDbMText
 10
2958.371026773718
 20
1613.861418308846
 30
0.0
 40
30.0
 41
404.5104999999999
 71
     1
 72
     5
  1
31
 73
     1
 44
1.0
  0
MTEXT
  5
168
330
2
100
AcDbEntity
  8
0
100
AcDbMText
 10
3251.895355666847
 20
1461.658442909792
 30
0.0
 40
30.0
 41
404.5104999999999
 71
     1
 72
     5
  1
48
 73
     1
 44
1.0
  0
LINE
  5
169
330
2
100
AcDbEntity
  8
0
100
AcDbLine
 10
3377.12373635321
 20
1561.591247145697
 30
0.0
 11
3449.123736353211
 21
1561.591247145697
 31
0.0
  0
LINE
  5
16A
330
2
100
AcDbEntity
  8
0
100
AcDbLine
 10
3169.272708326135
 20
1537.944271277455
 30
0.0
 11
3169.272708326135
 21
1260.121170165572
 31
0.0
  0
LINE
  5
16B
330
2
100
AcDbEntity
  8
0
100
AcDbLine
 10
3209.272708326135
 20
1537.944271277455
 30
0.0
 11
3209.272708326135
 21
1300.121170165574
 31
0.0
  0
LINE
  5
16C
330
2
100
AcDbEntity
  8
VM001I9$010
  6
Continuous
100
AcDbLine
 10
3338.732484582145
 20
1551.157786500286
 30
0.0
 11
3175.376320198585
 21
1551.157786500286
 31
0.0
  0
LINE
  5
16D
330
2
100
AcDbEntity
  8
VE001I9$101
  6
Continuous
100
AcDbLine
 10
3338.732484582145
 20
1551.157786500286
 30
0.0
 11
3175.376320198585
 21
1551.157786500286
 31
0.0
  0
LINE
  5
16E
330
2
100
AcDbEntity
  8
VM001I19$010
  6
Continuous
100
AcDbLine
 10
3311.609196910914
 20
1558.966005678369
 30
0.0
 11
3175.376320198585
 21
1558.966005678369
 31
0.0
  0
LINE
  5
16F
330
2
100
AcDbEntity
  8
VE001I19$101
  6
Continuous
100
AcDbLine
 10
3311.609196910914
 20
1558.966005678369
 30
0.0
 11
3175.376320198585
 21
1558.966005678369
 31
0.0
  0
LINE
  5
170
330
2
100
AcDbEntity
  8
0
100
AcDbLine
 10
3169.272708326135
 20
1537.944271277455
 30
0.0
 11
3209.272708326135
 21
1537.944271277455
 31
0.0
  0
ARC
  5
171
330
2
100
AcDbEntity
  8
VE001I27$101
  6
Continuous
100
AcDbCircle
 10
3175.376320198585
 20
1555.061896089329
 30
0.0
 40
3.904109589041089
100
AcDbArc
 50
90.0
 51
270.0
  0
ARC
  5
172
330
2
100
AcDbEntity
  8
VM001I27$010
  6
Continuous
100
AcDbCircle
 10
3175.376320198585
 20
1555.061896089329
 30
0.0
 40
3.904109589041089
100
AcDbArc
 50
90.0
 51
270.0
  0
LINE
  5
173
330
2
100
AcDbEntity
  8
VM001I12$010
  6
Continuous
100
AcDbLine
 10
3355.99275855475
 20
1558.966005678369
 30
0.0
 11
3324.554402390367
 21
1558.966005678369
 31
0.0
  0
LINE
  5
174
330
2
100
AcDbEntity
  8
VE001I12$101
  6
Continuous
100
AcDbLine
 10
3355.99275855475
 20
1558.966005678369
 30
0.0
 11
3324.554402390367
 21
1558.966005678369
 31
0.0
  0
LINE
  5
175
330
2
100
AcDbEntity
  8
VM001I23$010
  6
Continuous
100
AcDbLine
 10
3314.89686814379
 20
1562.253676911246
 30
0.0
 11
3314.89686814379
 21
1608.897512527684
 31
0.0
  0
LINE
  5
176
330
2
100
AcDbEntity
  8
VE001I23$101
  6
Continuous
100
AcDbLine
 10
3314.89686814379
 20
1562.253676911246
 30
0.0
 11
3314.89686814379
 21
1608.897512527684
 31
0.0
  0
ARC
  5
177
330
2
100
AcDbEntity
  8
VM001I33$010
  6
Continuous
100
AcDbCircle
 10
3324.554402390365
 20
1562.253676911246
 30
0.0
 40
3.287671232876707
100
AcDbArc
 50
180.0
 51
270.0
  0
ARC
  5
178
330
2
100
AcDbEntity
  8
VE001I33$101
  6
Continuous
100
AcDbCircle
 10
3324.554402390365
 20
1562.253676911246
 30
0.0
 40
3.287671232876707
100
AcDbArc
 50
180.0
 51
270.0
  0
ARC
  5
179
330
2
100
AcDbEntity
  8
VM001I31$010
  6
Continuous
100
AcDbCircle
 10
3311.609196910914
 20
1562.253676911246
 30
0.0
 40
3.287671232876707
100
AcDbArc
 50
270.0
 51
0.0
  0
ARC
  5
17A
330
2
100
AcDbEntity
  8
VE001I31$101
  6
Continuous
100
AcDbCircle
 10
3311.609196910914
 20
1562.253676911246
 30
0.0
 40
3.287671232876707
100
AcDbArc
 50
270.0
 51
0.0
  0
LINE
  5
17B
330
2
100
AcDbEntity
  8
VM001I7$010
  6
Continuous
100
AcDbLine
 10
3316.129744856119
 20
1610.130389240013
 30
0.0
 11
3314.89686814379
 21
1608.897512527684
 31
0.0
  0
LINE
  5
17C
330
2
100
AcDbEntity
  8
VE001I7$101
  6
Continuous
100
AcDbLine
 10
3316.129744856119
 20
1610.130389240013
 30
0.0
 11
3314.89686814379
 21
1608.897512527684
 31
0.0
  0
LINE
  5
17D
330
2
100
AcDbEntity
  8
VM001I11$010
  6
Continuous
100
AcDbLine
 10
3316.129744856119
 20
1612.18518376056
 30
0.0
 11
3314.89686814379
 21
1613.418060472889
 31
0.0
  0
LINE
  5
17E
330
2
100
AcDbEntity
  8
VE001I11$101
  6
Continuous
100
AcDbLine
 10
3316.129744856119
 20
1612.18518376056
 30
0.0
 11
3314.89686814379
 21
1613.418060472889
 31
0.0
  0
LINE
  5
17F
330
2
100
AcDbEntity
  8
VM001I21$010
  6
Continuous
100
AcDbLine
 10
3316.129744856119
 20
1610.130389240013
 30
0.0
 11
3316.129744856119
 21
1612.18518376056
 31
0.0
  0
LINE
  5
180
330
2
100
AcDbEntity
  8
VE001I21$101
  6
Continuous
100
AcDbLine
 10
3316.129744856119
 20
1610.130389240013
 30
0.0
 11
3316.129744856119
 21
1612.18518376056
 31
0.0
  0
LINE
  5
181
330
2
100
AcDbEntity
  8
VM001I17$010
  6
Continuous
100
AcDbLine
 10
3367.088648965709
 20
1551.157786500286
 30
0.0
 11
3367.088648965709
 21
1608.897512527684
 31
0.0
  0
LINE
  5
182
330
2
100
AcDbEntity
  8
VE001I17$101
  6
Continuous
100
AcDbLine
 10
3367.088648965709
 20
1551.157786500286
 30
0.0
 11
3367.088648965709
 21
1608.897512527684
 31
0.0
  0
ARC
  5
183
330
2
100
AcDbEntity
  8
VM001I28$010
  6
Continuous
100
AcDbCircle
 10
3355.99275855475
 20
1562.253676911246
 30
0.0
 40
3.287671232876707
100
AcDbArc
 50
270.0
 51
0.0
  0
ARC
  5
184
330
2
100
AcDbEntity
  8
VE001I28$101
  6
Continuous
100
AcDbCircle
 10
3355.99275855475
 20
1562.253676911246
 30
0.0
 40
3.287671232876707
100
AcDbArc
 50
270.0
 51
0.0
  0
LINE
  5
185
330
2
100
AcDbEntity
  8
VM001I10$010
  6
Continuous
100
AcDbLine
 10
3365.85577225338
 20
1610.130389240013
 30
0.0
 11
3367.088648965709
 21
1608.897512527684
 31
0.0
  0
LINE
  5
186
330
2
100
AcDbEntity
  8
VE001I10$101
  6
Continuous
100
AcDbLine
 10
3365.85577225338
 20
1610.130389240013
 30
0.0
 11
3367.088648965709
 21
1608.897512527684
 31
0.0
  0
LINE
  5
187
330
2
100
AcDbEntity
  8
VM001I15$010
  6
Continuous
100
AcDbLine
 10
3365.85577225338
 20
1612.18518376056
 30
0.0
 11
3367.088648965709
 21
1613.418060472889
 31
0.0
  0
LINE
  5
188
330
2
100
AcDbEntity
  8
VE001I15$101
  6
Continuous
100
AcDbLine
 10
3365.85577225338
 20
1612.18518376056
 30
0.0
 11
3367.088648965709
 21
1613.418060472889
 31
0.0
  0
LINE
  5
189
330
2
100
AcDbEntity
  8
VM001I13$010
  6
Continuous
100
AcDbLine
 10
3365.85577225338
 20
1610.130389240013
 30
0.0
 11
3365.85577225338
 21
1612.18518376056
 31
0.0
  0
LINE
  5
18A
330
2
100
AcDbEntity
  8
VE001I13$101
  6
Continuous
100
AcDbLine
 10
3365.85577225338
 20
1610.130389240013
 30
0.0
 11
3365.85577225338
 21
1612.18518376056
 31
0.0
  0
LINE
  5
18B
330
2
100
AcDbEntity
  8
VM001I20$010
  6
Continuous
100
AcDbLine
 10
3342.020155815023
 20
1552.390663212615
 30
0.0
 11
3339.965361294474
 21
1552.390663212615
 31
0.0
  0
LINE
  5
18C
330
2
100
AcDbEntity
  8
VE001I20$101
  6
Continuous
100
AcDbLine
 10
3342.020155815023
 20
1552.390663212615
 30
0.0
 11
3339.965361294474
 21
1552.390663212615
 31
0.0
  0
LINE
  5
18D
330
2
100
AcDbEntity
  8
VM001I14$010
  6
Continuous
100
AcDbLine
 10
3342.020155815023
 20
1552.390663212615
 30
0.0
 11
3343.253032527352
 21
1551.157786500286
 31
0.0
  0
LINE
  5
18E
330
2
100
AcDbEntity
  8
VE001I14$101
  6
Continuous
100
AcDbLine
 10
3342.020155815023
 20
1552.390663212615
 30
0.0
 11
3343.253032527352
 21
1551.157786500286
 31
0.0
  0
LINE
  5
18F
330
2
100
AcDbEntity
  8
VM001I24$010
  6
Continuous
100
AcDbLine
 10
3339.965361294474
 20
1552.390663212615
 30
0.0
 11
3338.732484582145
 21
1551.157786500286
 31
0.0
  0
LINE
  5
190
330
2
100
AcDbEntity
  8
VE001I24$101
  6
Continuous
100
AcDbLine
 10
3339.965361294474
 20
1552.390663212615
 30
0.0
 11
3338.732484582145
 21
1551.157786500286
 31
0.0
  0
LINE
  5
191
330
2
100
AcDbEntity
  8
VM001I16$010
  6
Continuous
100
AcDbLine
 10
3367.088648965709
 20
1551.157786500286
 30
0.0
 11
3343.253032527352
 21
1551.157786500286
 31
0.0
  0
LINE
  5
192
330
2
100
AcDbEntity
  8
VE001I16$101
  6
Continuous
100
AcDbLine
 10
3367.088648965709
 20
1551.157786500286
 30
0.0
 11
3343.253032527352
 21
1551.157786500286
 31
0.0
  0
INSERT
  5
193
330
2
100
AcDbEntity
  8
0
100
AcDbBlockReference
  2
guide
 10
4240.303722058762
 20
2864.050968317455
 30
0.0
 41
1.812054697806801
 42
1.812054697806843
 43
1.81205469780682
 50
224.9999999999993
  0
MTEXT
  5
194
330
2
100
AcDbEntity
  8
0
100
AcDbMText
 10
4220.323200780552
 20
-80.66355790536608
 30
0.0
 40
30.0
 41
668.4215343702166
 71
     1
 72
     5
  1
FABRICATED 90° CLEARANCE MULLION (FOR SITUATIONS WHERE ADJACENT BUNDLES ARE AT THE SAME LEVEL)
 73
     1
 44
1.0
  0
LEADER
  5
195
330
2
100
AcDbEntity
  8
0
100
AcDbLeader
  3
ISO-25
 76
     2
 10
3953.278252896165
 20
-131.534206044378
 30
0.0
 10
4182.166367793099
 20
-131.534206044378
 30
0.0
1001
ACAD
1000
DSTYLE
1002
{
1070
   147
1040
0.625
1070
    77
1070
     0
1002
}
  0
LINE
  5
196
330
2
100
AcDbEntity
  8
0
100
AcDbLine
 10
4068.596707719176
 20
-3.402589574363673
 30
0.0
 11
3953.278252896165
 21
-118.7210443973763
 31
0.0
  0
LINE
  5
197
330
2
100
AcDbEntity
  8
0
100
AcDbLine
 10
3953.278252896165
 20
-131.5342060443781
 30
0.0
 11
4075.003288542677
 21
-9.809170397864818
 31
0.0
  0
LINE
  5
198
330
2
100
AcDbEntity
  8
0
100
AcDbLine
 10
4075.003288542677
 20
-9.809170397864818
 30
0.0
 11
4068.596707719176
 21
-3.402589574363673
 31
0.0
  0
MTEXT
  5
199
330
2
100
AcDbEntity
  8
0
100
AcDbMText
 10
4730.221003601045
 20
1434.811449899088
 30
0.0
 40
30.0
 41
739.8053425490201
 71
     1
 72
     5
  1
REMOVABLE INTERNAL LINING
 73
     1
 44
1.0
  0
HATCH
  5
19A
330
2
100
AcDbEntity
  8
0
100
AcDbHatch
 10
0.0
 20
0.0
 30
0.0
210
0.0
220
0.0
230
1.0
  2
ANSI31
 70
     0
 71
     0
 91
        1
 92
        7
 72
     0
 73
     1
 93
        6
 10
5008.004275038487
 20
1537.944271277455
 10
4968.004275038492
 20
1537.944271277455
 10
4427.143752841455
 20
1537.944271277455
 10
4387.143752841455
 20
1537.944271277454
 10
4387.143752841455
 20
1497.944271277455
 10
5008.004275038487
 20
1497.944271277455
 97
        0
 75
     0
 76
     1
 52
0.0
 41
4.0
 77
     0
 78
     1
 53
45.0
 43
-3051.119264914618
 44
-3713.600837255009
 45
-8.980256121069151
 46
8.980256121069153
 79
     0
 47
0.4231283133687918
 98
        1
 10
4810.138911921795
 20
1508.265705166622
  0
LINE
  5
19B
330
2
100
AcDbEntity
  8
0
100
AcDbLine
 10
4956.906244446816
 20
1549.236248320177
 30
0.0
 11
4596.906244446816
 21
1549.236248320177
 31
0.0
  0
LINE
  5
19C
330
2
100
AcDbEntity
  8
0
100
AcDbLine
 10
4427.143752841455
 20
1537.944271277455
 30
0.0
 11
4968.004275038492
 21
1537.944271277455
 31
0.0
  0
LINE
  5
19D
330
2
100
AcDbEntity
  8
0
100
AcDbLine
 10
4387.143752841455
 20
1497.944271277455
 30
0.0
 11
5008.004275038487
 21
1497.944271277455
 31
0.0
  0
MTEXT
  5
19E
330
2
100
AcDbEntity
  8
0
100
AcDbMText
 10
4226.563191284713
 20
609.21185827458
 30
0.0
 40
30.0
 41
347.418
 71
     1
 72
     5
  1
STANDARD 135° MULLION
 73
     1
 44
1.0
  0
LEADER
  5
19F
330
2
100
AcDbEntity
  8
0
100
AcDbLeader
  3
ISO-25
 76
     2
 10
4312.715327795952
 20
239.7120222222457
 30
0.0
 10
4463.71976961353
 20
239.7120222222457
 30
0.0
1001
ACAD
1000
DSTYLE
1002
{
1070
   147
1040
0.625
1070
    77
1070
     0
1002
}
  0
LINE
  5
1A0
330
2
100
AcDbEntity
  8
0
100
AcDbLine
 10
4239.680306408044
 20
174.364897822538
 30
0.0
 11
4202.522137631739
 21
211.5230665988428
 31
0.0
  0
LINE
  5
1A1
330
2
100
AcDbEntity
  8
0
100
AcDbLine
 10
4202.522137631739
 20
219.2109635870442
 30
0.0
 11
4243.524254902143
 21
178.2088463166392
 31
0.0
  0
LINE
  5
1A2
330
2
100
AcDbEntity
  8
0
100
AcDbLine
 10
4197.396872972938
 20
124.3935673992323
 30
0.0
 11
4312.715327795952
 21
239.7120222222456
 31
0.0
  0
LINE
  5
1A3
330
2
100
AcDbEntity
  8
0
100
AcDbLine
 10
4152.550807208434
 20
169.2396331637382
 30
0.0
 11
4202.522137631739
 21
219.2109635870442
 31
0.0
  0
LINE
  5
1A4
330
2
100
AcDbEntity
  8
0
100
AcDbLine
 10
4202.522137631739
 20
211.5230665988428
 30
0.0
 11
4156.394755702534
 21
165.3956846696373
 31
0.0
  0
LINE
  5
1A5
330
2
100
AcDbEntity
  8
0
100
AcDbLine
 10
4305.02743080775
 20
239.7120222222456
 30
0.0
 11
4243.524254902143
 21
178.2088463166392
 31
0.0
  0
LINE
  5
1A6
330
2
100
AcDbEntity
  8
0
100
AcDbLine
 10
4156.394755702534
 20
165.3956846696373
 30
0.0
 11
4152.550807208434
 21
169.2396331637382
 31
0.0
  0
LINE
  5
1A7
330
2
100
AcDbEntity
  8
0
100
AcDbLine
 10
4193.552924478837
 20
128.2375158933334
 30
0.0
 11
4197.396872972938
 21
124.3935673992323
 31
0.0
  0
LINE
  5
1A8
330
2
100
AcDbEntity
  8
0
100
AcDbLine
 10
4239.680306408044
 20
174.364897822538
 30
0.0
 11
4193.552924478837
 21
128.2375158933334
 31
0.0
  0
LINE
  5
1A9
330
2
100
AcDbEntity
  8
0
100
AcDbLine
 10
4243.524254902145
 20
301.2151981278532
 30
0.0
 11
4305.02743080775
 21
239.7120222222456
 31
0.0
  0
LINE
  5
1AA
330
2
100
AcDbEntity
  8
0
100
AcDbLine
 10
4312.715327795952
 20
239.7120222222456
 30
0.0
 11
4197.396872972938
 21
355.0304770452592
 31
0.0
  0
LINE
  5
1AB
330
2
100
AcDbEntity
  8
0
100
AcDbLine
 10
4202.522137631739
 20
267.9009778456495
 30
0.0
 11
4156.394755702534
 21
314.0283597748543
 31
0.0
  0
LINE
  5
1AC
330
2
100
AcDbEntity
  8
0
100
AcDbLine
 10
4152.550807208434
 20
310.1844112807541
 30
0.0
 11
4202.522137631739
 21
260.2130808574484
 31
0.0
  0
LINE
  5
1AD
330
2
100
AcDbEntity
  8
0
100
AcDbLine
 10
4193.552924478838
 20
351.1865285511589
 30
0.0
 11
4239.680306408044
 21
305.0591466219534
 31
0.0
  0
LINE
  5
1AE
330
2
100
AcDbEntity
  8
0
100
AcDbLine
 10
4239.680306408044
 20
305.0591466219534
 30
0.0
 11
4202.522137631739
 21
267.9009778456495
 31
0.0
  0
LINE
  5
1AF
330
2
100
AcDbEntity
  8
0
100
AcDbLine
 10
4202.522137631739
 20
260.2130808574484
 30
0.0
 11
4243.524254902145
 21
301.2151981278532
 31
0.0
  0
LINE
  5
1B0
330
2
100
AcDbEntity
  8
0
100
AcDbLine
 10
4156.394755702534
 20
314.0283597748543
 30
0.0
 11
4152.550807208434
 21
310.1844112807541
 31
0.0
  0
LINE
  5
1B1
330
2
100
AcDbEntity
  8
0
100
AcDbLine
 10
4197.396872972938
 20
355.0304770452592
 30
0.0
 11
4193.552924478838
 21
351.1865285511589
 31
0.0
  0
LEADER
  5
1B2
330
2
100
AcDbEntity
  8
0
100
AcDbLeader
  3
ISO-25
 76
     2
 10
3967.994362631725
 20
584.4329873864707
 30
0.0
 10
4207.731303462817
 20
584.4329873864707
 30
0.0
1001
ACAD
1000
DSTYLE
1002
{
1070
   147
1040
0.625
1070
    77
1070
     0
1002
}
  0
LINE
  5
1B3
330
2
100
AcDbEntity
  8
0
100
AcDbLine
 10
3967.994362631725
 20
584.4329873864707
 30
0.0
 11
4082.031501290037
 21
470.3958487281586
 31
0.0
  0
LINE
  5
1B4
330
2
100
AcDbEntity
  8
0
100
AcDbLine
 10
3965.742629736944
 20
578.9968232930505
 30
0.0
 11
4028.21622237263
 21
516.5232306573634
 31
0.0
  0
LINE
  5
1B5
330
2
100
AcDbEntity
  8
0
100
AcDbLine
 10
3877.391627741383
 20
578.9968232930505
 30
0.0
 11
3965.742629736944
 21
578.9968232930505
 31
0.0
  0
LINE
  5
1B6
330
2
100
AcDbEntity
  8
0
100
AcDbLine
 10
3877.391627741383
 20
521.011072963232
 30
0.0
 11
3877.391627741383
 21
578.9968232930505
 31
0.0
  0
LINE
  5
1B7
330
2
100
AcDbEntity
  8
0
100
AcDbLine
 10
3871.955463647963
 20
578.9968232930505
 30
0.0
 11
3871.955463647963
 21
526.4472370566527
 31
0.0
  0
LINE
  5
1B8
330
2
100
AcDbEntity
  8
0
100
AcDbLine
 10
4032.060170866731
 20
512.679282163263
 30
0.0
 11
4078.187552795936
 21
466.5519002340579
 31
0.0
  0
LINE
  5
1B9
330
2
100
AcDbEntity
  8
0
100
AcDbLine
 10
3987.214105102227
 20
475.5211133869589
 30
0.0
 11
4028.21622237263
 21
516.5232306573634
 31
0.0
  0
LINE
  5
1BA
330
2
100
AcDbEntity
  8
0
100
AcDbLine
 10
4032.060170866731
 20
512.679282163263
 30
0.0
 11
3994.902002090428
 21
475.5211133869589
 31
0.0
  0
LINE
  5
1BB
330
2
100
AcDbEntity
  8
0
100
AcDbLine
 10
4041.029384019632
 20
429.3937314577537
 30
0.0
 11
4037.185435525531
 21
425.5497829636533
 31
0.0
  0
LINE
  5
1BC
330
2
100
AcDbEntity
  8
0
100
AcDbLine
 10
3994.902002090428
 20
475.5211133869589
 30
0.0
 11
4041.029384019632
 21
429.3937314577537
 31
0.0
  0
LINE
  5
1BD
330
2
100
AcDbEntity
  8
0
100
AcDbLine
 10
4037.185435525531
 20
425.5497829636533
 30
0.0
 11
3987.214105102227
 21
475.5211133869589
 31
0.0
  0
LINE
  5
1BE
330
2
100
AcDbEntity
  8
0
100
AcDbLine
 10
4082.031501290037
 20
470.3958487281586
 30
0.0
 11
4078.187552795936
 21
466.5519002340579
 31
0.0
  0
MTEXT
  5
1BF
330
2
100
AcDbEntity
  8
0
100
AcDbMText
 10
4482.2823491017
 20
288.6460998021915
 30
0.0
 40
30.0
 41
414.6753832723592
 71
     1
 72
     5
  1
STANDARD 90° CORNER MULLION (REFER TO TECH SHEET 4)
 73
     1
 44
1.0
  0
MTEXT
  5
1C0
330
2
100
AcDbEntity
  8
0
100
AcDbMText
 10
4274.350367820599
 20
1319.083374797311
 30
0.0
 40
30.0
 41
967.6783
 71
     1
 72
     5
  1
48mm MIN. SIDEROOM RECOMMENDED EACH SIDE OF THE DOOR
 73
     1
 44
1.0
  0
MTEXT
  5
1C1
330
2
100
AcDbEntity
  8
0
100
AcDbMText
 10
3694.904921117057
 20
1062.813254109813
 30
0.0
 40
40.0
 41
210.3644
 71
     1
 72
     5
  1
{\fArial|b1|i0|c0|p34;\LINSIDE}
 73
     1
 44
1.0
  0
LINE
  5
1C2
330
2
100
AcDbEntity
  8
0
100
AcDbLine
 10
3875.0351999315
 20
1260.121170165573
 30
0.0
 11
3875.035199931499
 21
1610.724325854876
 31
0.0
  0
LINE
  5
1C3
330
2
100
AcDbEntity
  8
0
100
AcDbLine
 10
3835.035199931498
 20
1300.121170165574
 30
0.0
 11
3835.035199931498
 21
1610.724325854876
 31
0.0
  0
MTEXT
  5
1C4
330
2
100
AcDbEntity
  8
0
100
AcDbMText
 10
4188.620744312909
 20
1627.556262829444
 30
0.0
 40
30.0
 41
404.5104999999999
 71
     1
 72
     5
  1
31
 73
     1
 44
1.0
  0
LINE
  5
1C5
330
2
100
AcDbEntity
  8
VM001I9$010
  6
Continuous
100
AcDbLine
 10
4556.603529097463
 20
1551.157786500286
 30
0.0
 11
4393.247364713903
 21
1551.157786500286
 31
0.0
  0
LINE
  5
1C6
330
2
100
AcDbEntity
  8
VE001I9$101
  6
Continuous
100
AcDbLine
 10
4556.603529097463
 20
1551.157786500286
 30
0.0
 11
4393.247364713903
 21
1551.157786500286
 31
0.0
  0
LINE
  5
1C7
330
2
100
AcDbEntity
  8
VM001I19$010
  6
Continuous
100
AcDbLine
 10
4529.480241426232
 20
1558.966005678369
 30
0.0
 11
4393.247364713903
 21
1558.966005678369
 31
0.0
  0
LINE
  5
1C8
330
2
100
AcDbEntity
  8
VE001I19$101
  6
Continuous
100
AcDbLine
 10
4529.480241426232
 20
1558.966005678369
 30
0.0
 11
4393.247364713903
 21
1558.966005678369
 31
0.0
  0
CIRCLE
  5
1C9
102
{ACAD_REACTORS
330
1CA
102
}
330
2
100
AcDbEntity
  8
0
100
AcDbCircle
 10
4492.024998644136
 20
1403.922262032293
 30
0.0
 40
7.175934919636347
  0
HATCH
  5
1CA
330
2
100
AcDbEntity
  8
0
100
AcDbHatch
 10
0.0
 20
0.0
 30
0.0
210
0.0
220
0.0
230
1.0
  2
SOLID
 70
     1
 71
     1
 91
        1
 92
        7
 72
     1
 73
     1
 93
        2
 10
4499.200933563773
 20
1403.922262032293
 42
1.0
 10
4484.849063724499
 20
1403.922262032293
 42
1.0
 97
        1
330
1C9
 75
     0
 76
     1
 47
0.0497956514238579
 98
        1
 10
4493.376833842778
 20
1399.052656653187
  0
LINE
  5
1CB
330
2
100
AcDbEntity
  8
0
100
AcDbLine
 10
4387.143752841455
 20
1537.944271277455
 30
0.0
 11
4387.143752841455
 21
1497.944271277455
 31
0.0
  0
ARC
  5
1CC
330
2
100
AcDbEntity
  8
VE001I27$101
  6
Continuous
100
AcDbCircle
 10
4393.247364713903
 20
1555.061896089329
 30
0.0
 40
3.904109589041089
100
AcDbArc
 50
90.0
 51
270.0
  0
ARC
  5
1CD
330
2
100
AcDbEntity
  8
VM001I27$010
  6
Continuous
100
AcDbCircle
 10
4393.247364713903
 20
1555.061896089329
 30
0.0
 40
3.904109589041089
100
AcDbArc
 50
90.0
 51
270.0
  0
LINE
  5
1CE
330
2
100
AcDbEntity
  8
0
100
AcDbLine
 10
4387.143752841455
 20
1537.944271277455
 30
0.0
 11
4427.143752841455
 21
1537.944271277455
 31
0.0
  0
LEADER
  5
1CF
330
2
100
AcDbEntity
  8
0
100
AcDbLeader
  3
ISO-25
 76
     3
 10
4664.763160030513
 20
1497.944271277455
 30
0.0
 10
4664.763160030513
 20
1400.621854293554
 30
0.0
 10
4720.310683279758
 20
1400.621854293554
 30
0.0
  0
LINE
  5
1D0
330
2
100
AcDbEntity
  8
VM001I16$010
  6
Continuous
100
AcDbLine
 10
4584.959693481027
 20
1551.157786500286
 30
0.0
 11
4561.124077042672
 21
1551.157786500286
 31
0.0
  0
LINE
  5
1D1
330
2
100
AcDbEntity
  8
VE001I16$101
  6
Continuous
100
AcDbLine
 10
4584.959693481027
 20
1551.157786500286
 30
0.0
 11
4561.124077042672
 21
1551.157786500286
 31
0.0
  0
LINE
  5
1D2
330
2
100
AcDbEntity
  8
VM001I7$010
  6
Continuous
100
AcDbLine
 10
4534.000789371437
 20
1610.130389240013
 30
0.0
 11
4532.767912659108
 21
1608.897512527684
 31
0.0
  0
LINE
  5
1D3
330
2
100
AcDbEntity
  8
VE001I7$101
  6
Continuous
100
AcDbLine
 10
4534.000789371437
 20
1610.130389240013
 30
0.0
 11
4532.767912659108
 21
1608.897512527684
 31
0.0
  0
LINE
  5
1D4
330
2
100
AcDbEntity
  8
VM001I11$010
  6
Continuous
100
AcDbLine
 10
4534.000789371437
 20
1612.18518376056
 30
0.0
 11
4532.767912659108
 21
1613.418060472889
 31
0.0
  0
LINE
  5
1D5
330
2
100
AcDbEntity
  8
VE001I11$101
  6
Continuous
100
AcDbLine
 10
4534.000789371437
 20
1612.18518376056
 30
0.0
 11
4532.767912659108
 21
1613.418060472889
 31
0.0
  0
LINE
  5
1D6
330
2
100
AcDbEntity
  8
VM001I21$010
  6
Continuous
100
AcDbLine
 10
4534.000789371437
 20
1610.130389240013
 30
0.0
 11
4534.000789371437
 21
1612.18518376056
 31
0.0
  0
LINE
  5
1D7
330
2
100
AcDbEntity
  8
VE001I21$101
  6
Continuous
100
AcDbLine
 10
4534.000789371437
 20
1610.130389240013
 30
0.0
 11
4534.000789371437
 21
1612.18518376056
 31
0.0
  0
ARC
  5
1D8
330
2
100
AcDbEntity
  8
VM001I28$010
  6
Continuous
100
AcDbCircle
 10
4573.86380307007
 20
1562.253676911246
 30
0.0
 40
3.287671232876707
100
AcDbArc
 50
270.0
 51
0.0
  0
ARC
  5
1D9
330
2
100
AcDbEntity
  8
VE001I28$101
  6
Continuous
100
AcDbCircle
 10
4573.86380307007
 20
1562.253676911246
 30
0.0
 40
3.287671232876707
100
AcDbArc
 50
270.0
 51
0.0
  0
ARC
  5
1DA
330
2
100
AcDbEntity
  8
VM001I33$010
  6
Continuous
100
AcDbCircle
 10
4542.425446905684
 20
1562.253676911246
 30
0.0
 40
3.287671232876707
100
AcDbArc
 50
180.0
 51
270.0
  0
ARC
  5
1DB
330
2
100
AcDbEntity
  8
VE001I33$101
  6
Continuous
100
AcDbCircle
 10
4542.425446905684
 20
1562.253676911246
 30
0.0
 40
3.287671232876707
100
AcDbArc
 50
180.0
 51
270.0
  0
LINE
  5
1DC
330
2
100
AcDbEntity
  8
VM001I20$010
  6
Continuous
100
AcDbLine
 10
4559.891200330343
 20
1552.390663212615
 30
0.0
 11
4557.836405809792
 21
1552.390663212615
 31
0.0
  0
LINE
  5
1DD
330
2
100
AcDbEntity
  8
VE001I20$101
  6
Continuous
100
AcDbLine
 10
4559.891200330343
 20
1552.390663212615
 30
0.0
 11
4557.836405809792
 21
1552.390663212615
 31
0.0
  0
LINE
  5
1DE
330
2
100
AcDbEntity
  8
VM001I14$010
  6
Continuous
100
AcDbLine
 10
4559.891200330343
 20
1552.390663212615
 30
0.0
 11
4561.124077042672
 21
1551.157786500286
 31
0.0
  0
LINE
  5
1DF
330
2
100
AcDbEntity
  8
VE001I14$101
  6
Continuous
100
AcDbLine
 10
4559.891200330343
 20
1552.390663212615
 30
0.0
 11
4561.124077042672
 21
1551.157786500286
 31
0.0
  0
LINE
  5
1E0
330
2
100
AcDbEntity
  8
VM001I24$010
  6
Continuous
100
AcDbLine
 10
4557.836405809792
 20
1552.390663212615
 30
0.0
 11
4556.603529097463
 21
1551.157786500286
 31
0.0
  0
LINE
  5
1E1
330
2
100
AcDbEntity
  8
VE001I24$101
  6
Continuous
100
AcDbLine
 10
4557.836405809792
 20
1552.390663212615
 30
0.0
 11
4556.603529097463
 21
1551.157786500286
 31
0.0
  0
ARC
  5
1E2
330
2
100
AcDbEntity
  8
VM001I31$010
  6
Continuous
100
AcDbCircle
 10
4529.480241426232
 20
1562.253676911246
 30
0.0
 40
3.287671232876707
100
AcDbArc
 50
270.0
 51
0.0
  0
ARC
  5
1E3
330
2
100
AcDbEntity
  8
VE001I31$101
  6
Continuous
100
AcDbCircle
 10
4529.480241426232
 20
1562.253676911246
 30
0.0
 40
3.287671232876707
100
AcDbArc
 50
270.0
 51
0.0
  0
LINE
  5
1E4
330
2
100
AcDbEntity
  8
VM001I12$010
  6
Continuous
100
AcDbLine
 10
4573.86380307007
 20
1558.966005678369
 30
0.0
 11
4542.425446905684
 21
1558.966005678369
 31
0.0
  0
LINE
  5
1E5
330
2
100
AcDbEntity
  8
VE001I12$101
  6
Continuous
100
AcDbLine
 10
4573.86380307007
 20
1558.966005678369
 30
0.0
 11
4542.425446905684
 21
1558.966005678369
 31
0.0
  0
LINE
  5
1E6
330
2
100
AcDbEntity
  8
VM001I23$010
  6
Continuous
100
AcDbLine
 10
4532.767912659108
 20
1562.253676911246
 30
0.0
 11
4532.767912659108
 21
1608.897512527684
 31
0.0
  0
LINE
  5
1E7
330
2
100
AcDbEntity
  8
VE001I23$101
  6
Continuous
100
AcDbLine
 10
4532.767912659108
 20
1562.253676911246
 30
0.0
 11
4532.767912659108
 21
1608.897512527684
 31
0.0
  0
LINE
  5
1E8
330
2
100
AcDbEntity
  8
VM001I10$010
  6
Continuous
100
AcDbLine
 10
4583.726816768698
 20
1610.130389240013
 30
0.0
 11
4584.959693481027
 21
1608.897512527684
 31
0.0
  0
LINE
  5
1E9
330
2
100
AcDbEntity
  8
VE001I10$101
  6
Continuous
100
AcDbLine
 10
4583.726816768698
 20
1610.130389240013
 30
0.0
 11
4584.959693481027
 21
1608.897512527684
 31
0.0
  0
LINE
  5
1EA
330
2
100
AcDbEntity
  8
VM001I15$010
  6
Continuous
100
AcDbLine
 10
4583.726816768698
 20
1612.18518376056
 30
0.0
 11
4584.959693481027
 21
1613.418060472889
 31
0.0
  0
LINE
  5
1EB
330
2
100
AcDbEntity
  8
VE001I15$101
  6
Continuous
100
AcDbLine
 10
4583.726816768698
 20
1612.18518376056
 30
0.0
 11
4584.959693481027
 21
1613.418060472889
 31
0.0
  0
LINE
  5
1EC
330
2
100
AcDbEntity
  8
VM001I13$010
  6
Continuous
100
AcDbLine
 10
4583.726816768698
 20
1610.130389240013
 30
0.0
 11
4583.726816768698
 21
1612.18518376056
 31
0.0
  0
LINE
  5
1ED
330
2
100
AcDbEntity
  8
VE001I13$101
  6
Continuous
100
AcDbLine
 10
4583.726816768698
 20
1610.130389240013
 30
0.0
 11
4583.726816768698
 21
1612.18518376056
 31
0.0
  0
LINE
  5
1EE
330
2
100
AcDbEntity
  8
VM001I17$010
  6
Continuous
100
AcDbLine
 10
4584.959693481027
 20
1551.157786500286
 30
0.0
 11
4584.959693481027
 21
1608.897512527684
 31
0.0
  0
LINE
  5
1EF
330
2
100
AcDbEntity
  8
VE001I17$101
  6
Continuous
100
AcDbLine
 10
4584.959693481027
 20
1551.157786500286
 30
0.0
 11
4584.959693481027
 21
1608.897512527684
 31
0.0
  0
LINE
  5
1F0
330
2
100
AcDbEntity
  8
0
100
AcDbLine
 10
4968.004275038492
 20
1537.944271277455
 30
0.0
 11
5008.004275038487
 21
1537.944271277455
 31
0.0
  0
MTEXT
  5
1F1
330
2
100
AcDbEntity
  8
0
100
AcDbMText
 10
3672.686896813762
 20
2494.444375051362
 30
0.0
 40
40.0
 41
215.3035999999999
 71
     1
 72
     5
  1
{\fArial|b1|i0|c0|p34;\LOUTSIDE}
 73
     1
 44
1.0
  0
MTEXT
  5
1F2
330
2
100
AcDbEntity
  8
0
100
AcDbMText
 10
2116.05525042273
 20
2402.994285274048
 30
0.0
 40
30.0
 41
934.2884941096162
 71
     1
 72
     5
  1
TIMBER STUD FIXED BETWEEN THE FLOOR AND THE BUILDING STRUCTURE ABOVE THE ROLLER SHUTTER DRUM, TO SUPPORT THE ROLLER SHUTTER (SUPPLIED BY OTHERS)
 73
     1
 44
1.0
  0
LINE
  5
1F3
330
2
100
AcDbEntity
  8
0
100
AcDbLine
 10
3463.035199931498
 20
1681.157786500286
 30
0.0
 11
3823.035199931498
 21
1681.157786500286
 31
0.0
  0
LINE
  5
1F4
330
2
100
AcDbEntity
  8
0
100
AcDbLine
 10
3209.272708326135
 20
1922.194402835
 30
0.0
 11
3835.035199931498
 21
1922.194402835
 31
0.0
  0
LINE
  5
1F5
330
2
100
AcDbEntity
  8
0
100
AcDbLine
 10
3169.272708326135
 20
1962.194402835
 30
0.0
 11
3875.035199931499
 21
1962.194402835
 31
0.0
  0
MTEXT
  5
1F6
330
2
100
AcDbEntity
  8
0
100
AcDbMText
 10
2119.320848579962
 20
2101.33750600911
 30
0.0
 40
30.0
 41
858.5182999999998
 71
     1
 72
     5
  1
REMOVABLE 18MM DEEP PACKER, TO ENABLE THE CURTAIN TO BE REMOVED FOR SERVICE AND MAINTENANCE
 73
     1
 44
1.0
  0
MTEXT
  5
1F7
330
2
100
AcDbEntity
  8
0
100
AcDbMText
 10
2098.034566426984
 20
1842.234813506126
 30
0.0
 40
30.0
 41
620.1333053224352
 71
     1
 72
     5
  1
STANDARD SIDE GUIDE 30WIDE X 48DEEP
 73
     1
 44
1.0
  0
LEADER
  5
1F8
330
2
100
AcDbEntity
  8
0
100
AcDbLeader
  3
ISO-25
 76
     2
 10
3175.376320198585
 20
1663.349567322205
 30
0.0
 10
3029.180019990348
 20
1801.280149936343
 30
0.0
  0
LEADER
  5
1F9
330
2
100
AcDbEntity
  8
0
100
AcDbLeader
  3
ISO-25
 76
     3
 10
3397.371476223212
 20
1661.591247145697
 30
0.0
 10
3397.371476223212
 20
2012.401905567592
 30
0.0
 10
2933.587901437796
 20
2012.401905567592
 30
0.0
1001
ACAD
1000
DSTYLE
1002
{
1070
   147
1040
0.625
1070
    77
1070
     0
1002
}
  0
LINE
  5
1FA
102
{ACAD_REACTORS
330
5
102
}
330
2
100
AcDbEntity
  8
0
  6
ACAD_ISO03W100
 48
0.5
100
AcDbLine
 10
2691.137196360319
 20
1684.371301723117
 30
0.0
 11
3084.835810891979
 21
1684.371301723117
 31
0.0
  0
LEADER
  5
1FB
330
2
100
AcDbEntity
  8
0
100
AcDbLeader
  3
ISO-25
 76
     2
 10
3643.035199931498
 20
1681.157786500286
 30
0.0
 10
3643.035199931498
 20
2295.322340543636
 30
0.0
  0
LINE
  5
1FC
330
2
100
AcDbEntity
  8
0
100
AcDbLine
 10
3449.123736353211
 20
1661.591247145697
 30
0.0
 11
3377.12373635321
 21
1661.591247145697
 31
0.0
  0
LINE
  5
1FD
330
2
100
AcDbEntity
  8
0
100
AcDbLine
 10
3209.272708326135
 20
1684.371301723117
 30
0.0
 11
3209.272708326135
 21
1922.194402834999
 31
0.0
  0
LINE
  5
1FE
330
2
100
AcDbEntity
  8
0
100
AcDbLine
 10
3169.272708326135
 20
1684.371301723117
 30
0.0
 11
3169.272708326135
 21
1962.194402835001
 31
0.0
  0
LINE
  5
1FF
330
2
100
AcDbEntity
  8
VM001I5$010
  6
Continuous
100
AcDbLine
 10
3338.732484582147
 20
1671.157786500286
 30
0.0
 11
3175.376320198585
 21
1671.157786500286
 31
0.0
  0
LINE
  5
200
330
2
100
AcDbEntity
  8
VE001I5$101
  6
Continuous
100
AcDbLine
 10
3338.732484582147
 20
1671.157786500286
 30
0.0
 11
3175.376320198585
 21
1671.157786500286
 31
0.0
  0
LINE
  5
201
330
2
100
AcDbEntity
  8
VM001I26$010
  6
Continuous
100
AcDbLine
 10
3311.609196910914
 20
1663.349567322205
 30
0.0
 11
3175.376320198585
 21
1663.349567322205
 31
0.0
  0
LINE
  5
202
330
2
100
AcDbEntity
  8
VE001I26$101
  6
Continuous
100
AcDbLine
 10
3311.609196910914
 20
1663.349567322205
 30
0.0
 11
3175.376320198585
 21
1663.349567322205
 31
0.0
  0
LINE
  5
203
330
2
100
AcDbEntity
  8
0
100
AcDbLine
 10
3169.272708326135
 20
1684.371301723117
 30
0.0
 11
3209.272708326135
 21
1684.371301723117
 31
0.0
  0
ARC
  5
204
330
2
100
AcDbEntity
  8
VM001I27$010
  6
Continuous
100
AcDbCircle
 10
3175.376320198585
 20
1667.253676911246
 30
0.0
 40
3.904109589041089
100
AcDbArc
 50
90.0
 51
270.0
  0
ARC
  5
205
330
2
100
AcDbEntity
  8
VE001I27$101
  6
Continuous
100
AcDbCircle
 10
3175.376320198585
 20
1667.253676911246
 30
0.0
 40
3.904109589041089
100
AcDbArc
 50
90.0
 51
270.0
  0
LINE
  5
206
330
2
100
AcDbEntity
  8
VM001I8$010
  6
Continuous
100
AcDbLine
 10
3355.99275855475
 20
1663.349567322205
 30
0.0
 11
3324.554402390367
 21
1663.349567322205
 31
0.0
  0
LINE
  5
207
330
2
100
AcDbEntity
  8
VE001I8$101
  6
Continuous
100
AcDbLine
 10
3355.99275855475
 20
1663.349567322205
 30
0.0
 11
3324.554402390367
 21
1663.349567322205
 31
0.0
  0
ARC
  5
208
330
2
100
AcDbEntity
  8
VM001I29$010
  6
Continuous
100
AcDbCircle
 10
3324.554402390367
 20
1660.061896089327
 30
0.0
 40
3.287671232876707
100
AcDbArc
 50
90.0
 51
180.0
  0
ARC
  5
209
330
2
100
AcDbEntity
  8
VE001I29$101
  6
Continuous
100
AcDbCircle
 10
3324.554402390367
 20
1660.061896089327
 30
0.0
 40
3.287671232876707
100
AcDbArc
 50
90.0
 51
180.0
  0
ARC
  5
20A
330
2
100
AcDbEntity
  8
VM001I32$010
  6
Continuous
100
AcDbCircle
 10
3311.609196910914
 20
1660.061896089327
 30
0.0
 40
3.287671232876707
100
AcDbArc
 50
0.0
 51
90.0
  0
ARC
  5
20B
330
2
100
AcDbEntity
  8
VE001I32$101
  6
Continuous
100
AcDbCircle
 10
3311.609196910914
 20
1660.061896089327
 30
0.0
 40
3.287671232876707
100
AcDbArc
 50
0.0
 51
90.0
  0
ARC
  5
20C
330
2
100
AcDbEntity
  8
VM001I34$010
  6
Continuous
100
AcDbCircle
 10
3355.99275855475
 20
1660.061896089327
 30
0.0
 40
3.287671232876707
100
AcDbArc
 50
0.0
 51
90.0
  0
ARC
  5
20D
330
2
100
AcDbEntity
  8
VE001I34$101
  6
Continuous
100
AcDbCircle
 10
3355.99275855475
 20
1660.061896089327
 30
0.0
 40
3.287671232876707
100
AcDbArc
 50
0.0
 51
90.0
  0
LINE
  5
20E
330
2
100
AcDbEntity
  8
VM001I3$010
  6
Continuous
100
AcDbLine
 10
3342.020155815023
 20
1669.924909787957
 30
0.0
 11
3339.965361294474
 21
1669.924909787957
 31
0.0
  0
LINE
  5
20F
330
2
100
AcDbEntity
  8
VE001I3$101
  6
Continuous
100
AcDbLine
 10
3342.020155815023
 20
1669.924909787957
 30
0.0
 11
3339.965361294474
 21
1669.924909787957
 31
0.0
  0
LINE
  5
210
330
2
100
AcDbEntity
  8
VM001I1$010
  6
Continuous
100
AcDbLine
 10
3342.020155815023
 20
1669.924909787957
 30
0.0
 11
3343.253032527352
 21
1671.157786500286
 31
0.0
  0
LINE
  5
211
330
2
100
AcDbEntity
  8
VE001I1$101
  6
Continuous
100
AcDbLine
 10
3342.020155815023
 20
1669.924909787957
 30
0.0
 11
3343.253032527352
 21
1671.157786500286
 31
0.0
  0
LINE
  5
212
330
2
100
AcDbEntity
  8
VM001I4$010
  6
Continuous
100
AcDbLine
 10
3339.965361294474
 20
1669.924909787957
 30
0.0
 11
3338.732484582147
 21
1671.157786500286
 31
0.0
  0
LINE
  5
213
330
2
100
AcDbEntity
  8
VE001I4$101
  6
Continuous
100
AcDbLine
 10
3339.965361294474
 20
1669.924909787957
 30
0.0
 11
3338.732484582147
 21
1671.157786500286
 31
0.0
  0
LINE
  5
214
330
2
100
AcDbEntity
  8
VM001I6$010
  6
Continuous
100
AcDbLine
 10
3367.088648965709
 20
1671.157786500286
 30
0.0
 11
3343.253032527352
 21
1671.157786500286
 31
0.0
  0
LINE
  5
215
330
2
100
AcDbEntity
  8
VE001I6$101
  6
Continuous
100
AcDbLine
 10
3367.088648965709
 20
1671.157786500286
 30
0.0
 11
3343.253032527352
 21
1671.157786500286
 31
0.0
  0
MTEXT
  5
216
330
2
100
AcDbEntity
  8
0
100
AcDbMText
 10
4467.63039436343
 20
2345.95457466585
 30
0.0
 40
30.0
 41
791.648346463864
 71
     1
 72
     5
  1
TIMBER STUD FIXED BETWEEN THE FLOOR AND THE BUILDING STRUCTURE ABOVE THE ROLLER SHUTTER DRUM, TO SUPPORT THE ROLLER SHUTTER (SUPPLIED BY OTHERS)
 73
     1
 44
1.0
  0
LINE
  5
217
330
2
100
AcDbEntity
  8
0
100
AcDbLine
 10
4596.906244446816
 20
1689.236248320177
 30
0.0
 11
4956.906244446816
 21
1689.236248320177
 31
0.0
  0
LINE
  5
218
330
2
100
AcDbEntity
  8
0
100
AcDbLine
 10
4387.143752841455
 20
1962.194402835
 30
0.0
 11
5008.004275038491
 21
1962.194402835
 31
0.0
  0
LINE
  5
219
330
2
100
AcDbEntity
  8
0
100
AcDbLine
 10
4427.143752841455
 20
1922.194402835
 30
0.0
 11
4968.004275038492
 21
1922.194402834999
 31
0.0
  0
LEADER
  5
21A
330
2
100
AcDbEntity
  8
0
100
AcDbLeader
  3
ISO-25
 76
     2
 10
4393.247364713903
 20
1663.349567322205
 30
0.0
 10
4178.152519939554
 20
1874.346166438905
 30
0.0
  0
MTEXT
  5
21B
330
2
100
AcDbEntity
  8
0
100
AcDbMText
 10
3984.626648937157
 20
2352.161844889541
 30
0.0
 40
30.0
 41
407.8670999999999
 71
     1
 72
     5
  1
STANDARD SIDE GUIDE 30WIDE X 48DEEP
 73
     1
 44
1.0
  0
LINE
  5
21C
330
2
100
AcDbEntity
  8
VM001I5$010
  6
Continuous
100
AcDbLine
 10
4556.603529097467
 20
1671.157786500286
 30
0.0
 11
4393.247364713903
 21
1671.157786500286
 31
0.0
  0
LINE
  5
21D
330
2
100
AcDbEntity
  8
VE001I5$101
  6
Continuous
100
AcDbLine
 10
4556.603529097467
 20
1671.157786500286
 30
0.0
 11
4393.247364713903
 21
1671.157786500286
 31
0.0
  0
LINE
  5
21E
330
2
100
AcDbEntity
  8
VM001I26$010
  6
Continuous
100
AcDbLine
 10
4529.480241426232
 20
1663.349567322205
 30
0.0
 11
4393.247364713903
 21
1663.349567322205
 31
0.0
  0
LINE
  5
21F
330
2
100
AcDbEntity
  8
VE001I26$101
  6
Continuous
100
AcDbLine
 10
4529.480241426232
 20
1663.349567322205
 30
0.0
 11
4393.247364713903
 21
1663.349567322205
 31
0.0
  0
LINE
  5
220
330
2
100
AcDbEntity
  8
0
100
AcDbLine
 10
4427.143752841455
 20
1684.371301723117
 30
0.0
 11
4427.143752841455
 21
1922.194402834999
 31
0.0
  0
LINE
  5
221
330
2
100
AcDbEntity
  8
0
100
AcDbLine
 10
4387.143752841455
 20
1684.371301723117
 30
0.0
 11
4387.143752841455
 21
1962.194402835001
 31
0.0
  0
LINE
  5
222
330
2
100
AcDbEntity
  8
0
100
AcDbLine
 10
4387.143752841455
 20
1684.371301723117
 30
0.0
 11
4427.143752841455
 21
1684.371301723117
 31
0.0
  0
ARC
  5
223
330
2
100
AcDbEntity
  8
VM001I27$010
  6
Continuous
100
AcDbCircle
 10
4393.247364713903
 20
1667.253676911246
 30
0.0
 40
3.904109589041089
100
AcDbArc
 50
90.0
 51
270.0
  0
ARC
  5
224
330
2
100
AcDbEntity
  8
VE001I27$101
  6
Continuous
100
AcDbCircle
 10
4393.247364713903
 20
1667.253676911246
 30
0.0
 40
3.904109589041089
100
AcDbArc
 50
90.0
 51
270.0
  0
LEADER
  5
225
330
2
100
AcDbEntity
  8
0
100
AcDbLeader
  3
ISO-25
 76
     2
 10
4776.906244446815
 20
1681.157786500286
 30
0.0
 10
4776.906244446815
 20
2031.402681106697
 30
0.0
  0
LINE
  5
226
330
2
100
AcDbEntity
  8
VM001I6$010
  6
Continuous
100
AcDbLine
 10
4584.959693481027
 20
1671.157786500286
 30
0.0
 11
4561.124077042672
 21
1671.157786500286
 31
0.0
  0
LINE
  5
227
330
2
100
AcDbEntity
  8
VE001I6$101
  6
Continuous
100
AcDbLine
 10
4584.959693481027
 20
1671.157786500286
 30
0.0
 11
4561.124077042672
 21
1671.157786500286
 31
0.0
  0
ARC
  5
228
330
2
100
AcDbEntity
  8
VM001I34$010
  6
Continuous
100
AcDbCircle
 10
4573.86380307007
 20
1660.061896089327
 30
0.0
 40
3.287671232876707
100
AcDbArc
 50
0.0
 51
90.0
  0
ARC
  5
229
330
2
100
AcDbEntity
  8
VE001I34$101
  6
Continuous
100
AcDbCircle
 10
4573.86380307007
 20
1660.061896089327
 30
0.0
 40
3.287671232876707
100
AcDbArc
 50
0.0
 51
90.0
  0
ARC
  5
22A
330
2
100
AcDbEntity
  8
VM001I29$010
  6
Continuous
100
AcDbCircle
 10
4542.425446905684
 20
1660.061896089327
 30
0.0
 40
3.287671232876707
100
AcDbArc
 50
90.0
 51
180.0
  0
ARC
  5
22B
330
2
100
AcDbEntity
  8
VE001I29$101
  6
Continuous
100
AcDbCircle
 10
4542.425446905684
 20
1660.061896089327
 30
0.0
 40
3.287671232876707
100
AcDbArc
 50
90.0
 51
180.0
  0
LINE
  5
22C
330
2
100
AcDbEntity
  8
VM001I3$010
  6
Continuous
100
AcDbLine
 10
4559.891200330343
 20
1669.924909787957
 30
0.0
 11
4557.836405809792
 21
1669.924909787957
 31
0.0
  0
LINE
  5
22D
330
2
100
AcDbEntity
  8
VE001I3$101
  6
Continuous
100
AcDbLine
 10
4559.891200330343
 20
1669.924909787957
 30
0.0
 11
4557.836405809792
 21
1669.924909787957
 31
0.0
  0
LINE
  5
22E
330
2
100
AcDbEntity
  8
VM001I1$010
  6
Continuous
100
AcDbLine
 10
4559.891200330343
 20
1669.924909787957
 30
0.0
 11
4561.124077042672
 21
1671.157786500286
 31
0.0
  0
LINE
  5
22F
330
2
100
AcDbEntity
  8
VE001I1$101
  6
Continuous
100
AcDbLine
 10
4559.891200330343
 20
1669.924909787957
 30
0.0
 11
4561.124077042672
 21
1671.157786500286
 31
0.0
  0
LINE
  5
230
330
2
100
AcDbEntity
  8
VM001I4$010
  6
Continuous
100
AcDbLine
 10
4557.836405809792
 20
1669.924909787957
 30
0.0
 11
4556.603529097467
 21
1671.157786500286
 31
0.0
  0
LINE
  5
231
330
2
100
AcDbEntity
  8
VE001I4$101
  6
Continuous
100
AcDbLine
 10
4557.836405809792
 20
1669.924909787957
 30
0.0
 11
4556.603529097467
 21
1671.157786500286
 31
0.0
  0
ARC
  5
232
330
2
100
AcDbEntity
  8
VM001I32$010
  6
Continuous
100
AcDbCircle
 10
4529.480241426232
 20
1660.061896089327
 30
0.0
 40
3.287671232876707
100
AcDbArc
 50
0.0
 51
90.0
  0
ARC
  5
233
330
2
100
AcDbEntity
  8
VE001I32$101
  6
Continuous
100
AcDbCircle
 10
4529.480241426232
 20
1660.061896089327
 30
0.0
 40
3.287671232876707
100
AcDbArc
 50
0.0
 51
90.0
  0
LINE
  5
234
330
2
100
AcDbEntity
  8
VM001I8$010
  6
Continuous
100
AcDbLine
 10
4573.86380307007
 20
1663.349567322205
 30
0.0
 11
4542.425446905684
 21
1663.349567322205
 31
0.0
  0
LINE
  5
235
330
2
100
AcDbEntity
  8
VE001I8$101
  6
Continuous
100
AcDbLine
 10
4573.86380307007
 20
1663.349567322205
 30
0.0
 11
4542.425446905684
 21
1663.349567322205
 31
0.0
  0
LINE
  5
236
330
2
100
AcDbEntity
  8
0
100
AcDbLine
 10
3643.035199931498
 20
2295.322340543636
 30
0.0
 11
3050.343744532347
 21
2295.322340543636
 31
0.0
  0
LINE
  5
237
330
2
100
AcDbEntity
  8
0
100
AcDbLine
 10
4178.152519939554
 20
1874.346166438905
 30
0.0
 11
4178.152519939554
 21
2163.016421149664
 31
0.0
  0
LINE
  5
238
330
2
100
AcDbEntity
  8
0
100
AcDbLine
 10
3169.272708326135
 20
1345.325984570489
 30
0.0
 11
2953.380538724344
 21
1345.325984570489
 31
0.0
  0
LINE
  5
239
330
2
100
AcDbEntity
  8
0
100
AcDbLine
 10
4492.024998644136
 20
1403.922262032293
 30
0.0
 11
4492.024998644136
 21
1345.659643953609
 31
0.0
  0
MTEXT
  5
23A
330
2
100
AcDbEntity
  8
0
100
AcDbMText
 10
3163.732369036853
 20
1115.303262228196
 30
0.0
 40
30.0
 41
896.2714
 71
     1
 72
     5
  1
{\LALTERNATIVE 1}
 73
     1
 44
1.0
  0
MTEXT
  5
23B
330
2
100
AcDbEntity
  8
0
100
AcDbMText
 10
4445.006784026216
 20
1115.303262228196
 30
0.0
 40
30.0
 41
896.2714
 71
     1
 72
     5
  1
{\LALTERNATIVE 2}
 73
     1
 44
1.0
  0
MTEXT
  5
23C
330
2
100
AcDbEntity
  8
0
100
AcDbMText
 10
3418.615164594809
 20
454.0751326082722
 30
0.0
 40
40.0
 41
210.3644
 71
     1
 72
     5
  1
{\fArial|b1|i0|c0|p34;\LINSIDE}
 73
     1
 44
1.0
  0
MTEXT
  5
23D
330
2
100
AcDbEntity
  8
0
100
AcDbMText
 10
4516.850381030014
 20
793.6920996922022
 30
0.0
 40
40.0
 41
210.3644
 71
     1
 72
     5
  1
{\fArial|b1|i0|c0|p34;\LOUTSIDE}
 73
     1
 44
1.0
  0
MTEXT
  5
23E
330
2
100
AcDbEntity
  8
0
100
AcDbMText
 10
3852.67956767344
 20
-549.1011303304144
 30
0.0
 40
40.0
 41
210.3644
 71
     1
 72
     5
  1
{\fArial|b1|i0|c0|p34;\LOUTSIDE}
 73
     1
 44
1.0
  0
MTEXT
  5
23F
330
2
100
AcDbEntity
  8
0
100
AcDbMText
 10
2961.773142289516
 20
943.2853816178988
 30
0.0
 40
30.0
 41
1825.915723102007
 71
     1
 72
     5
  1
{\LEXAMPLES OF DIFFERENT GUIDE AND MULLION CONFIGURATIONS}
 73
     1
 44
1.0
  0
LINE
  5
240
330
2
100
AcDbEntity
  8
0
100
AcDbLine
 10
3029.180019990348
 20
1801.280149936343
 30
0.0
 11
2665.879310506068
 21
1801.280149936343
 31
0.0
  0
ENDSEC
  0
SECTION
  2
OBJECTS
  0
DICTIONARY
  5
9
330
0
100
AcDbDictionary
281
     1
  3
ACAD_GROUP
350
256
  3
ACAD_LAYOUT
350
244
  3
ACAD_MLINESTYLE
350
257
  3
ACAD_PLOTSETTINGS
350
258
  3
ACAD_PLOTSTYLENAME
350
8
  3
AcDbVariableDictionary
350
25F
  0
DICTIONARY
  5
4
330
3
100
AcDbDictionary
280
     1
281
     1
  3
ACAD_DIMASSOC
360
5
  0
DICTIONARY
  5
256
102
{ACAD_REACTORS
330
9
102
}
330
9
100
AcDbDictionary
281
     1
  0
DICTIONARY
  5
244
102
{ACAD_REACTORS
330
9
102
}
330
9
100
AcDbDictionary
281
     1
  3
MIRAGE
350
248
  3
Model
350
243
  0
DICTIONARY
  5
257
102
{ACAD_REACTORS
330
9
102
}
330
9
100
AcDbDictionary
281
     1
  3
Standard
350
259
  0
DICTIONARY
  5
258
102
{ACAD_REACTORS
330
9
102
}
330
9
100
AcDbDictionary
281
     1
  0
ACDBDICTIONARYWDFLT
  5
8
102
{ACAD_REACTORS
330
9
102
}
330
9
100
AcDbDictionary
281
     1
  3
Normal
350
7
100
AcDbDictionaryWithDefault
340
7
  0
DICTIONARY
  5
25F
102
{ACAD_REACTORS
330
9
102
}
330
9
100
AcDbDictionary
281
     1
  3
DIMASSOC
350
260
  0
DIMASSOC
  5
5
102
{ACAD_REACTORS
330
4
102
}
330
4
100
AcDbDimAssoc
330
3
 90
        1
 70
     0
 71
     0
  1
AcDbOsnapPointRef
 72
    10
331
1FA
 73
     2
 91
        0
 40
0.481033804234301
 10
2880.519538630257
 20
1684.371301723117
 30
0.0
 75
     0
  0
LAYOUT
  5
248
102
{ACAD_REACTORS
330
244
102
}
330
244
100
AcDbPlotSettings
  1

  2
HP LaserJet 5N
  4
A4
  6

 40
6.043083190917968
 41
6.720414161682128
 42
7.821090698242187
 43
5.027069091796875
 44
210.0579986572265
 45
296.9259948730469
 46
0.0
 47
0.0
 48
0.0
 49
0.0
140
0.0
141
0.0
142
1.0
143
1.0
 70
   688
 72
     1
 73
     0
 74
     5
  7
monochrome.ctb
 75
    16
147
1.0
148
0.0
149
0.0
100
AcDbLayout
  1
MIRAGE
 70
     1
 71
     1
 10
-6.043083190917968
 20
-6.720414161682128
 11
204.0149154663085
 21
290.2055807113647
 12
0.0
 22
0.0
 32
0.0
 14
-84.0
 24
-0.1575368999165647
 34
0.0
 15
231.0653720154696
 25
282.033201554023
 35
0.0
146
0.0
 13
0.0
 23
0.0
 33
0.0
 16
1.0
 26
0.0
 36
0.0
 17
0.0
 27
1.0
 37
0.0
 76
     0
330
245
  0
LAYOUT
  5
243
102
{ACAD_REACTORS
330
244
102
}
330
244
100
AcDbPlotSettings
  1

  2
HP LaserJet 5N - Reception
  4
A4
  6

 40
6.043083190917968
 41
6.720414161682128
 42
7.821090698242187
 43
5.027069091796875
 44
210.0579986572265
 45
296.9259948730469
 46
0.0
 47
0.0
 48
2211.631639503535
 49
-1046.804564136997
140
5042.671998984252
141
2341.644900291254
142
1.0
143
14.42981379677711
 70
 11952
 72
     1
 73
     0
 74
     4
  7
monochrome.ctb
 75
     0
147
0.069300963552513
148
-2211.631639503535
149
1046.804564136997
100
AcDbLayout
  1
Model
 70
     1
 71
     0
 10
0.0
 20
0.0
 11
12.0
 21
9.0
 12
0.0
 22
0.0
 32
0.0
 14
0.0
 24
0.0
 34
0.0
 15
0.0
 25
0.0
 35
0.0
146
0.0
 13
0.0
 23
0.0
 33
0.0
 16
1.0
 26
0.0
 36
0.0
 17
0.0
 27
1.0
 37
0.0
 76
     0
330
2
  0
MLINESTYLE
  5
259
102
{ACAD_REACTORS
330
257
102
}
330
257
100
AcDbMlineStyle
  2
STANDARD
 70
     0
  3

 62
   256
 51
90.0
 52
90.0
 71
     2
 49
0.5
 62
   256
  6
BYLAYER
 49
-0.5
 62
   256
  6
BYLAYER
  0
ACDBPLACEHOLDER
  5
7
102
{ACAD_REACTORS
330
8
102
}
330
8
  0
DICTIONARYVAR
  5
260
102
{ACAD_REACTORS
330
25F
102
}
330
25F
100
DictionaryVariables
280
     0
  1
1
  0
ENDSEC
  0
EOF
