  0
SECTION
  2
HEADER
  9
$ACADVER
  1
AC1015
  9
$ACADMAINTVER
 70
    13
  9
$DWGCODEPAGE
  3
ANSI_1252
  9
$INSBASE
 10
1165.385877880655
 20
16.61385930814481
 30
0.0
  9
$EXTMIN
 10
257.6811702056858
 20
30.52249028622633
 30
0.0
  9
$EXTMAX
 10
1739.475047227139
 20
516.1566377422502
 30
0.0
  9
$LIMMIN
 10
0.0
 20
0.0
  9
$LIMMAX
 10
420.0
 20
297.0
  9
$ORTHOMODE
 70
     0
  9
$REGENMODE
 70
     1
  9
$FILLMODE
 70
     1
  9
$QTEXTMODE
 70
     0
  9
$MIRRTEXT
 70
     1
  9
$LTSCALE
 40
1.0
  9
$ATTMODE
 70
     1
  9
$TEXTSIZE
 40
2.5
  9
$TRACEWID
 40
1.0
  9
$TEXTSTYLE
  7
Standard
  9
$CLAYER
  8
0
  9
$CELTYPE
  6
ByLayer
  9
$CECOLOR
 62
   256
  9
$CELTSCALE
 40
1.0
  9
$DISPSILH
 70
     0
  9
$DIMSCALE
 40
2.0
  9
$DIMASZ
 40
2.5
  9
$DIMEXO
 40
0.625
  9
$DIMDLI
 40
3.75
  9
$DIMRND
 40
0.0
  9
$DIMDLE
 40
0.0
  9
$DIMEXE
 40
1.25
  9
$DIMTP
 40
0.0
  9
$DIMTM
 40
0.0
  9
$DIMTXT
 40
2.5
  9
$DIMCEN
 40
2.5
  9
$DIMTSZ
 40
0.0
  9
$DIMTOL
 70
     0
  9
$DIMLIM
 70
     0
  9
$DIMTIH
 70
     0
  9
$DIMTOH
 70
     0
  9
$DIMSE1
 70
     0
  9
$DIMSE2
 70
     0
  9
$DIMTAD
 70
     1
  9
$DIMZIN
 70
     8
  9
$DIMBLK
  1

  9
$DIMASO
 70
     1
  9
$DIMSHO
 70
     1
  9
$DIMPOST
  1

  9
$DIMAPOST
  1

  9
$DIMALT
 70
     0
  9
$DIMALTD
 70
     3
  9
$DIMALTF
 40
0.03937007874016
  9
$DIMLFAC
 40
1.0
  9
$DIMTOFL
 70
     1
  9
$DIMTVP
 40
0.0
  9
$DIMTIX
 70
     0
  9
$DIMSOXD
 70
     0
  9
$DIMSAH
 70
     0
  9
$DIMBLK1
  1

  9
$DIMBLK2
  1

  9
$DIMSTYLE
  2
ISO-25
  9
$DIMCLRD
 70
     0
  9
$DIMCLRE
 70
     0
  9
$DIMCLRT
 70
     0
  9
$DIMTFAC
 40
1.0
  9
$DIMGAP
 40
0.625
  9
$DIMJUST
 70
     0
  9
$DIMSD1
 70
     0
  9
$DIMSD2
 70
     0
  9
$DIMTOLJ
 70
     0
  9
$DIMTZIN
 70
     8
  9
$DIMALTZ
 70
     0
  9
$DIMALTTZ
 70
     0
  9
$DIMUPT
 70
     0
  9
$DIMDEC
 70
     2
  9
$DIMTDEC
 70
     2
  9
$DIMALTU
 70
     2
  9
$DIMALTTD
 70
     3
  9
$DIMTXSTY
  7
Standard
  9
$DIMAUNIT
 70
     0
  9
$DIMADEC
 70
     0
  9
$DIMALTRND
 40
0.0
  9
$DIMAZIN
 70
     0
  9
$DIMDSEP
 70
    44
  9
$DIMATFIT
 70
     3
  9
$DIMFRAC
 70
     0
  9
$DIMLDRBLK
  1

  9
$DIMLUNIT
 70
     2
  9
$DIMLWD
 70
    -2
  9
$DIMLWE
 70
    -2
  9
$DIMTMOVE
 70
     0
  9
$LUNITS
 70
     2
  9
$LUPREC
 70
     4
  9
$SKETCHINC
 40
1.0
  9
$FILLETRAD
 40
10.0
  9
$AUNITS
 70
     0
  9
$AUPREC
 70
     0
  9
$MENU
  1
.
  9
$ELEVATION
 40
0.0
  9
$PELEVATION
 40
0.0
  9
$THICKNESS
 40
0.0
  9
$LIMCHECK
 70
     0
  9
$CHAMFERA
 40
10.0
  9
$CHAMFERB
 40
10.0
  9
$CHAMFERC
 40
20.0
  9
$CHAMFERD
 40
0.0
  9
$SKPOLY
 70
     0
  9
$TDCREATE
 40
2452786.404501388
  9
$TDUCREATE
 40
2452785.987834722
  9
$TDUPDATE
 40
2453647.436141354
  9
$TDUUPDATE
 40
2453647.019474687
  9
$TDINDWG
 40
0.0573280556
  9
$TDUSRTIMER
 40
0.0573274769
  9
$USRTIMER
 70
     1
  9
$ANGBASE
 50
0.0
  9
$ANGDIR
 70
     0
  9
$PDMODE
 70
     0
  9
$PDSIZE
 40
0.0
  9
$PLINEWID
 40
0.0
  9
$SPLFRAME
 70
     0
  9
$SPLINETYPE
 70
     6
  9
$SPLINESEGS
 70
     8
  9
$HANDSEED
  5
10F
  9
$SURFTAB1
 70
     6
  9
$SURFTAB2
 70
     6
  9
$SURFTYPE
 70
     6
  9
$SURFU
 70
     6
  9
$SURFV
 70
     6
  9
$UCSBASE
  2

  9
$UCSNAME
  2

  9
$UCSORG
 10
0.0
 20
0.0
 30
0.0
  9
$UCSXDIR
 10
1.0
 20
0.0
 30
0.0
  9
$UCSYDIR
 10
0.0
 20
1.0
 30
0.0
  9
$UCSORTHOREF
  2

  9
$UCSORTHOVIEW
 70
     0
  9
$UCSORGTOP
 10
0.0
 20
0.0
 30
0.0
  9
$UCSORGBOTTOM
 10
0.0
 20
0.0
 30
0.0
  9
$UCSORGLEFT
 10
0.0
 20
0.0
 30
0.0
  9
$UCSORGRIGHT
 10
0.0
 20
0.0
 30
0.0
  9
$UCSORGFRONT
 10
0.0
 20
0.0
 30
0.0
  9
$UCSORGBACK
 10
0.0
 20
0.0
 30
0.0
  9
$PUCSBASE
  2

  9
$PUCSNAME
  2

  9
$PUCSORG
 10
0.0
 20
0.0
 30
0.0
  9
$PUCSXDIR
 10
1.0
 20
0.0
 30
0.0
  9
$PUCSYDIR
 10
0.0
 20
1.0
 30
0.0
  9
$PUCSORTHOREF
  2

  9
$PUCSORTHOVIEW
 70
     0
  9
$PUCSORGTOP
 10
0.0
 20
0.0
 30
0.0
  9
$PUCSORGBOTTOM
 10
0.0
 20
0.0
 30
0.0
  9
$PUCSORGLEFT
 10
0.0
 20
0.0
 30
0.0
  9
$PUCSORGRIGHT
 10
0.0
 20
0.0
 30
0.0
  9
$PUCSORGFRONT
 10
0.0
 20
0.0
 30
0.0
  9
$PUCSORGBACK
 10
0.0
 20
0.0
 30
0.0
  9
$USERI1
 70
     0
  9
$USERI2
 70
     0
  9
$USERI3
 70
     0
  9
$USERI4
 70
     0
  9
$USERI5
 70
     0
  9
$USERR1
 40
0.0
  9
$USERR2
 40
0.0
  9
$USERR3
 40
0.0
  9
$USERR4
 40
0.0
  9
$USERR5
 40
0.0
  9
$WORLDVIEW
 70
     1
  9
$SHADEDGE
 70
     3
  9
$SHADEDIF
 70
    70
  9
$TILEMODE
 70
     1
  9
$MAXACTVP
 70
    64
  9
$PINSBASE
 10
0.0
 20
0.0
 30
0.0
  9
$PLIMCHECK
 70
     0
  9
$PEXTMIN
 10
1.000000000000000E+20
 20
1.000000000000000E+20
 30
1.000000000000000E+20
  9
$PEXTMAX
 10
-1.000000000000000E+20
 20
-1.000000000000000E+20
 30
-1.000000000000000E+20
  9
$PLIMMIN
 10
0.0
 20
0.0
  9
$PLIMMAX
 10
420.0
 20
297.0
  9
$UNITMODE
 70
     0
  9
$VISRETAIN
 70
     1
  9
$PLINEGEN
 70
     0
  9
$PSLTSCALE
 70
     1
  9
$TREEDEPTH
 70
  3020
  9
$CMLSTYLE
  2
Standard
  9
$CMLJUST
 70
     0
  9
$CMLSCALE
 40
20.0
  9
$PROXYGRAPHICS
 70
     1
  9
$MEASUREMENT
 70
     1
  9
$CELWEIGHT
370
    -1
  9
$ENDCAPS
280
     0
  9
$JOINSTYLE
280
     0
  9
$LWDISPLAY
290
     0
  9
$INSUNITS
 70
     4
  9
$HYPERLINKBASE
  1

  9
$STYLESHEET
  1

  9
$XEDIT
290
     1
  9
$CEPSNTYPE
380
     0
  9
$PSTYLEMODE
290
     1
  9
$FINGERPRINTGUID
  2
{887C4068-219E-4F91-B7E4-7798689F6CEB}
  9
$VERSIONGUID
  2
{4DA8ED61-4CA5-46B8-99C7-3B5C24205674}
  9
$EXTNAMES
290
     1
  9
$PSVPSCALE
 40
0.0
  9
$OLESTARTUP
290
     0
  0
ENDSEC
  0
SECTION
  2
CLASSES
  0
CLASS
  1
ACDBDICTIONARYWDFLT
  2
AcDbDictionaryWithDefault
  3
AutoCAD 2000
 90
        0
280
     0
281
     0
  0
CLASS
  1
ACDBPLACEHOLDER
  2
AcDbPlaceHolder
  3
AutoCAD 2000
 90
        0
280
     0
281
     0
  0
CLASS
  1
LAYOUT
  2
AcDbLayout
  3
AutoCAD 2000
 90
        0
280
     0
281
     0
  0
CLASS
  1
DIMASSOC
  2
AcDbDimAssoc
  3
"AcDbDimAssoc|Product Desc:     AcDim ARX App For Dimension|Company:          Autodesk, Inc.|WEB Address:      www.autodesk.com"
 90
    32768
280
     0
281
     0
  0
CLASS
  1
DICTIONARYVAR
  2
AcDbDictionaryVar
  3
AutoCAD 2000
 90
        0
280
     0
281
     0
  0
ENDSEC
  0
SECTION
  2
TABLES
  0
TABLE
  2
VPORT
  5
FD
330
0
100
AcDbSymbolTable
 70
     4
  0
VPORT
  5
10E
330
FD
100
AcDbSymbolTableRecord
100
AcDbViewportTableRecord
  2
*Active
 70
     0
 10
0.0
 20
0.0
 11
1.0
 21
1.0
 12
1455.658972826916
 22
179.1171731455814
 13
0.0
 23
0.0
 14
10.0
 24
10.0
 15
10.0
 25
10.0
 16
0.0
 26
0.0
 36
1.0
 17
0.0
 27
0.0
 37
0.0
 40
325.0066276748733
 41
1.786259541984732
 42
50.0
 43
0.0
 44
0.0
 50
0.0
 51
0.0
 71
     0
 72
   100
 73
     1
 74
     3
 75
     0
 76
     0
 77
     0
 78
     0
281
     0
 65
     1
110
0.0
120
0.0
130
0.0
111
1.0
121
0.0
131
0.0
112
0.0
122
1.0
132
0.0
 79
     0
146
0.0
  0
ENDTAB
  0
TABLE
  2
LTYPE
  5
F8
330
0
100
AcDbSymbolTable
 70
     2
  0
LTYPE
  5
F9
330
F8
100
AcDbSymbolTableRecord
100
AcDbLinetypeTableRecord
  2
ByBlock
 70
     0
  3

 72
    65
 73
     0
 40
0.0
  0
LTYPE
  5
FA
330
F8
100
AcDbSymbolTableRecord
100
AcDbLinetypeTableRecord
  2
ByLayer
 70
     0
  3

 72
    65
 73
     0
 40
0.0
  0
LTYPE
  5
8
330
F8
100
AcDbSymbolTableRecord
100
AcDbLinetypeTableRecord
  2
Continuous
 70
     0
  3
Solid line
 72
    65
 73
     0
 40
0.0
  0
LTYPE
  5
41
330
F8
100
AcDbSymbolTableRecord
100
AcDbLinetypeTableRecord
  2
ACAD_ISO03W100
 70
     0
  3
ISO dash space __    __    __    __    __    __
 72
    65
 73
     2
 40
30.0
 49
12.0
 74
     0
 49
-18.0
 74
     0
  0
ENDTAB
  0
TABLE
  2
LAYER
  5
F5
330
0
100
AcDbSymbolTable
 70
    40
  0
LAYER
  5
4
330
F5
100
AcDbSymbolTableRecord
100
AcDbLayerTableRecord
  2
0
 70
     0
 62
     7
  6
Continuous
370
    -3
390
5
  0
LAYER
  5
8C
330
F5
100
AcDbSymbolTableRecord
100
AcDbLayerTableRecord
  2
VM001I1$010
 70
     0
 62
     7
  6
Continuous
370
    -3
390
5
  0
LAYER
  5
8E
330
F5
100
AcDbSymbolTableRecord
100
AcDbLayerTableRecord
  2
VE001I1$101
 70
     0
 62
     7
  6
Continuous
370
    -3
390
5
  0
LAYER
  5
5F
330
F5
100
AcDbSymbolTableRecord
100
AcDbLayerTableRecord
  2
VM001I2$010
 70
     0
 62
     7
  6
Continuous
370
    -3
390
5
  0
LAYER
  5
61
330
F5
100
AcDbSymbolTableRecord
100
AcDbLayerTableRecord
  2
VE001I2$101
 70
     0
 62
     7
  6
Continuous
370
    -3
390
5
  0
LAYER
  5
98
330
F5
100
AcDbSymbolTableRecord
100
AcDbLayerTableRecord
  2
VM001I3$010
 70
     0
 62
     7
  6
Continuous
370
    -3
390
5
  0
LAYER
  5
9A
330
F5
100
AcDbSymbolTableRecord
100
AcDbLayerTableRecord
  2
VE001I3$101
 70
     0
 62
     7
  6
Continuous
370
    -3
390
5
  0
LAYER
  5
94
330
F5
100
AcDbSymbolTableRecord
100
AcDbLayerTableRecord
  2
VM001I4$010
 70
     0
 62
     7
  6
Continuous
370
    -3
390
5
  0
LAYER
  5
96
330
F5
100
AcDbSymbolTableRecord
100
AcDbLayerTableRecord
  2
VE001I4$101
 70
     0
 62
     7
  6
Continuous
370
    -3
390
5
  0
LAYER
  5
78
330
F5
100
AcDbSymbolTableRecord
100
AcDbLayerTableRecord
  2
VM001I5$010
 70
     0
 62
     7
  6
Continuous
370
    -3
390
5
  0
LAYER
  5
7A
330
F5
100
AcDbSymbolTableRecord
100
AcDbLayerTableRecord
  2
VE001I5$101
 70
     0
 62
     7
  6
Continuous
370
    -3
390
5
  0
LAYER
  5
9C
330
F5
100
AcDbSymbolTableRecord
100
AcDbLayerTableRecord
  2
VM001I6$010
 70
     0
 62
     7
  6
Continuous
370
    -3
390
5
  0
LAYER
  5
9E
330
F5
100
AcDbSymbolTableRecord
100
AcDbLayerTableRecord
  2
VE001I6$101
 70
     0
 62
     7
  6
Continuous
370
    -3
390
5
  0
LAYER
  5
A0
330
F5
100
AcDbSymbolTableRecord
100
AcDbLayerTableRecord
  2
VM001I8$010
 70
     0
 62
     7
  6
Continuous
370
    -3
390
5
  0
LAYER
  5
A2
330
F5
100
AcDbSymbolTableRecord
100
AcDbLayerTableRecord
  2
VE001I8$101
 70
     0
 62
     7
  6
Continuous
370
    -3
390
5
  0
LAYER
  5
AC
330
F5
100
AcDbSymbolTableRecord
100
AcDbLayerTableRecord
  2
VM001I11$010
 70
     0
 62
     7
  6
Continuous
370
    -3
390
5
  0
LAYER
  5
AE
330
F5
100
AcDbSymbolTableRecord
100
AcDbLayerTableRecord
  2
VE001I11$101
 70
     0
 62
     7
  6
Continuous
370
    -3
390
5
  0
LAYER
  5
BC
330
F5
100
AcDbSymbolTableRecord
100
AcDbLayerTableRecord
  2
VM001I13$010
 70
     0
 62
     7
  6
Continuous
370
    -3
390
5
  0
LAYER
  5
BE
330
F5
100
AcDbSymbolTableRecord
100
AcDbLayerTableRecord
  2
VE001I13$101
 70
     0
 62
     7
  6
Continuous
370
    -3
390
5
  0
LAYER
  5
B8
330
F5
100
AcDbSymbolTableRecord
100
AcDbLayerTableRecord
  2
VM001I15$010
 70
     0
 62
     7
  6
Continuous
370
    -3
390
5
  0
LAYER
  5
BA
330
F5
100
AcDbSymbolTableRecord
100
AcDbLayerTableRecord
  2
VE001I15$101
 70
     0
 62
     7
  6
Continuous
370
    -3
390
5
  0
LAYER
  5
69
330
F5
100
AcDbSymbolTableRecord
100
AcDbLayerTableRecord
  2
VM001I18$010
 70
     0
 62
     7
  6
Continuous
370
    -3
390
5
  0
LAYER
  5
67
330
F5
100
AcDbSymbolTableRecord
100
AcDbLayerTableRecord
  2
VE001I18$101
 70
     0
 62
     7
  6
Continuous
370
    -3
390
5
  0
LAYER
  5
B0
330
F5
100
AcDbSymbolTableRecord
100
AcDbLayerTableRecord
  2
VM001I21$010
 70
     0
 62
     7
  6
Continuous
370
    -3
390
5
  0
LAYER
  5
B2
330
F5
100
AcDbSymbolTableRecord
100
AcDbLayerTableRecord
  2
VE001I21$101
 70
     0
 62
     7
  6
Continuous
370
    -3
390
5
  0
LAYER
  5
5D
330
F5
100
AcDbSymbolTableRecord
100
AcDbLayerTableRecord
  2
VM001I22$010
 70
     0
 62
     7
  6
Continuous
370
    -3
390
5
  0
LAYER
  5
5B
330
F5
100
AcDbSymbolTableRecord
100
AcDbLayerTableRecord
  2
VE001I22$101
 70
     0
 62
     7
  6
Continuous
370
    -3
390
5
  0
LAYER
  5
63
330
F5
100
AcDbSymbolTableRecord
100
AcDbLayerTableRecord
  2
VM001I25$010
 70
     0
 62
     7
  6
Continuous
370
    -3
390
5
  0
LAYER
  5
65
330
F5
100
AcDbSymbolTableRecord
100
AcDbLayerTableRecord
  2
VE001I25$101
 70
     0
 62
     7
  6
Continuous
370
    -3
390
5
  0
LAYER
  5
7C
330
F5
100
AcDbSymbolTableRecord
100
AcDbLayerTableRecord
  2
VM001I26$010
 70
     0
 62
     7
  6
Continuous
370
    -3
390
5
  0
LAYER
  5
7E
330
F5
100
AcDbSymbolTableRecord
100
AcDbLayerTableRecord
  2
VE001I26$101
 70
     0
 62
     7
  6
Continuous
370
    -3
390
5
  0
LAYER
  5
80
330
F5
100
AcDbSymbolTableRecord
100
AcDbLayerTableRecord
  2
VM001I27$010
 70
     0
 62
     7
  6
Continuous
370
    -3
390
5
  0
LAYER
  5
82
330
F5
100
AcDbSymbolTableRecord
100
AcDbLayerTableRecord
  2
VE001I27$101
 70
     0
 62
     7
  6
Continuous
370
    -3
390
5
  0
LAYER
  5
90
330
F5
100
AcDbSymbolTableRecord
100
AcDbLayerTableRecord
  2
VM001I29$010
 70
     0
 62
     7
  6
Continuous
370
    -3
390
5
  0
LAYER
  5
92
330
F5
100
AcDbSymbolTableRecord
100
AcDbLayerTableRecord
  2
VE001I29$101
 70
     0
 62
     7
  6
Continuous
370
    -3
390
5
  0
LAYER
  5
84
330
F5
100
AcDbSymbolTableRecord
100
AcDbLayerTableRecord
  2
VM001I32$010
 70
     0
 62
     7
  6
Continuous
370
    -3
390
5
  0
LAYER
  5
86
330
F5
100
AcDbSymbolTableRecord
100
AcDbLayerTableRecord
  2
VE001I32$101
 70
     0
 62
     7
  6
Continuous
370
    -3
390
5
  0
LAYER
  5
88
330
F5
100
AcDbSymbolTableRecord
100
AcDbLayerTableRecord
  2
VM001I34$010
 70
     0
 62
     7
  6
Continuous
370
    -3
390
5
  0
LAYER
  5
8A
330
F5
100
AcDbSymbolTableRecord
100
AcDbLayerTableRecord
  2
VE001I34$101
 70
     0
 62
     7
  6
Continuous
370
    -3
390
5
  0
LAYER
  5
13
330
F5
100
AcDbSymbolTableRecord
100
AcDbLayerTableRecord
  2
Defpoints
 70
     0
 62
     7
  6
Continuous
290
     0
370
    -3
390
5
  0
ENDTAB
  0
TABLE
  2
STYLE
  5
F6
330
0
100
AcDbSymbolTable
 70
     1
  0
STYLE
  5
9
330
F6
100
AcDbSymbolTableRecord
100
AcDbTextStyleTableRecord
  2
Standard
 70
     0
 40
0.0
 41
1.0
 50
0.0
 71
     0
 42
2.5
  3
txt
  4

  0
ENDTAB
  0
TABLE
  2
VIEW
  5
FB
330
0
100
AcDbSymbolTable
 70
     0
  0
ENDTAB
  0
TABLE
  2
UCS
  5
FC
330
0
100
AcDbSymbolTable
 70
     0
  0
ENDTAB
  0
TABLE
  2
APPID
  5
FF
330
0
100
AcDbSymbolTable
 70
     1
  0
APPID
  5
18
330
FF
100
AcDbSymbolTableRecord
100
AcDbRegAppTableRecord
  2
ACAD
 70
     0
  0
ENDTAB
  0
TABLE
  2
DIMSTYLE
  5
100
330
0
100
AcDbSymbolTable
 70
     1
100
AcDbDimStyleTable
 71
     1
340
A
  0
DIMSTYLE
105
A
102
{ACAD_REACTORS
330
26
330
3
330
6A
330
19
330
4D
102
}
330
100
100
AcDbSymbolTableRecord
100
AcDbDimStyleTableRecord
  2
ISO-25
 70
     0
 40
2.0
 41
2.5
 42
0.625
 43
3.75
 44
1.25
 73
     0
 74
     0
 77
     1
 78
     8
140
2.5
141
2.5
143
0.03937007874016
147
0.625
171
     3
172
     1
271
     2
272
     2
274
     3
278
    44
283
     0
284
     8
340
9
  0
ENDTAB
  0
TABLE
  2
BLOCK_RECORD
  5
1
330
0
100
AcDbSymbolTable
 70
     5
  0
BLOCK_RECORD
  5
2
330
1
100
AcDbSymbolTableRecord
100
AcDbBlockTableRecord
  2
*Model_Space
340
EF
  0
BLOCK_RECORD
  5
F1
330
1
100
AcDbSymbolTableRecord
100
AcDbBlockTableRecord
  2
*Paper_Space
340
F4
  0
BLOCK_RECORD
  5
27
330
1
100
AcDbSymbolTableRecord
100
AcDbBlockTableRecord
  2
*D0
340
0
  0
BLOCK_RECORD
  5
B
330
1
100
AcDbSymbolTableRecord
100
AcDbBlockTableRecord
  2
*D1
340
0
  0
BLOCK_RECORD
  5
6B
330
1
100
AcDbSymbolTableRecord
100
AcDbBlockTableRecord
  2
*D2
340
0
  0
BLOCK_RECORD
  5
1A
330
1
100
AcDbSymbolTableRecord
100
AcDbBlockTableRecord
  2
*D3
340
0
  0
BLOCK_RECORD
  5
4E
330
1
100
AcDbSymbolTableRecord
100
AcDbBlockTableRecord
  2
*D4
340
0
  0
ENDTAB
  0
ENDSEC
  0
SECTION
  2
BLOCKS
  0
BLOCK
  5
ED
330
2
100
AcDbEntity
  8
0
100
AcDbBlockBegin
  2
*Model_Space
 70
     0
 10
0.0
 20
0.0
 30
0.0
  3
*Model_Space
  1

  0
ENDBLK
  5
EE
330
2
100
AcDbEntity
  8
0
100
AcDbBlockEnd
  0
BLOCK
  5
F2
330
F1
100
AcDbEntity
 67
     1
  8
0
100
AcDbBlockBegin
  2
*Paper_Space
 70
     0
 10
0.0
 20
0.0
 30
0.0
  3
*Paper_Space
  1

  0
ENDBLK
  5
F3
330
F1
100
AcDbEntity
 67
     1
  8
0
100
AcDbBlockEnd
  0
BLOCK
  5
31
330
27
100
AcDbEntity
  8
0
100
AcDbBlockBegin
  2
*D0
 70
     1
 10
0.0
 20
0.0
 30
0.0
  3
*D0
  1

  0
LINE
  5
28
330
27
100
AcDbEntity
  8
0
 62
     0
370
    -2
100
AcDbLine
 10
1432.002444636213
 20
228.6039425668292
 30
0.0
 11
1429.840412746394
 21
228.6039425668292
 31
0.0
  0
LINE
  5
29
330
27
100
AcDbEntity
  8
0
 62
     0
370
    -2
100
AcDbLine
 10
1432.002444636213
 20
152.6039425668292
 30
0.0
 11
1429.840412746394
 21
152.6039425668292
 31
0.0
  0
LINE
  5
2A
330
27
100
AcDbEntity
  8
0
 62
     0
370
    -2
100
AcDbLine
 10
1432.340412746394
 20
223.6039425668292
 30
0.0
 11
1432.340412746394
 21
157.6039425668292
 31
0.0
  0
MTEXT
  5
2B
330
27
100
AcDbEntity
  8
0
 62
     0
100
AcDbMText
 10
260.1811702056859
 20
433.3604300857055
 30
0.0
 40
5.0
 41
0.0
 71
     5
 72
     1
  1
76
 11
0.0000000000000001
 21
1.0
 31
0.0
 73
     1
 44
1.0
  0
SOLID
  5
2C
330
27
100
AcDbEntity
  8
0
 62
     0
100
AcDbTrace
 10
1431.507079413061
 20
223.6039425668292
 30
0.0
 11
1433.173746079727
 21
223.6039425668292
 31
0.0
 12
1432.340412746394
 22
228.6039425668292
 32
0.0
 13
1432.340412746394
 23
228.6039425668292
 33
0.0
  0
SOLID
  5
2D
330
27
100
AcDbEntity
  8
0
 62
     0
100
AcDbTrace
 10
1431.507079413061
 20
157.6039425668292
 30
0.0
 11
1433.173746079727
 21
157.6039425668292
 31
0.0
 12
1432.340412746394
 22
152.6039425668292
 32
0.0
 13
1432.340412746394
 23
152.6039425668292
 33
0.0
  0
POINT
  5
2E
330
27
100
AcDbEntity
  8
Defpoints
 62
     0
100
AcDbPoint
 10
1433.252444636213
 20
228.6039425668292
 30
0.0
  0
POINT
  5
2F
330
27
100
AcDbEntity
  8
Defpoints
 62
     0
100
AcDbPoint
 10
1433.252444636213
 20
152.6039425668292
 30
0.0
  0
POINT
  5
30
330
27
100
AcDbEntity
  8
Defpoints
 62
     0
100
AcDbPoint
 10
1432.340412746394
 20
152.6039425668292
 30
0.0
  0
ENDBLK
  5
32
330
27
100
AcDbEntity
  8
0
100
AcDbBlockEnd
  0
BLOCK
  5
16
330
B
100
AcDbEntity
  8
0
100
AcDbBlockBegin
  2
*D1
 70
     1
 10
0.0
 20
0.0
 30
0.0
  3
*D1
  1

  0
LINE
  5
C
330
B
100
AcDbEntity
  8
0
 62
     0
370
    -2
100
AcDbLine
 10
1557.711347366551
 20
212.234187506332
 30
0.0
 11
1617.541103750782
 21
212.234187506332
 31
0.0
  0
LINE
  5
D
330
B
100
AcDbEntity
  8
0
 62
     0
370
    -2
100
AcDbLine
 10
1557.54952534254
 20
234.1399341223948
 30
0.0
 11
1617.541103750782
 21
234.1399341223948
 31
0.0
  0
LINE
  5
E
330
B
100
AcDbEntity
  8
0
 62
     0
370
    -2
100
AcDbLine
 10
1615.041103750781
 20
217.234187506332
 30
0.0
 11
1615.041103750781
 21
229.1399341223947
 31
0.0
  0
MTEXT
  5
F
330
B
100
AcDbEntity
  8
0
 62
     0
100
AcDbMText
 10
356.0386476181625
 20
510.3233044089168
 30
0.0
 40
5.0
 41
0.0
 71
     5
 72
     1
  1
40?
 11
0.0000000000000001
 21
1.0
 31
0.0
 73
     1
 44
1.0
  0
SOLID
  5
10
330
B
100
AcDbEntity
  8
0
 62
     0
100
AcDbTrace
 10
1614.207770417448
 20
217.234187506332
 30
0.0
 11
1615.874437084115
 21
217.234187506332
 31
0.0
 12
1615.041103750781
 22
212.234187506332
 32
0.0
 13
1615.041103750781
 23
212.234187506332
 33
0.0
  0
SOLID
  5
11
330
B
100
AcDbEntity
  8
0
 62
     0
100
AcDbTrace
 10
1614.207770417448
 20
229.1399341223947
 30
0.0
 11
1615.874437084115
 21
229.1399341223947
 31
0.0
 12
1615.041103750781
 22
234.1399341223948
 32
0.0
 13
1615.041103750781
 23
234.1399341223948
 33
0.0
  0
POINT
  5
12
330
B
100
AcDbEntity
  8
Defpoints
 62
     0
100
AcDbPoint
 10
1556.461347366551
 20
212.234187506332
 30
0.0
  0
POINT
  5
14
330
B
100
AcDbEntity
  8
Defpoints
 62
     0
100
AcDbPoint
 10
1556.29952534254
 20
234.1399341223948
 30
0.0
  0
POINT
  5
15
330
B
100
AcDbEntity
  8
Defpoints
 62
     0
100
AcDbPoint
 10
1615.041103750781
 20
234.1399341223948
 30
0.0
  0
ENDBLK
  5
17
330
B
100
AcDbEntity
  8
0
100
AcDbBlockEnd
  0
BLOCK
  5
75
330
6B
100
AcDbEntity
  8
0
100
AcDbBlockBegin
  2
*D2
 70
     1
 10
0.0
 20
0.0
 30
0.0
  3
*D2
  1

  0
LINE
  5
6C
330
6B
100
AcDbEntity
  8
0
 62
     0
370
    -2
100
AcDbLine
 10
1484.085866022005
 20
170.1139215584265
 30
0.0
 11
1484.085866022005
 21
150.0977281862001
 31
0.0
  0
LINE
  5
6D
330
6B
100
AcDbEntity
  8
0
 62
     0
370
    -2
100
AcDbLine
 10
1529.085866022005
 20
170.1139215584265
 30
0.0
 11
1529.085866022005
 21
150.0977281862001
 31
0.0
  0
LINE
  5
6E
330
6B
100
AcDbEntity
  8
0
 62
     0
370
    -2
100
AcDbLine
 10
1489.085866022005
 20
152.5977281862001
 30
0.0
 11
1524.085866022005
 21
152.5977281862001
 31
0.0
  0
SOLID
  5
6F
330
6B
100
AcDbEntity
  8
0
 62
     0
100
AcDbTrace
 10
1489.085866022005
 20
153.4310615195334
 30
0.0
 11
1489.085866022005
 21
151.7643948528667
 31
0.0
 12
1484.085866022005
 22
152.5977281862001
 32
0.0
 13
1484.085866022005
 23
152.5977281862001
 33
0.0
  0
SOLID
  5
70
330
6B
100
AcDbEntity
  8
0
 62
     0
100
AcDbTrace
 10
1524.085866022005
 20
153.4310615195334
 30
0.0
 11
1524.085866022005
 21
151.7643948528667
 31
0.0
 12
1529.085866022005
 22
152.5977281862001
 32
0.0
 13
1529.085866022005
 23
152.5977281862001
 33
0.0
  0
MTEXT
  5
71
330
6B
100
AcDbEntity
  8
0
 62
     0
100
AcDbMText
 10
1506.585866022005
 20
156.3477281862001
 30
0.0
 40
5.0
 41
0.0
 71
     5
 72
     1
  1
45
 73
     1
 44
1.0
  0
POINT
  5
72
330
6B
100
AcDbEntity
  8
Defpoints
 62
     0
100
AcDbPoint
 10
1484.085866022005
 20
171.3639215584265
 30
0.0
  0
POINT
  5
73
330
6B
100
AcDbEntity
  8
Defpoints
 62
     0
100
AcDbPoint
 10
1529.085866022005
 20
171.3639215584265
 30
0.0
  0
POINT
  5
74
330
6B
100
AcDbEntity
  8
Defpoints
 62
     0
100
AcDbPoint
 10
1529.085866022005
 20
152.5977281862001
 30
0.0
  0
ENDBLK
  5
76
330
6B
100
AcDbEntity
  8
0
100
AcDbBlockEnd
  0
BLOCK
  5
24
330
1A
100
AcDbEntity
  8
0
100
AcDbBlockBegin
  2
*D3
 70
     1
 10
0.0
 20
0.0
 30
0.0
  3
*D3
  1

  0
LINE
  5
1B
330
1A
100
AcDbEntity
  8
0
 62
     0
370
    -2
100
AcDbLine
 10
1484.085866022005
 20
170.1139215584265
 30
0.0
 11
1484.085866022005
 21
127.034954749376
 31
0.0
  0
LINE
  5
1C
330
1A
100
AcDbEntity
  8
0
 62
     0
370
    -2
100
AcDbLine
 10
1550.085866022006
 20
172.3639215584265
 30
0.0
 11
1550.085866022006
 21
127.034954749376
 31
0.0
  0
LINE
  5
1D
330
1A
100
AcDbEntity
  8
0
 62
     0
370
    -2
100
AcDbLine
 10
1489.085866022005
 20
129.534954749376
 30
0.0
 11
1545.085866022005
 21
129.534954749376
 31
0.0
  0
MTEXT
  5
1E
330
1A
100
AcDbEntity
  8
0
 62
     0
100
AcDbMText
 10
345.4935880004068
 20
468.2006913615962
 30
0.0
 40
5.0
 41
0.0
 71
     5
 72
     1
  1
66
 73
     1
 44
1.0
  0
SOLID
  5
1F
330
1A
100
AcDbEntity
  8
0
 62
     0
100
AcDbTrace
 10
1489.085866022005
 20
130.3682880827094
 30
0.0
 11
1489.085866022005
 21
128.7016214160427
 31
0.0
 12
1484.085866022005
 22
129.534954749376
 32
0.0
 13
1484.085866022005
 23
129.534954749376
 33
0.0
  0
SOLID
  5
20
330
1A
100
AcDbEntity
  8
0
 62
     0
100
AcDbTrace
 10
1545.085866022005
 20
130.3682880827094
 30
0.0
 11
1545.085866022005
 21
128.7016214160427
 31
0.0
 12
1550.085866022006
 22
129.534954749376
 32
0.0
 13
1550.085866022006
 23
129.534954749376
 33
0.0
  0
POINT
  5
21
330
1A
100
AcDbEntity
  8
Defpoints
 62
     0
100
AcDbPoint
 10
1484.085866022005
 20
171.3639215584265
 30
0.0
  0
POINT
  5
22
330
1A
100
AcDbEntity
  8
Defpoints
 62
     0
100
AcDbPoint
 10
1550.085866022006
 20
173.6139215584265
 30
0.0
  0
POINT
  5
23
330
1A
100
AcDbEntity
  8
Defpoints
 62
     0
100
AcDbPoint
 10
1550.085866022006
 20
129.534954749376
 30
0.0
  0
ENDBLK
  5
25
330
1A
100
AcDbEntity
  8
0
100
AcDbBlockEnd
  0
BLOCK
  5
58
330
4E
100
AcDbEntity
  8
0
100
AcDbBlockBegin
  2
*D4
 70
     1
 10
0.0
 20
0.0
 30
0.0
  3
*D4
  1

  0
LINE
  5
4F
330
4E
100
AcDbEntity
  8
0
 62
     0
370
    -2
100
AcDbLine
 10
1477.233975265703
 20
203.5057282811147
 30
0.0
 11
1463.591903197053
 21
203.5057282811147
 31
0.0
  0
LINE
  5
50
330
4E
100
AcDbEntity
  8
0
 62
     0
370
    -2
100
AcDbLine
 10
1477.233975265703
 20
177.465812314729
 30
0.0
 11
1463.591903197053
 21
177.4658123147291
 31
0.0
  0
LINE
  5
51
330
4E
100
AcDbEntity
  8
0
 62
     0
370
    -2
100
AcDbLine
 10
1466.091903197053
 20
198.5057282811148
 30
0.0
 11
1466.091903197053
 21
182.4658123147291
 31
0.0
  0
SOLID
  5
52
330
4E
100
AcDbEntity
  8
0
 62
     0
100
AcDbTrace
 10
1465.25856986372
 20
198.5057282811148
 30
0.0
 11
1466.925236530386
 21
198.5057282811148
 31
0.0
 12
1466.091903197053
 22
203.5057282811147
 32
0.0
 13
1466.091903197053
 23
203.5057282811147
 33
0.0
  0
SOLID
  5
53
330
4E
100
AcDbEntity
  8
0
 62
     0
100
AcDbTrace
 10
1465.25856986372
 20
182.4658123147291
 30
0.0
 11
1466.925236530386
 21
182.4658123147291
 31
0.0
 12
1466.091903197053
 22
177.4658123147291
 32
0.0
 13
1466.091903197053
 23
177.4658123147291
 33
0.0
  0
MTEXT
  5
54
330
4E
100
AcDbEntity
  8
0
 62
     0
100
AcDbMText
 10
1462.341903197053
 20
190.4857702979222
 30
0.0
 40
5.0
 41
0.0
 71
     5
 72
     1
  1
24
 11
0.0000000000000001
 21
1.0
 31
0.0
 73
     1
 44
1.0
  0
POINT
  5
55
330
4E
100
AcDbEntity
  8
Defpoints
 62
     0
100
AcDbPoint
 10
1478.483975265703
 20
203.5057282811147
 30
0.0
  0
POINT
  5
56
330
4E
100
AcDbEntity
  8
Defpoints
 62
     0
100
AcDbPoint
 10
1478.483975265703
 20
177.465812314729
 30
0.0
  0
POINT
  5
57
330
4E
100
AcDbEntity
  8
Defpoints
 62
     0
100
AcDbPoint
 10
1466.091903197053
 20
177.4658123147291
 30
0.0
  0
ENDBLK
  5
59
330
4E
100
AcDbEntity
  8
0
100
AcDbBlockEnd
  0
ENDSEC
  0
SECTION
  2
ENTITIES
  0
DIMENSION
  5
3
330
2
100
AcDbEntity
  8
0
100
AcDbDimension
  2
*D1
 10
1615.041103750781
 20
234.1399341223948
 30
0.0
 11
356.0386476181625
 21
510.3233044089168
 31
0.0
 70
   128
  1
40?
 71
     5
 42
21.90574661606274
  3
ISO-25
100
AcDbAlignedDimension
 13
1556.461347366551
 23
212.234187506332
 33
0.0
 14
1556.29952534254
 24
234.1399341223948
 34
0.0
 50
90.0
100
AcDbRotatedDimension
1001
ACAD
1000
DSTYLE
1002
{
1070
   279
1070
     2
1002
}
  0
DIMENSION
  5
19
330
2
100
AcDbEntity
  8
0
100
AcDbDimension
  2
*D3
 10
1550.085866022006
 20
129.534954749376
 30
0.0
 11
345.4935880004068
 21
468.2006913615962
 31
0.0
 70
   160
 71
     5
 42
66.0
  3
ISO-25
100
AcDbAlignedDimension
 13
1484.085866022005
 23
171.3639215584265
 33
0.0
 14
1550.085866022006
 24
173.6139215584265
 34
0.0
100
AcDbRotatedDimension
1001
ACAD
1000
DSTYLE
1002
{
1070
   279
1070
     2
1002
}
  0
DIMENSION
  5
26
330
2
100
AcDbEntity
  8
0
100
AcDbDimension
  2
*D0
 10
1432.340412746394
 20
152.6039425668292
 30
0.0
 11
260.1811702056859
 21
433.3604300857055
 31
0.0
 70
   128
 71
     5
 42
76.0
  3
ISO-25
100
AcDbAlignedDimension
 13
1433.252444636213
 23
228.6039425668292
 33
0.0
 14
1433.252444636213
 24
152.6039425668292
 34
0.0
 50
90.0
100
AcDbRotatedDimension
1001
ACAD
1000
DSTYLE
1002
{
1070
   279
1070
     2
1002
}
  0
MTEXT
  5
33
330
2
100
AcDbEntity
  8
0
100
AcDbMText
 10
1691.141713893807
 20
281.4494158753122
 30
0.0
 40
5.0
 41
48.68849492282979
 71
     1
 72
     5
  1
TIMBER STUD TO EXTEND THROUGH ABOVE THE HEIGHT OF THE TOP OF THE DRUM TO THE BUILDING STRUCTURE ABOVE TO SUPPORT THE ROLLER SHUTTER (SUPPLIED BY OTHERS)
 73
     1
 44
1.0
  0
MTEXT
  5
34
330
2
100
AcDbEntity
  8
0
100
AcDbMText
 10
1630.923964022073
 20
245.0962972943616
 30
0.0
 40
5.0
 41
49.1649
 71
     1
 72
     5
  1
40mm CLEARANCE REQUIRED ABOVE THE UNDERSIDE OF THE BULKHEAD
 73
     1
 44
1.0
  0
MTEXT
  5
35
330
2
100
AcDbEntity
  8
0
100
AcDbMText
 10
1343.650098722399
 20
216.0750299432275
 30
0.0
 40
5.0
 41
86.35240000000001
 71
     1
 72
     5
  1
76mm MINIMUM SLOT IN UNDERSIDE OF BULKHEAD, FOR ENTIRE LENGTH OF ROLLER DOOR, TO ACCOMODATE THE BOTTOM RAIL
 73
     1
 44
1.0
  0
LINE
  5
36
330
2
100
AcDbEntity
  8
0
100
AcDbLine
 10
1511.834773055926
 20
212.234187506332
 30
0.0
 11
1554.406452794737
 21
234.1399341223948
 31
0.0
  0
LINE
  5
37
330
2
100
AcDbEntity
  8
0
100
AcDbLine
 10
1511.834773055926
 20
234.1399341223948
 30
0.0
 11
1554.406452794737
 21
212.234187506332
 31
0.0
  0
LINE
  5
38
330
2
100
AcDbEntity
  8
0
100
AcDbLine
 10
1509.834773055926
 20
258.0456807384575
 30
0.0
 11
1490.208359856616
 21
212.234187506332
 31
0.0
  0
LINE
  5
39
330
2
100
AcDbEntity
  8
0
100
AcDbLine
 10
1490.208359856616
 20
258.0456807384575
 30
0.0
 11
1509.834773055926
 21
212.234187506332
 31
0.0
  0
LWPOLYLINE
  5
3A
330
2
100
AcDbEntity
  8
0
100
AcDbPolyline
 90
        4
 70
     1
 43
0.0
 10
1511.834773055926
 20
234.1399341223948
 10
1554.406452794737
 20
234.1399341223948
 10
1554.406452794737
 20
212.234187506332
 10
1511.834773055926
 20
212.234187506332
  0
LWPOLYLINE
  5
3B
330
2
100
AcDbEntity
  8
0
100
AcDbPolyline
 90
        4
 70
     1
 43
0.0
 10
1490.208359856616
 20
258.0456807384575
 10
1509.834773055926
 20
258.0456807384575
 10
1509.834773055926
 20
212.234187506332
 10
1490.208359856616
 20
212.234187506332
  0
LINE
  5
3C
330
2
100
AcDbEntity
  8
0
100
AcDbLine
 10
1488.328506709125
 20
210.7483689682339
 30
0.0
 11
1488.328506709125
 21
268.0456807384576
 31
0.0
  0
LINE
  5
3D
330
2
100
AcDbEntity
  8
0
100
AcDbLine
 10
1484.085866022005
 20
206.5057282811145
 30
0.0
 11
1484.085866022005
 21
268.0456807384576
 31
0.0
  0
LEADER
  5
3E
330
2
100
AcDbEntity
  8
0
100
AcDbLeader
  3
ISO-25
 76
     2
 10
1484.983975265703
 20
177.4658123147293
 30
0.0
 10
1414.445645472297
 20
116.544452262394
 30
0.0
211
0.99359455510306
221
-0.113003805553407
231
0.0
1001
ACAD
1000
DSTYLE
1002
{
1070
   147
1040
0.625
1070
    77
1070
     0
1002
}
  0
MTEXT
  5
3F
330
2
100
AcDbEntity
  8
0
100
AcDbMText
 10
1362.228569249037
 20
112.81337894538
 30
0.0
 40
5.0
 41
74.42146237450426
 71
     1
 72
     5
  1
ALUMINIUM EXTRUDED SIDE GUIDE 24WIDE X 45DEEP
 73
     1
 44
1.0
  0
LINE
  5
40
330
2
100
AcDbEntity
  8
0
  6
ACAD_ISO03W100
 48
0.5
100
AcDbLine
 10
1365.34140072764
 20
152.6039425668292
 30
0.0
 11
1484.085866022005
 21
152.6039425668292
 31
0.0
  0
MTEXT
  5
42
330
2
100
AcDbEntity
  8
0
100
AcDbMText
 10
1360.722362149497
 20
68.94108964957332
 30
0.0
 40
5.0
 41
347.2677
 71
     1
 72
     5
  1
{\fArial|b1|i0|c0|p34;IMPORTANT\P}WHEN USING THIS DETAIL, THE BULKHEAD MUST BE SUFFICIENTLY STRUCTURAL TO SUPPORT THE WEIGHT OF THE MOTORIZED DOOR\P\PA MANUAL RELEASE MECHANISM IS NOT AVAILABLE WITH THIS PRODUCT
 73
     1
 44
1.0
  0
LWPOLYLINE
  5
43
330
2
100
AcDbEntity
  8
0
100
AcDbPolyline
 90
        4
 70
     1
 43
0.0
 10
1344.134767754201
 20
139.5268255874159
 10
1387.216028697916
 20
139.5268255874159
 10
1387.216028697916
 20
122.6919699146978
 10
1344.134767754201
 20
122.6919699146978
  0
MTEXT
  5
44
330
2
100
AcDbEntity
  8
0
100
AcDbMText
 10
1349.754062386932
 20
134.2388567116531
 30
0.0
 40
5.0
 41
103.5579999999999
 71
     1
 72
     5
  1
INSIDE
 73
     1
 44
1.0
  0
LINE
  5
45
330
2
100
AcDbEntity
  8
0
100
AcDbLine
 10
1554.328506709125
 20
210.7483689682339
 30
0.0
 11
1554.328506709125
 21
115.842353039251
 31
0.0
  0
LINE
  5
46
330
2
100
AcDbEntity
  8
0
100
AcDbLine
 10
1550.085866022006
 20
206.5057282811145
 30
0.0
 11
1550.085866022006
 21
115.842353039251
 31
0.0
  0
MTEXT
  5
47
330
2
100
AcDbEntity
  8
0
100
AcDbMText
 10
1446.850532529235
 20
110.5260603527694
 30
0.0
 40
5.0
 41
100.3390503989695
 71
     1
 72
     5
  1
MINIMUM 65mm SIDE CLEARANCE REQUIRED EACH END OF THE DOOR
 73
     1
 44
1.0
  0
HATCH
  5
48
330
2
100
AcDbEntity
  8
0
100
AcDbHatch
 10
0.0
 20
0.0
 30
0.0
210
0.0
220
0.0
230
1.0
  2
SOLID
 70
     1
 71
     1
 91
        1
 92
        7
 72
     1
 73
     1
 93
        2
 10
1518.085866022006
 20
129.534954749376
 42
1.0
 10
1516.085866022005
 20
129.534954749376
 42
1.0
 97
        1
330
49
 75
     0
 76
     1
 47
0.0397570648096593
 98
        1
 10
1516.462963676564
 20
129.3253790822773
  0
CIRCLE
  5
49
102
{ACAD_REACTORS
330
48
102
}
330
2
100
AcDbEntity
  8
0
100
AcDbCircle
 10
1517.085866022005
 20
129.534954749376
 30
0.0
 40
1.0
  0
LINE
  5
4A
330
2
100
AcDbEntity
  8
0
100
AcDbLine
 10
1517.085866022005
 20
129.534954749376
 30
0.0
 11
1490.01852925767
 21
114.9121625482464
 31
0.0
  0
LINE
  5
4B
330
2
100
AcDbEntity
  8
0
100
AcDbLine
 10
1532.085866022005
 20
206.5057282811145
 30
0.0
 11
1554.328506709125
 21
206.5057282811145
 31
0.0
  0
LINE
  5
4C
330
2
100
AcDbEntity
  8
0
100
AcDbLine
 10
1554.328506709125
 20
210.7483689682339
 30
0.0
 11
1488.328506709125
 21
210.7483689682339
 31
0.0
  0
DIMENSION
  5
4D
330
2
100
AcDbEntity
  8
0
100
AcDbDimension
  2
*D4
 10
1466.091903197053
 20
177.4658123147291
 30
0.0
 11
1462.341903197053
 21
190.4857702979222
 31
0.0
 70
    32
  1
24
 71
     5
 42
26.0399159663857
  3
ISO-25
100
AcDbAlignedDimension
 13
1478.483975265703
 23
203.5057282811147
 33
0.0
 14
1478.483975265703
 24
177.465812314729
 34
0.0
 50
90.0
100
AcDbRotatedDimension
  0
LINE
  5
5A
330
2
100
AcDbEntity
  8
VE001I22$101
  6
Continuous
100
AcDbLine
 10
1517.079563500997
 20
189.965812314729
 30
0.0
 11
1517.079563500996
 21
180.0183333231326
 31
0.0
  0
LINE
  5
5C
330
2
100
AcDbEntity
  8
VM001I22$010
  6
Continuous
100
AcDbLine
 10
1517.079563500997
 20
189.965812314729
 30
0.0
 11
1517.079563500996
 21
180.0183333231326
 31
0.0
  0
LINE
  5
5E
330
2
100
AcDbEntity
  8
VM001I2$010
  6
Continuous
100
AcDbLine
 10
1518.544899635451
 20
189.965812314729
 30
0.0
 11
1518.54489963545
 21
180.0183333231326
 31
0.0
  0
LINE
  5
60
330
2
100
AcDbEntity
  8
VE001I2$101
  6
Continuous
100
AcDbLine
 10
1518.544899635451
 20
191.0057282811147
 30
0.0
 11
1518.54489963545
 21
180.0183333231326
 31
0.0
  0
LINE
  5
62
330
2
100
AcDbEntity
  8
VM001I25$010
  6
Continuous
100
AcDbLine
 10
1527.28964753461
 20
189.965812314729
 30
0.0
 11
1527.28964753461
 21
180.0183333231326
 31
0.0
  0
LINE
  5
64
330
2
100
AcDbEntity
  8
VE001I25$101
  6
Continuous
100
AcDbLine
 10
1527.28964753461
 20
191.0057282811147
 30
0.0
 11
1527.28964753461
 21
180.0183333231326
 31
0.0
  0
LINE
  5
66
330
2
100
AcDbEntity
  8
VE001I18$101
  6
Continuous
100
AcDbLine
 10
1529.085866022005
 20
189.9658123147293
 30
0.0
 11
1529.085866022005
 21
177.4658123147293
 31
0.0
  0
LINE
  5
68
330
2
100
AcDbEntity
  8
VM001I18$010
  6
Continuous
100
AcDbLine
 10
1529.085866022005
 20
189.9658123147293
 30
0.0
 11
1529.085866022005
 21
177.4658123147293
 31
0.0
  0
DIMENSION
  5
6A
330
2
100
AcDbEntity
  8
0
100
AcDbDimension
  2
*D2
 10
1529.085866022005
 20
152.5977281862001
 30
0.0
 11
1506.585866022005
 21
156.3477281862001
 31
0.0
 70
    32
 71
     5
 42
45.0
  3
ISO-25
100
AcDbAlignedDimension
 13
1484.085866022005
 23
171.3639215584265
 33
0.0
 14
1529.085866022005
 24
171.3639215584265
 34
0.0
100
AcDbRotatedDimension
  0
LINE
  5
77
330
2
100
AcDbEntity
  8
VM001I5$010
  6
Continuous
100
AcDbLine
 10
1522.562756778308
 20
177.4658123147293
 30
0.0
 11
1484.983975265703
 21
177.4658123147293
 31
0.0
  0
LINE
  5
79
330
2
100
AcDbEntity
  8
VE001I5$101
  6
Continuous
100
AcDbLine
 10
1522.562756778308
 20
177.4658123147293
 30
0.0
 11
1484.983975265703
 21
177.4658123147293
 31
0.0
  0
LINE
  5
7B
330
2
100
AcDbEntity
  8
VM001I26$010
  6
Continuous
100
AcDbLine
 10
1516.323260979988
 20
179.262030802124
 30
0.0
 11
1484.983975265703
 21
179.262030802124
 31
0.0
  0
LINE
  5
7D
330
2
100
AcDbEntity
  8
VE001I26$101
  6
Continuous
100
AcDbLine
 10
1516.323260979988
 20
179.262030802124
 30
0.0
 11
1484.983975265703
 21
179.262030802124
 31
0.0
  0
ARC
  5
7F
330
2
100
AcDbEntity
  8
VM001I27$010
  6
Continuous
100
AcDbCircle
 10
1484.983975265703
 20
178.3639215584265
 30
0.0
 40
0.8981092436974769
100
AcDbArc
 50
90.0
 51
270.0
  0
ARC
  5
81
330
2
100
AcDbEntity
  8
VE001I27$101
  6
Continuous
100
AcDbCircle
 10
1484.983975265703
 20
178.3639215584265
 30
0.0
 40
0.8981092436974769
100
AcDbArc
 50
90.0
 51
270.0
  0
ARC
  5
83
330
2
100
AcDbEntity
  8
VM001I32$010
  6
Continuous
100
AcDbCircle
 10
1516.323260979988
 20
180.0183333231326
 30
0.0
 40
0.7563025210084017
100
AcDbArc
 50
270.0
 51
0.0
  0
ARC
  5
85
330
2
100
AcDbEntity
  8
VE001I32$101
  6
Continuous
100
AcDbCircle
 10
1516.323260979988
 20
180.0183333231326
 30
0.0
 40
0.7563025210084017
100
AcDbArc
 50
270.0
 51
0.0
  0
ARC
  5
87
330
2
100
AcDbEntity
  8
VM001I34$010
  6
Continuous
100
AcDbCircle
 10
1526.533345013602
 20
180.0183333231326
 30
0.0
 40
0.7563025210084017
100
AcDbArc
 50
270.0
 51
0.0
  0
ARC
  5
89
330
2
100
AcDbEntity
  8
VE001I34$101
  6
Continuous
100
AcDbCircle
 10
1526.533345013602
 20
180.0183333231326
 30
0.0
 40
0.7563025210084017
100
AcDbArc
 50
270.0
 51
0.0
  0
LINE
  5
8B
330
2
100
AcDbEntity
  8
VM001I1$010
  6
Continuous
100
AcDbLine
 10
1523.319059299316
 20
177.7494257601075
 30
0.0
 11
1523.602672744694
 21
177.4658123147293
 31
0.0
  0
LINE
  5
8D
330
2
100
AcDbEntity
  8
VE001I1$101
  6
Continuous
100
AcDbLine
 10
1523.319059299316
 20
177.7494257601075
 30
0.0
 11
1523.602672744694
 21
177.4658123147293
 31
0.0
  0
ARC
  5
8F
330
2
100
AcDbEntity
  8
VM001I29$010
  6
Continuous
100
AcDbCircle
 10
1519.30120215646
 20
180.0183333231326
 30
0.0
 40
0.7563025210084017
100
AcDbArc
 50
180.0
 51
270.0
  0
ARC
  5
91
330
2
100
AcDbEntity
  8
VE001I29$101
  6
Continuous
100
AcDbCircle
 10
1519.30120215646
 20
180.0183333231326
 30
0.0
 40
0.7563025210084017
100
AcDbArc
 50
180.0
 51
270.0
  0
LINE
  5
93
330
2
100
AcDbEntity
  8
VM001I4$010
  6
Continuous
100
AcDbLine
 10
1522.846370223686
 20
177.7494257601075
 30
0.0
 11
1522.562756778308
 21
177.4658123147293
 31
0.0
  0
LINE
  5
95
330
2
100
AcDbEntity
  8
VE001I4$101
  6
Continuous
100
AcDbLine
 10
1522.846370223686
 20
177.7494257601075
 30
0.0
 11
1522.562756778308
 21
177.4658123147293
 31
0.0
  0
LINE
  5
97
330
2
100
AcDbEntity
  8
VM001I3$010
  6
Continuous
100
AcDbLine
 10
1523.319059299316
 20
177.7494257601075
 30
0.0
 11
1522.846370223686
 21
177.7494257601075
 31
0.0
  0
LINE
  5
99
330
2
100
AcDbEntity
  8
VE001I3$101
  6
Continuous
100
AcDbLine
 10
1523.319059299316
 20
177.7494257601075
 30
0.0
 11
1522.846370223686
 21
177.7494257601075
 31
0.0
  0
LINE
  5
9B
330
2
100
AcDbEntity
  8
VM001I6$010
  6
Continuous
100
AcDbLine
 10
1529.085866022005
 20
177.4658123147293
 30
0.0
 11
1523.602672744694
 21
177.4658123147293
 31
0.0
  0
LINE
  5
9D
330
2
100
AcDbEntity
  8
VE001I6$101
  6
Continuous
100
AcDbLine
 10
1529.085866022005
 20
177.4658123147293
 30
0.0
 11
1523.602672744694
 21
177.4658123147293
 31
0.0
  0
LINE
  5
9F
330
2
100
AcDbEntity
  8
VM001I8$010
  6
Continuous
100
AcDbLine
 10
1526.533345013602
 20
179.262030802124
 30
0.0
 11
1519.30120215646
 21
179.262030802124
 31
0.0
  0
LINE
  5
A1
330
2
100
AcDbEntity
  8
VE001I8$101
  6
Continuous
100
AcDbLine
 10
1526.533345013602
 20
179.262030802124
 30
0.0
 11
1519.30120215646
 21
179.262030802124
 31
0.0
  0
LINE
  5
A3
330
2
100
AcDbEntity
  8
VM001I25$010
  6
Continuous
100
AcDbLine
 10
1527.28964753461
 20
191.0057282811147
 30
0.0
 11
1527.28964753461
 21
200.9532072727111
 31
0.0
  0
LINE
  5
A4
330
2
100
AcDbEntity
  8
VE001I25$101
  6
Continuous
100
AcDbLine
 10
1527.28964753461
 20
191.0057282811147
 30
0.0
 11
1527.28964753461
 21
200.9532072727111
 31
0.0
  0
LINE
  5
A5
330
2
100
AcDbEntity
  8
VM001I18$010
  6
Continuous
100
AcDbLine
 10
1529.085866022005
 20
191.0057282811145
 30
0.0
 11
1529.085866022005
 21
203.5057282811145
 31
0.0
  0
LINE
  5
A6
330
2
100
AcDbEntity
  8
VE001I18$101
  6
Continuous
100
AcDbLine
 10
1529.085866022005
 20
191.0057282811145
 30
0.0
 11
1529.085866022005
 21
203.5057282811145
 31
0.0
  0
LINE
  5
A7
330
2
100
AcDbEntity
  8
VM001I2$010
  6
Continuous
100
AcDbLine
 10
1518.544899635451
 20
191.0057282811147
 30
0.0
 11
1518.54489963545
 21
200.9532072727111
 31
0.0
  0
LINE
  5
A8
330
2
100
AcDbEntity
  8
VE001I2$101
  6
Continuous
100
AcDbLine
 10
1518.544899635451
 20
191.0057282811147
 30
0.0
 11
1518.54489963545
 21
200.9532072727111
 31
0.0
  0
LINE
  5
A9
330
2
100
AcDbEntity
  8
VM001I22$010
  6
Continuous
100
AcDbLine
 10
1517.079563500997
 20
191.0057282811147
 30
0.0
 11
1517.079563500996
 21
200.9532072727111
 31
0.0
  0
LINE
  5
AA
330
2
100
AcDbEntity
  8
VE001I22$101
  6
Continuous
100
AcDbLine
 10
1517.079563500997
 20
191.0057282811147
 30
0.0
 11
1517.079563500996
 21
200.9532072727111
 31
0.0
  0
LINE
  5
AB
330
2
100
AcDbEntity
  8
VM001I11$010
  6
Continuous
100
AcDbLine
 10
1517.363176946375
 20
190.7221148357365
 30
0.0
 11
1517.079563500997
 21
191.0057282811147
 31
0.0
  0
LINE
  5
AD
330
2
100
AcDbEntity
  8
VE001I11$101
  6
Continuous
100
AcDbLine
 10
1517.363176946375
 20
190.7221148357365
 30
0.0
 11
1517.079563500997
 21
191.0057282811147
 31
0.0
  0
LINE
  5
AF
330
2
100
AcDbEntity
  8
VM001I21$010
  6
Continuous
100
AcDbLine
 10
1517.363176946375
 20
190.4857702979219
 30
0.0
 11
1517.363176946375
 21
190.7221148357365
 31
0.0
  0
LINE
  5
B1
330
2
100
AcDbEntity
  8
VE001I21$101
  6
Continuous
100
AcDbLine
 10
1517.363176946375
 20
190.4857702979219
 30
0.0
 11
1517.363176946375
 21
190.7221148357365
 31
0.0
  0
LINE
  5
B3
330
2
100
AcDbEntity
  8
VE001I11$101
  6
Continuous
100
AcDbLine
 10
1517.363176946375
 20
190.2494257601073
 30
0.0
 11
1517.079563500997
 21
189.965812314729
 31
0.0
  0
LINE
  5
B4
330
2
100
AcDbEntity
  8
VM001I11$010
  6
Continuous
100
AcDbLine
 10
1517.363176946375
 20
190.2494257601073
 30
0.0
 11
1517.079563500997
 21
189.965812314729
 31
0.0
  0
LINE
  5
B5
330
2
100
AcDbEntity
  8
VM001I21$010
  6
Continuous
100
AcDbLine
 10
1517.363176946375
 20
190.4857702979219
 30
0.0
 11
1517.363176946375
 21
190.2494257601073
 31
0.0
  0
LINE
  5
B6
330
2
100
AcDbEntity
  8
VE001I21$101
  6
Continuous
100
AcDbLine
 10
1517.363176946375
 20
190.4857702979219
 30
0.0
 11
1517.363176946375
 21
190.2494257601073
 31
0.0
  0
LINE
  5
B7
330
2
100
AcDbEntity
  8
VM001I15$010
  6
Continuous
100
AcDbLine
 10
1528.802252576628
 20
190.7221148357365
 30
0.0
 11
1529.085866022006
 21
191.0057282811147
 31
0.0
  0
LINE
  5
B9
330
2
100
AcDbEntity
  8
VE001I15$101
  6
Continuous
100
AcDbLine
 10
1528.802252576628
 20
190.7221148357365
 30
0.0
 11
1529.085866022006
 21
191.0057282811147
 31
0.0
  0
LINE
  5
BB
330
2
100
AcDbEntity
  8
VM001I13$010
  6
Continuous
100
AcDbLine
 10
1528.802252576628
 20
190.4857702979219
 30
0.0
 11
1528.802252576628
 21
190.7221148357365
 31
0.0
  0
LINE
  5
BD
330
2
100
AcDbEntity
  8
VE001I13$101
  6
Continuous
100
AcDbLine
 10
1528.802252576628
 20
190.4857702979219
 30
0.0
 11
1528.802252576628
 21
190.7221148357365
 31
0.0
  0
LINE
  5
BF
330
2
100
AcDbEntity
  8
VE001I15$101
  6
Continuous
100
AcDbLine
 10
1528.802252576628
 20
190.2494257601073
 30
0.0
 11
1529.085866022006
 21
189.965812314729
 31
0.0
  0
LINE
  5
C0
330
2
100
AcDbEntity
  8
VM001I15$010
  6
Continuous
100
AcDbLine
 10
1528.802252576628
 20
190.2494257601073
 30
0.0
 11
1529.085866022006
 21
189.965812314729
 31
0.0
  0
LINE
  5
C1
330
2
100
AcDbEntity
  8
VM001I13$010
  6
Continuous
100
AcDbLine
 10
1528.802252576628
 20
190.4857702979219
 30
0.0
 11
1528.802252576628
 21
190.2494257601073
 31
0.0
  0
LINE
  5
C2
330
2
100
AcDbEntity
  8
VE001I13$101
  6
Continuous
100
AcDbLine
 10
1528.802252576628
 20
190.4857702979219
 30
0.0
 11
1528.802252576628
 21
190.2494257601073
 31
0.0
  0
LINE
  5
C3
330
2
100
AcDbEntity
  8
0
100
AcDbLine
 10
1532.085866022005
 20
206.5057282811145
 30
0.0
 11
1484.085866022005
 21
206.5057282811145
 31
0.0
  0
LINE
  5
C4
330
2
100
AcDbEntity
  8
VM001I5$010
  6
Continuous
100
AcDbLine
 10
1522.562756778308
 20
203.5057282811145
 30
0.0
 11
1484.983975265703
 21
203.5057282811145
 31
0.0
  0
LINE
  5
C5
330
2
100
AcDbEntity
  8
VE001I5$101
  6
Continuous
100
AcDbLine
 10
1522.562756778308
 20
203.5057282811145
 30
0.0
 11
1484.983975265703
 21
203.5057282811145
 31
0.0
  0
LINE
  5
C6
330
2
100
AcDbEntity
  8
VM001I26$010
  6
Continuous
100
AcDbLine
 10
1516.323260979988
 20
201.7095097937198
 30
0.0
 11
1484.983975265703
 21
201.7095097937198
 31
0.0
  0
LINE
  5
C7
330
2
100
AcDbEntity
  8
VE001I26$101
  6
Continuous
100
AcDbLine
 10
1516.323260979988
 20
201.7095097937198
 30
0.0
 11
1484.983975265703
 21
201.7095097937198
 31
0.0
  0
ARC
  5
C8
330
2
100
AcDbEntity
  8
VM001I27$010
  6
Continuous
100
AcDbCircle
 10
1484.983975265703
 20
202.6076190374173
 30
0.0
 40
0.8981092436974769
100
AcDbArc
 50
90.0
 51
270.0
  0
ARC
  5
C9
330
2
100
AcDbEntity
  8
VE001I27$101
  6
Continuous
100
AcDbCircle
 10
1484.983975265703
 20
202.6076190374173
 30
0.0
 40
0.8981092436974769
100
AcDbArc
 50
90.0
 51
270.0
  0
ARC
  5
CA
330
2
100
AcDbEntity
  8
VM001I32$010
  6
Continuous
100
AcDbCircle
 10
1516.323260979988
 20
200.9532072727111
 30
0.0
 40
0.7563025210084017
100
AcDbArc
 50
0.0
 51
90.0
  0
ARC
  5
CB
330
2
100
AcDbEntity
  8
VE001I32$101
  6
Continuous
100
AcDbCircle
 10
1516.323260979988
 20
200.9532072727111
 30
0.0
 40
0.7563025210084017
100
AcDbArc
 50
0.0
 51
90.0
  0
LINE
  5
CC
330
2
100
AcDbEntity
  8
0
100
AcDbLine
 10
1488.328506709125
 20
210.7483689682339
 30
0.0
 11
1484.085866022005
 21
210.7483689682339
 31
0.0
  0
ARC
  5
CD
330
2
100
AcDbEntity
  8
VM001I34$010
  6
Continuous
100
AcDbCircle
 10
1526.533345013602
 20
200.9532072727111
 30
0.0
 40
0.7563025210084017
100
AcDbArc
 50
0.0
 51
90.0
  0
ARC
  5
CE
330
2
100
AcDbEntity
  8
VE001I34$101
  6
Continuous
100
AcDbCircle
 10
1526.533345013602
 20
200.9532072727111
 30
0.0
 40
0.7563025210084017
100
AcDbArc
 50
0.0
 51
90.0
  0
ARC
  5
CF
330
2
100
AcDbEntity
  8
VM001I29$010
  6
Continuous
100
AcDbCircle
 10
1519.30120215646
 20
200.9532072727111
 30
0.0
 40
0.7563025210084017
100
AcDbArc
 50
90.0
 51
180.0
  0
ARC
  5
D0
330
2
100
AcDbEntity
  8
VE001I29$101
  6
Continuous
100
AcDbCircle
 10
1519.30120215646
 20
200.9532072727111
 30
0.0
 40
0.7563025210084017
100
AcDbArc
 50
90.0
 51
180.0
  0
LINE
  5
D1
330
2
100
AcDbEntity
  8
VM001I3$010
  6
Continuous
100
AcDbLine
 10
1523.319059299316
 20
203.2221148357363
 30
0.0
 11
1522.846370223686
 21
203.2221148357363
 31
0.0
  0
LINE
  5
D2
330
2
100
AcDbEntity
  8
VE001I3$101
  6
Continuous
100
AcDbLine
 10
1523.319059299316
 20
203.2221148357363
 30
0.0
 11
1522.846370223686
 21
203.2221148357363
 31
0.0
  0
LINE
  5
D3
330
2
100
AcDbEntity
  8
VM001I1$010
  6
Continuous
100
AcDbLine
 10
1523.319059299316
 20
203.2221148357363
 30
0.0
 11
1523.602672744694
 21
203.5057282811145
 31
0.0
  0
LINE
  5
D4
330
2
100
AcDbEntity
  8
VE001I1$101
  6
Continuous
100
AcDbLine
 10
1523.319059299316
 20
203.2221148357363
 30
0.0
 11
1523.602672744694
 21
203.5057282811145
 31
0.0
  0
LINE
  5
D5
330
2
100
AcDbEntity
  8
VM001I4$010
  6
Continuous
100
AcDbLine
 10
1522.846370223686
 20
203.2221148357363
 30
0.0
 11
1522.562756778308
 21
203.5057282811145
 31
0.0
  0
LINE
  5
D6
330
2
100
AcDbEntity
  8
VE001I4$101
  6
Continuous
100
AcDbLine
 10
1522.846370223686
 20
203.2221148357363
 30
0.0
 11
1522.562756778308
 21
203.5057282811145
 31
0.0
  0
LINE
  5
D7
330
2
100
AcDbEntity
  8
VM001I6$010
  6
Continuous
100
AcDbLine
 10
1529.085866022005
 20
203.5057282811145
 30
0.0
 11
1523.602672744694
 21
203.5057282811145
 31
0.0
  0
LINE
  5
D8
330
2
100
AcDbEntity
  8
VE001I6$101
  6
Continuous
100
AcDbLine
 10
1529.085866022005
 20
203.5057282811145
 30
0.0
 11
1523.602672744694
 21
203.5057282811145
 31
0.0
  0
LINE
  5
D9
330
2
100
AcDbEntity
  8
VM001I8$010
  6
Continuous
100
AcDbLine
 10
1526.533345013602
 20
201.7095097937198
 30
0.0
 11
1519.30120215646
 21
201.7095097937198
 31
0.0
  0
LINE
  5
DA
330
2
100
AcDbEntity
  8
VE001I8$101
  6
Continuous
100
AcDbLine
 10
1526.533345013602
 20
201.7095097937198
 30
0.0
 11
1519.30120215646
 21
201.7095097937198
 31
0.0
  0
LINE
  5
DB
330
2
100
AcDbEntity
  8
0
100
AcDbLine
 10
1556.982921745512
 20
177.1620182347323
 30
0.0
 11
1613.471128686536
 21
210.7502694206398
 31
0.0
  0
LINE
  5
DC
330
2
100
AcDbEntity
  8
0
100
AcDbLine
 10
1556.982921745512
 20
210.7502694206398
 30
0.0
 11
1613.471128686536
 21
177.1620182347323
 31
0.0
  0
LWPOLYLINE
  5
DD
330
2
100
AcDbEntity
  8
0
100
AcDbPolyline
 90
        4
 70
     1
 43
0.0
 10
1556.982921745512
 20
210.7502694206398
 10
1613.471128686536
 20
210.7502694206398
 10
1613.471128686536
 20
177.1620182347323
 10
1556.982921745512
 20
177.1620182347323
  0
LEADER
  5
DE
330
2
100
AcDbEntity
  8
0
100
AcDbLeader
  3
ISO-25
 76
     3
 10
1585.227025216024
 20
177.1620182347323
 30
0.0
 10
1585.227025216024
 20
160.5684578707314
 30
0.0
 10
1680.971195827209
 20
160.5684578707314
 30
0.0
1001
ACAD
1000
DSTYLE
1002
{
1070
   147
1040
0.625
1070
    77
1070
     0
1002
}
  0
MTEXT
  5
DF
330
2
100
AcDbEntity
  8
0
100
AcDbMText
 10
1371.183544872144
 20
270.7456604192364
 30
0.0
 40
5.0
 41
85.66265611791903
 71
     1
 72
     5
  1
TIMBER STUDS TO STOP AT UNDERSIDE OF BULKHEAD
 73
     1
 44
1.0
  0
LINE
  5
E0
330
2
100
AcDbEntity
  8
0
  6
ACAD_ISO03W100
 48
0.5
100
AcDbLine
 10
1364.551988030551
 20
228.6039425668292
 30
0.0
 11
1484.085866022005
 21
228.6039425668292
 31
0.0
  0
LWPOLYLINE
  5
E1
330
2
100
AcDbEntity
  8
0
100
AcDbPolyline
 90
        4
 70
     1
 43
0.0
 10
1343.932221114752
 20
300.9352898885624
 10
1387.013482058467
 20
300.9352898885624
 10
1387.013482058467
 20
284.1004342158444
 10
1343.932221114752
 20
284.1004342158444
  0
MTEXT
  5
E2
330
2
100
AcDbEntity
  8
0
100
AcDbMText
 10
1348.614967155597
 20
296.4144045579805
 30
0.0
 40
5.0
 41
103.5579999999999
 71
     1
 72
     5
  1
OUTSIDE
 73
     1
 44
1.0
  0
LEADER
  5
E3
330
2
100
AcDbEntity
  8
0
100
AcDbLeader
  3
ISO-25
 76
     3
 10
1533.120612925332
 20
258.0456807384575
 30
0.0
 10
1533.120612925332
 20
270.6178804786009
 30
0.0
 10
1684.963949544435
 20
270.6178804786009
 30
0.0
1001
ACAD
1000
DSTYLE
1002
{
1070
   147
1040
0.625
1070
    77
1070
     0
1002
}
  0
LINE
  5
E4
330
2
100
AcDbEntity
  8
0
100
AcDbLine
 10
1511.834773055926
 20
236.1399341223948
 30
0.0
 11
1554.406452794737
 21
258.0456807384575
 31
0.0
  0
LINE
  5
E5
330
2
100
AcDbEntity
  8
0
100
AcDbLine
 10
1511.834773055926
 20
258.0456807384575
 30
0.0
 11
1554.406452794737
 21
236.1399341223948
 31
0.0
  0
LWPOLYLINE
  5
E6
330
2
100
AcDbEntity
  8
0
100
AcDbPolyline
 90
        4
 70
     1
 43
0.0
 10
1511.834773055926
 20
236.1399341223948
 10
1554.406452794737
 20
236.1399341223948
 10
1554.406452794737
 20
258.0456807384575
 10
1511.834773055926
 20
258.0456807384575
  0
LEADER
  5
E7
330
2
100
AcDbEntity
  8
0
100
AcDbLeader
  3
ISO-25
 76
     2
 10
1517.734077263337
 20
225.5891181019931
 30
0.0
 10
1451.597068196403
 20
252.7504615080429
 30
0.0
1001
ACAD
1000
DSTYLE
1002
{
1070
   147
1040
0.625
1070
    77
1070
     0
1002
}
  0
LEADER
  5
E8
330
2
100
AcDbEntity
  8
0
100
AcDbLeader
  3
ISO-25
 76
     2
 10
1493.19938078757
 20
244.7639544653927
 30
0.0
 10
1451.597068196403
 20
252.7504615080429
 30
0.0
1001
ACAD
1000
DSTYLE
1002
{
1070
   147
1040
0.625
1070
    77
1070
     0
1002
}
  0
LINE
  5
E9
330
2
100
AcDbEntity
  8
0
100
AcDbLine
 10
1615.041103750781
 20
223.1870608143634
 30
0.0
 11
1627.87467734671
 21
223.1870608143634
 31
0.0
  0
CIRCLE
  5
EA
102
{ACAD_REACTORS
330
EB
102
}
330
2
100
AcDbEntity
  8
0
100
AcDbCircle
 10
1615.041103750781
 20
223.1870608143634
 30
0.0
 40
1.0
  0
HATCH
  5
EB
330
2
100
AcDbEntity
  8
0
100
AcDbHatch
 10
0.0
 20
0.0
 30
0.0
210
0.0
220
0.0
230
1.0
  2
SOLID
 70
     1
 71
     1
 91
        1
 92
        7
 72
     1
 73
     1
 93
        2
 10
1616.041103750782
 20
223.1870608143634
 42
1.0
 10
1614.041103750782
 20
223.1870608143634
 42
1.0
 97
        1
330
EA
 75
     0
 76
     1
 47
0.0397570648096593
 98
        1
 10
1614.41820140534
 20
222.9774851472646
  0
LINE
  5
EC
330
2
100
AcDbEntity
  8
0
100
AcDbLine
 10
1414.445645472297
 20
116.544452262394
 30
0.0
 11
1406.148844012421
 21
116.544452262394
 31
0.0
  0
ENDSEC
  0
SECTION
  2
OBJECTS
  0
DICTIONARY
  5
7
330
0
100
AcDbDictionary
281
     1
  3
ACAD_GROUP
350
102
  3
ACAD_LAYOUT
350
F0
  3
ACAD_MLINESTYLE
350
103
  3
ACAD_PLOTSETTINGS
350
104
  3
ACAD_PLOTSTYLENAME
350
6
  3
AcDbVariableDictionary
350
10B
  0
DICTIONARY
  5
102
102
{ACAD_REACTORS
330
7
102
}
330
7
100
AcDbDictionary
281
     1
  0
DICTIONARY
  5
F0
102
{ACAD_REACTORS
330
7
102
}
330
7
100
AcDbDictionary
281
     1
  3
Layout1
350
F4
  3
Model
350
EF
  0
DICTIONARY
  5
103
102
{ACAD_REACTORS
330
7
102
}
330
7
100
AcDbDictionary
281
     1
  3
Standard
350
105
  0
DICTIONARY
  5
104
102
{ACAD_REACTORS
330
7
102
}
330
7
100
AcDbDictionary
281
     1
  0
ACDBDICTIONARYWDFLT
  5
6
102
{ACAD_REACTORS
330
7
102
}
330
7
100
AcDbDictionary
281
     1
  3
Normal
350
5
100
AcDbDictionaryWithDefault
340
5
  0
DICTIONARY
  5
10B
102
{ACAD_REACTORS
330
7
102
}
330
7
100
AcDbDictionary
281
     1
  3
DIMASSOC
350
10C
  0
LAYOUT
  5
F4
102
{ACAD_REACTORS
330
F0
102
}
330
F0
100
AcDbPlotSettings
  1

  2
HP LaserJet 5N
  4

  6

 40
0.0
 41
0.0
 42
0.0
 43
0.0
 44
0.0
 45
0.0
 46
0.0
 47
0.0
 48
0.0
 49
0.0
140
0.0
141
0.0
142
1.0
143
1.0
 70
   688
 72
     0
 73
     0
 74
     5
  7

 75
    16
147
1.0
148
0.0
149
0.0
100
AcDbLayout
  1
Layout1
 70
     1
 71
     1
 10
0.0
 20
0.0
 11
420.0
 21
297.0
 12
0.0
 22
0.0
 32
0.0
 14
1.000000000000000E+20
 24
1.000000000000000E+20
 34
1.000000000000000E+20
 15
-1.000000000000000E+20
 25
-1.000000000000000E+20
 35
-1.000000000000000E+20
146
0.0
 13
0.0
 23
0.0
 33
0.0
 16
1.0
 26
0.0
 36
0.0
 17
0.0
 27
1.0
 37
0.0
 76
     0
330
F1
  0
LAYOUT
  5
EF
102
{ACAD_REACTORS
330
F0
102
}
330
F0
100
AcDbPlotSettings
  1

  2
HP LaserJet 5N
  4
A4
  6

 40
6.043083190917968
 41
6.720414161682128
 42
7.821090698242187
 43
5.027069091796875
 44
210.0579986572265
 45
296.9259948730469
 46
0.0
 47
0.0
 48
1329.026294248072
 49
18.2209881424103
140
1752.305465709066
141
287.7337944622956
142
1.0
143
1.484260399064198
 70
 11952
 72
     1
 73
     1
 74
     4
  7

 75
     0
147
0.6737362262245112
148
-1329.026294248072
149
-18.2209881424103
100
AcDbLayout
  1
Model
 70
     1
 71
     0
 10
0.0
 20
0.0
 11
12.0
 21
9.0
 12
0.0
 22
0.0
 32
0.0
 14
0.0
 24
0.0
 34
0.0
 15
0.0
 25
0.0
 35
0.0
146
0.0
 13
0.0
 23
0.0
 33
0.0
 16
1.0
 26
0.0
 36
0.0
 17
0.0
 27
1.0
 37
0.0
 76
     0
330
2
  0
MLINESTYLE
  5
105
102
{ACAD_REACTORS
330
103
102
}
330
103
100
AcDbMlineStyle
  2
STANDARD
 70
     0
  3

 62
   256
 51
90.0
 52
90.0
 71
     2
 49
0.5
 62
   256
  6
BYLAYER
 49
-0.5
 62
   256
  6
BYLAYER
  0
ACDBPLACEHOLDER
  5
5
102
{ACAD_REACTORS
330
6
102
}
330
6
  0
DICTIONARYVAR
  5
10C
102
{ACAD_REACTORS
330
10B
102
}
330
10B
100
DictionaryVariables
280
     0
  1
1
  0
ENDSEC
  0
EOF
