  0
SECTION
  2
HEADER
  9
$ACADVER
  1
AC1015
  9
$ACADMAINTVER
 70
    13
  9
$DWGCODEPAGE
  3
ANSI_1252
  9
$INSBASE
 10
974.9015808931645
 20
781.6268903276661
 30
0.0
  9
$EXTMIN
 10
973.234913644559
 20
780.6268911726481
 30
0.0
  9
$EXTMAX
 10
2623.540098340126
 20
1779.661304798494
 30
0.0
  9
$LIMMIN
 10
0.0
 20
0.0
  9
$LIMMAX
 10
420.0
 20
297.0
  9
$ORTHOMODE
 70
     0
  9
$REGENMODE
 70
     1
  9
$FILLMODE
 70
     1
  9
$QTEXTMODE
 70
     0
  9
$MIRRTEXT
 70
     1
  9
$LTSCALE
 40
1.0
  9
$ATTMODE
 70
     1
  9
$TEXTSIZE
 40
5.0
  9
$TRACEWID
 40
1.0
  9
$TEXTSTYLE
  7
Standard
  9
$CLAYER
  8
0
  9
$CELTYPE
  6
ByLayer
  9
$CECOLOR
 62
   256
  9
$CELTSCALE
 40
1.0
  9
$DISPSILH
 70
     0
  9
$DIMSCALE
 40
1.0
  9
$DIMASZ
 40
11.0
  9
$DIMEXO
 40
3.0
  9
$DIMDLI
 40
3.75
  9
$DIMRND
 40
0.0
  9
$DIMDLE
 40
0.0
  9
$DIMEXE
 40
1.25
  9
$DIMTP
 40
0.0
  9
$DIMTM
 40
0.0
  9
$DIMTXT
 40
20.0
  9
$DIMCEN
 40
2.5
  9
$DIMTSZ
 40
0.0
  9
$DIMTOL
 70
     0
  9
$DIMLIM
 70
     0
  9
$DIMTIH
 70
     0
  9
$DIMTOH
 70
     1
  9
$DIMSE1
 70
     0
  9
$DIMSE2
 70
     0
  9
$DIMTAD
 70
     1
  9
$DIMZIN
 70
     8
  9
$DIMBLK
  1

  9
$DIMASO
 70
     1
  9
$DIMSHO
 70
     1
  9
$DIMPOST
  1

  9
$DIMAPOST
  1

  9
$DIMALT
 70
     0
  9
$DIMALTD
 70
     3
  9
$DIMALTF
 40
0.03937007874016
  9
$DIMLFAC
 40
1.0
  9
$DIMTOFL
 70
     1
  9
$DIMTVP
 40
0.0
  9
$DIMTIX
 70
     0
  9
$DIMSOXD
 70
     0
  9
$DIMSAH
 70
     0
  9
$DIMBLK1
  1

  9
$DIMBLK2
  1

  9
$DIMSTYLE
  2
ISO-25
  9
$DIMCLRD
 70
     0
  9
$DIMCLRE
 70
     0
  9
$DIMCLRT
 70
     0
  9
$DIMTFAC
 40
1.0
  9
$DIMGAP
 40
3.0
  9
$DIMJUST
 70
     0
  9
$DIMSD1
 70
     0
  9
$DIMSD2
 70
     0
  9
$DIMTOLJ
 70
     0
  9
$DIMTZIN
 70
     8
  9
$DIMALTZ
 70
     0
  9
$DIMALTTZ
 70
     0
  9
$DIMUPT
 70
     0
  9
$DIMDEC
 70
     2
  9
$DIMTDEC
 70
     2
  9
$DIMALTU
 70
     2
  9
$DIMALTTD
 70
     3
  9
$DIMTXSTY
  7
Standard
  9
$DIMAUNIT
 70
     0
  9
$DIMADEC
 70
     0
  9
$DIMALTRND
 40
0.0
  9
$DIMAZIN
 70
     0
  9
$DIMDSEP
 70
    46
  9
$DIMATFIT
 70
     3
  9
$DIMFRAC
 70
     0
  9
$DIMLDRBLK
  1

  9
$DIMLUNIT
 70
     2
  9
$DIMLWD
 70
    -2
  9
$DIMLWE
 70
    -2
  9
$DIMTMOVE
 70
     0
  9
$LUNITS
 70
     2
  9
$LUPREC
 70
     4
  9
$SKETCHINC
 40
1.0
  9
$FILLETRAD
 40
10.0
  9
$AUNITS
 70
     0
  9
$AUPREC
 70
     0
  9
$MENU
  1
.
  9
$ELEVATION
 40
0.0
  9
$PELEVATION
 40
0.0
  9
$THICKNESS
 40
0.0
  9
$LIMCHECK
 70
     0
  9
$CHAMFERA
 40
10.0
  9
$CHAMFERB
 40
10.0
  9
$CHAMFERC
 40
20.0
  9
$CHAMFERD
 40
0.0
  9
$SKPOLY
 70
     0
  9
$TDCREATE
 40
2452723.348062037
  9
$TDUCREATE
 40
2452722.931395370
  9
$TDUPDATE
 40
2453647.435065787
  9
$TDUUPDATE
 40
2453647.018399120
  9
$TDINDWG
 40
0.5525363426
  9
$TDUSRTIMER
 40
0.5525363426
  9
$USRTIMER
 70
     1
  9
$ANGBASE
 50
0.0
  9
$ANGDIR
 70
     0
  9
$PDMODE
 70
     0
  9
$PDSIZE
 40
0.0
  9
$PLINEWID
 40
0.0
  9
$SPLFRAME
 70
     0
  9
$SPLINETYPE
 70
     6
  9
$SPLINESEGS
 70
     8
  9
$HANDSEED
  5
192
  9
$SURFTAB1
 70
     6
  9
$SURFTAB2
 70
     6
  9
$SURFTYPE
 70
     6
  9
$SURFU
 70
     6
  9
$SURFV
 70
     6
  9
$UCSBASE
  2

  9
$UCSNAME
  2

  9
$UCSORG
 10
0.0
 20
0.0
 30
0.0
  9
$UCSXDIR
 10
1.0
 20
0.0
 30
0.0
  9
$UCSYDIR
 10
0.0
 20
1.0
 30
0.0
  9
$UCSORTHOREF
  2

  9
$UCSORTHOVIEW
 70
     0
  9
$UCSORGTOP
 10
0.0
 20
0.0
 30
0.0
  9
$UCSORGBOTTOM
 10
0.0
 20
0.0
 30
0.0
  9
$UCSORGLEFT
 10
0.0
 20
0.0
 30
0.0
  9
$UCSORGRIGHT
 10
0.0
 20
0.0
 30
0.0
  9
$UCSORGFRONT
 10
0.0
 20
0.0
 30
0.0
  9
$UCSORGBACK
 10
0.0
 20
0.0
 30
0.0
  9
$PUCSBASE
  2

  9
$PUCSNAME
  2

  9
$PUCSORG
 10
0.0
 20
0.0
 30
0.0
  9
$PUCSXDIR
 10
1.0
 20
0.0
 30
0.0
  9
$PUCSYDIR
 10
0.0
 20
1.0
 30
0.0
  9
$PUCSORTHOREF
  2

  9
$PUCSORTHOVIEW
 70
     0
  9
$PUCSORGTOP
 10
0.0
 20
0.0
 30
0.0
  9
$PUCSORGBOTTOM
 10
0.0
 20
0.0
 30
0.0
  9
$PUCSORGLEFT
 10
0.0
 20
0.0
 30
0.0
  9
$PUCSORGRIGHT
 10
0.0
 20
0.0
 30
0.0
  9
$PUCSORGFRONT
 10
0.0
 20
0.0
 30
0.0
  9
$PUCSORGBACK
 10
0.0
 20
0.0
 30
0.0
  9
$USERI1
 70
     0
  9
$USERI2
 70
     0
  9
$USERI3
 70
     0
  9
$USERI4
 70
     0
  9
$USERI5
 70
     0
  9
$USERR1
 40
0.0
  9
$USERR2
 40
0.0
  9
$USERR3
 40
0.0
  9
$USERR4
 40
0.0
  9
$USERR5
 40
0.0
  9
$WORLDVIEW
 70
     1
  9
$SHADEDGE
 70
     3
  9
$SHADEDIF
 70
    70
  9
$TILEMODE
 70
     1
  9
$MAXACTVP
 70
    64
  9
$PINSBASE
 10
0.0
 20
0.0
 30
0.0
  9
$PLIMCHECK
 70
     0
  9
$PEXTMIN
 10
0.8810907535112164
 20
1.007796737838248
 30
0.0
  9
$PEXTMAX
 10
196.3871801373418
 20
282.4773698118442
 30
0.0
  9
$PLIMMIN
 10
-6.043083190917968
 20
-6.720414161682128
  9
$PLIMMAX
 10
204.0149154663085
 20
290.2055807113647
  9
$UNITMODE
 70
     0
  9
$VISRETAIN
 70
     1
  9
$PLINEGEN
 70
     0
  9
$PSLTSCALE
 70
     1
  9
$TREEDEPTH
 70
  3020
  9
$CMLSTYLE
  2
Standard
  9
$CMLJUST
 70
     0
  9
$CMLSCALE
 40
20.0
  9
$PROXYGRAPHICS
 70
     1
  9
$MEASUREMENT
 70
     1
  9
$CELWEIGHT
370
    -1
  9
$ENDCAPS
280
     0
  9
$JOINSTYLE
280
     0
  9
$LWDISPLAY
290
     0
  9
$INSUNITS
 70
     4
  9
$HYPERLINKBASE
  1

  9
$STYLESHEET
  1

  9
$XEDIT
290
     1
  9
$CEPSNTYPE
380
     0
  9
$PSTYLEMODE
290
     1
  9
$FINGERPRINTGUID
  2
{EB501956-3997-4F2D-B8E1-A36BFC11541A}
  9
$VERSIONGUID
  2
{A87F45DF-56BB-4488-A9A2-D804F2E1897A}
  9
$EXTNAMES
290
     1
  9
$PSVPSCALE
 40
0.0
  9
$OLESTARTUP
290
     0
  0
ENDSEC
  0
SECTION
  2
CLASSES
  0
CLASS
  1
ACDBDICTIONARYWDFLT
  2
AcDbDictionaryWithDefault
  3
AutoCAD 2000
 90
        0
280
     0
281
     0
  0
CLASS
  1
ACDBPLACEHOLDER
  2
AcDbPlaceHolder
  3
AutoCAD 2000
 90
        0
280
     0
281
     0
  0
CLASS
  1
LAYOUT
  2
AcDbLayout
  3
AutoCAD 2000
 90
        0
280
     0
281
     0
  0
CLASS
  1
DIMASSOC
  2
AcDbDimAssoc
  3
"AcDbDimAssoc|Product Desc:     AcDim ARX App For Dimension|Company:          Autodesk, Inc.|WEB Address:      www.autodesk.com"
 90
        0
280
     0
281
     0
  0
CLASS
  1
DICTIONARYVAR
  2
AcDbDictionaryVar
  3
AutoCAD 2000
 90
        0
280
     0
281
     0
  0
ENDSEC
  0
SECTION
  2
TABLES
  0
TABLE
  2
VPORT
  5
17E
330
0
100
AcDbSymbolTable
 70
     4
  0
VPORT
  5
191
330
17E
100
AcDbSymbolTableRecord
100
AcDbViewportTableRecord
  2
*Active
 70
     0
 10
0.0
 20
0.0
 11
1.0
 21
1.0
 12
1941.010726269652
 22
1158.395793661379
 13
0.0
 23
0.0
 14
10.0
 24
10.0
 15
10.0
 25
10.0
 16
0.0
 26
0.0
 36
1.0
 17
0.0
 27
0.0
 37
0.0
 40
769.8152373372112
 41
1.786259541984732
 42
50.0
 43
0.0
 44
0.0
 50
0.0
 51
0.0
 71
     0
 72
   100
 73
     1
 74
     3
 75
     0
 76
     0
 77
     0
 78
     0
281
     0
 65
     1
110
0.0
120
0.0
130
0.0
111
1.0
121
0.0
131
0.0
112
0.0
122
1.0
132
0.0
 79
     0
146
0.0
  0
ENDTAB
  0
TABLE
  2
LTYPE
  5
179
330
0
100
AcDbSymbolTable
 70
     3
  0
LTYPE
  5
17A
330
179
100
AcDbSymbolTableRecord
100
AcDbLinetypeTableRecord
  2
ByBlock
 70
     0
  3

 72
    65
 73
     0
 40
0.0
  0
LTYPE
  5
17B
330
179
100
AcDbSymbolTableRecord
100
AcDbLinetypeTableRecord
  2
ByLayer
 70
     0
  3

 72
    65
 73
     0
 40
0.0
  0
LTYPE
  5
A
330
179
100
AcDbSymbolTableRecord
100
AcDbLinetypeTableRecord
  2
Continuous
 70
     0
  3
Solid line
 72
    65
 73
     0
 40
0.0
  0
LTYPE
  5
1F
330
179
100
AcDbSymbolTableRecord
100
AcDbLinetypeTableRecord
  2
ACAD_ISO03W100
 70
     0
  3
ISO dash space __    __    __    __    __    __
 72
    65
 73
     2
 40
30.0
 49
12.0
 74
     0
 49
-18.0
 74
     0
  0
LTYPE
  5
6D
330
179
100
AcDbSymbolTableRecord
100
AcDbLinetypeTableRecord
  2
DASHED
 70
     0
  3
__ __ __ __ __ __ __ __ __
 72
    65
 73
     2
 40
0.75
 49
0.5
 74
     0
 49
-0.25
 74
     0
  0
ENDTAB
  0
TABLE
  2
LAYER
  5
176
330
0
100
AcDbSymbolTable
 70
    44
  0
LAYER
  5
6
330
176
100
AcDbSymbolTableRecord
100
AcDbLayerTableRecord
  2
0
 70
     0
 62
     7
  6
Continuous
370
    -3
390
7
  0
LAYER
  5
12A
330
176
100
AcDbSymbolTableRecord
100
AcDbLayerTableRecord
  2
VM001I1$010
 70
     0
 62
     7
  6
Continuous
370
    -3
390
7
  0
LAYER
  5
128
330
176
100
AcDbSymbolTableRecord
100
AcDbLayerTableRecord
  2
VE001I1$101
 70
     0
 62
     7
  6
Continuous
370
    -3
390
7
  0
LAYER
  5
10A
330
176
100
AcDbSymbolTableRecord
100
AcDbLayerTableRecord
  2
VM001I2$010
 70
     0
 62
     7
  6
Continuous
370
    -3
390
7
  0
LAYER
  5
108
330
176
100
AcDbSymbolTableRecord
100
AcDbLayerTableRecord
  2
VE001I2$101
 70
     0
 62
     7
  6
Continuous
370
    -3
390
7
  0
LAYER
  5
11A
330
176
100
AcDbSymbolTableRecord
100
AcDbLayerTableRecord
  2
VM001I3$010
 70
     0
 62
     7
  6
Continuous
370
    -3
390
7
  0
LAYER
  5
118
330
176
100
AcDbSymbolTableRecord
100
AcDbLayerTableRecord
  2
VE001I3$101
 70
     0
 62
     7
  6
Continuous
370
    -3
390
7
  0
LAYER
  5
122
330
176
100
AcDbSymbolTableRecord
100
AcDbLayerTableRecord
  2
VM001I4$010
 70
     0
 62
     7
  6
Continuous
370
    -3
390
7
  0
LAYER
  5
120
330
176
100
AcDbSymbolTableRecord
100
AcDbLayerTableRecord
  2
VE001I4$101
 70
     0
 62
     7
  6
Continuous
370
    -3
390
7
  0
LAYER
  5
DE
330
176
100
AcDbSymbolTableRecord
100
AcDbLayerTableRecord
  2
VM001I5$010
 70
     0
 62
     7
  6
Continuous
370
    -3
390
7
  0
LAYER
  5
DC
330
176
100
AcDbSymbolTableRecord
100
AcDbLayerTableRecord
  2
VE001I5$101
 70
     0
 62
     7
  6
Continuous
370
    -3
390
7
  0
LAYER
  5
116
330
176
100
AcDbSymbolTableRecord
100
AcDbLayerTableRecord
  2
VM001I6$010
 70
     0
 62
     7
  6
Continuous
370
    -3
390
7
  0
LAYER
  5
114
330
176
100
AcDbSymbolTableRecord
100
AcDbLayerTableRecord
  2
VE001I6$101
 70
     0
 62
     7
  6
Continuous
370
    -3
390
7
  0
LAYER
  5
112
330
176
100
AcDbSymbolTableRecord
100
AcDbLayerTableRecord
  2
VM001I8$010
 70
     0
 62
     7
  6
Continuous
370
    -3
390
7
  0
LAYER
  5
110
330
176
100
AcDbSymbolTableRecord
100
AcDbLayerTableRecord
  2
VE001I8$101
 70
     0
 62
     7
  6
Continuous
370
    -3
390
7
  0
LAYER
  5
138
330
176
100
AcDbSymbolTableRecord
100
AcDbLayerTableRecord
  2
VM001I11$010
 70
     0
 62
     7
  6
Continuous
370
    -3
390
7
  0
LAYER
  5
13A
330
176
100
AcDbSymbolTableRecord
100
AcDbLayerTableRecord
  2
VE001I11$101
 70
     0
 62
     7
  6
Continuous
370
    -3
390
7
  0
LAYER
  5
150
330
176
100
AcDbSymbolTableRecord
100
AcDbLayerTableRecord
  2
VM001I13$010
 70
     0
 62
     7
  6
Continuous
370
    -3
390
7
  0
LAYER
  5
14E
330
176
100
AcDbSymbolTableRecord
100
AcDbLayerTableRecord
  2
VE001I13$101
 70
     0
 62
     7
  6
Continuous
370
    -3
390
7
  0
LAYER
  5
152
330
176
100
AcDbSymbolTableRecord
100
AcDbLayerTableRecord
  2
VM001I15$010
 70
     0
 62
     7
  6
Continuous
370
    -3
390
7
  0
LAYER
  5
154
330
176
100
AcDbSymbolTableRecord
100
AcDbLayerTableRecord
  2
VE001I15$101
 70
     0
 62
     7
  6
Continuous
370
    -3
390
7
  0
LAYER
  5
100
330
176
100
AcDbSymbolTableRecord
100
AcDbLayerTableRecord
  2
VM001I18$010
 70
     0
 62
     7
  6
Continuous
370
    -3
390
7
  0
LAYER
  5
102
330
176
100
AcDbSymbolTableRecord
100
AcDbLayerTableRecord
  2
VE001I18$101
 70
     0
 62
     7
  6
Continuous
370
    -3
390
7
  0
LAYER
  5
136
330
176
100
AcDbSymbolTableRecord
100
AcDbLayerTableRecord
  2
VM001I21$010
 70
     0
 62
     7
  6
Continuous
370
    -3
390
7
  0
LAYER
  5
134
330
176
100
AcDbSymbolTableRecord
100
AcDbLayerTableRecord
  2
VE001I21$101
 70
     0
 62
     7
  6
Continuous
370
    -3
390
7
  0
LAYER
  5
10C
330
176
100
AcDbSymbolTableRecord
100
AcDbLayerTableRecord
  2
VM001I22$010
 70
     0
 62
     7
  6
Continuous
370
    -3
390
7
  0
LAYER
  5
10E
330
176
100
AcDbSymbolTableRecord
100
AcDbLayerTableRecord
  2
VE001I22$101
 70
     0
 62
     7
  6
Continuous
370
    -3
390
7
  0
LAYER
  5
106
330
176
100
AcDbSymbolTableRecord
100
AcDbLayerTableRecord
  2
VM001I25$010
 70
     0
 62
     7
  6
Continuous
370
    -3
390
7
  0
LAYER
  5
104
330
176
100
AcDbSymbolTableRecord
100
AcDbLayerTableRecord
  2
VE001I25$101
 70
     0
 62
     7
  6
Continuous
370
    -3
390
7
  0
LAYER
  5
DA
330
176
100
AcDbSymbolTableRecord
100
AcDbLayerTableRecord
  2
VM001I26$010
 70
     0
 62
     7
  6
Continuous
370
    -3
390
7
  0
LAYER
  5
D8
330
176
100
AcDbSymbolTableRecord
100
AcDbLayerTableRecord
  2
VE001I26$101
 70
     0
 62
     7
  6
Continuous
370
    -3
390
7
  0
LAYER
  5
F7
330
176
100
AcDbSymbolTableRecord
100
AcDbLayerTableRecord
  2
VM001I27$010
 70
     0
 62
     7
  6
Continuous
370
    -3
390
7
  0
LAYER
  5
F5
330
176
100
AcDbSymbolTableRecord
100
AcDbLayerTableRecord
  2
VE001I27$101
 70
     0
 62
     7
  6
Continuous
370
    -3
390
7
  0
LAYER
  5
126
330
176
100
AcDbSymbolTableRecord
100
AcDbLayerTableRecord
  2
VM001I29$010
 70
     0
 62
     7
  6
Continuous
370
    -3
390
7
  0
LAYER
  5
124
330
176
100
AcDbSymbolTableRecord
100
AcDbLayerTableRecord
  2
VE001I29$101
 70
     0
 62
     7
  6
Continuous
370
    -3
390
7
  0
LAYER
  5
11E
330
176
100
AcDbSymbolTableRecord
100
AcDbLayerTableRecord
  2
VM001I32$010
 70
     0
 62
     7
  6
Continuous
370
    -3
390
7
  0
LAYER
  5
11C
330
176
100
AcDbSymbolTableRecord
100
AcDbLayerTableRecord
  2
VE001I32$101
 70
     0
 62
     7
  6
Continuous
370
    -3
390
7
  0
LAYER
  5
12E
330
176
100
AcDbSymbolTableRecord
100
AcDbLayerTableRecord
  2
VM001I34$010
 70
     0
 62
     7
  6
Continuous
370
    -3
390
7
  0
LAYER
  5
12C
330
176
100
AcDbSymbolTableRecord
100
AcDbLayerTableRecord
  2
VE001I34$101
 70
     0
 62
     7
  6
Continuous
370
    -3
390
7
  0
LAYER
  5
15
330
176
100
AcDbSymbolTableRecord
100
AcDbLayerTableRecord
  2
Defpoints
 70
     0
 62
     7
  6
Continuous
290
     0
370
    -3
390
7
  0
LAYER
  5
BE
330
176
100
AcDbSymbolTableRecord
100
AcDbLayerTableRecord
  2
W018
 70
     0
 62
     1
  6
Continuous
370
    -3
390
7
  0
LAYER
  5
7D
330
176
100
AcDbSymbolTableRecord
100
AcDbLayerTableRecord
  2
SHAFT
 70
     0
 62
     7
  6
Continuous
370
    -3
390
7
  0
LAYER
  5
59
330
176
100
AcDbSymbolTableRecord
100
AcDbLayerTableRecord
  2
CURTAIN
 70
     0
 62
     7
  6
Continuous
370
    -3
390
7
  0
LAYER
  5
5D
330
176
100
AcDbSymbolTableRecord
100
AcDbLayerTableRecord
  2
DISC-DRUM
 70
     0
 62
     7
  6
Continuous
370
    -3
390
7
  0
ENDTAB
  0
TABLE
  2
STYLE
  5
177
330
0
100
AcDbSymbolTable
 70
     2
  0
STYLE
  5
B
330
177
100
AcDbSymbolTableRecord
100
AcDbTextStyleTableRecord
  2
Standard
 70
     0
 40
5.0
 41
1.0
 50
0.0
 71
     0
 42
5.0
  3
txt.shx
  4

  0
STYLE
  5
8D
330
177
100
AcDbSymbolTableRecord
100
AcDbTextStyleTableRecord
  2
ATTR
 70
     0
 40
0.684582934343954
 41
0.8
 50
0.0
 71
     0
 42
0.684582934343954
  3
romans.shx
  4

  0
ENDTAB
  0
TABLE
  2
VIEW
  5
17C
330
0
100
AcDbSymbolTable
 70
     0
  0
ENDTAB
  0
TABLE
  2
UCS
  5
17D
330
0
100
AcDbSymbolTable
 70
     0
  0
ENDTAB
  0
TABLE
  2
APPID
  5
180
330
0
100
AcDbSymbolTable
 70
     1
  0
APPID
  5
1A
330
180
100
AcDbSymbolTableRecord
100
AcDbRegAppTableRecord
  2
ACAD
 70
     0
  0
ENDTAB
  0
TABLE
  2
DIMSTYLE
  5
181
330
0
100
AcDbSymbolTable
 70
     1
100
AcDbDimStyleTable
 71
     1
340
C
  0
DIMSTYLE
105
C
102
{ACAD_REACTORS
330
3
330
22
330
3E
330
E4
330
31
330
55
330
56
330
57
330
69
330
6A
330
6B
330
72
330
73
330
79
330
80
330
81
330
82
330
AF
330
B6
330
B7
330
E3
330
FC
330
162
330
166
102
}
330
181
100
AcDbSymbolTableRecord
100
AcDbDimStyleTableRecord
  2
ISO-25
 70
     0
 41
11.0
 42
3.0
 43
3.75
 44
1.25
 73
     0
 77
     1
 78
     8
140
20.0
141
2.5
143
0.03937007874016
147
3.0
171
     3
172
     1
271
     2
272
     2
274
     3
283
     0
284
     8
340
B
  0
ENDTAB
  0
TABLE
  2
BLOCK_RECORD
  5
1
330
0
100
AcDbSymbolTable
 70
     6
  0
BLOCK_RECORD
  5
2
330
1
100
AcDbSymbolTableRecord
100
AcDbBlockTableRecord
  2
*Model_Space
340
16C
  0
BLOCK_RECORD
  5
16E
330
1
100
AcDbSymbolTableRecord
100
AcDbBlockTableRecord
  2
*Paper_Space
340
175
  0
BLOCK_RECORD
  5
8E
330
1
100
AcDbSymbolTableRecord
100
AcDbBlockTableRecord
  2
HN8S
340
0
102
{BLKREFS
331
8B
102
}
  0
BLOCK_RECORD
  5
D
330
1
100
AcDbSymbolTableRecord
100
AcDbBlockTableRecord
  2
*D1
340
0
  0
BLOCK_RECORD
  5
E7
330
1
100
AcDbSymbolTableRecord
100
AcDbBlockTableRecord
  2
*D2
340
0
  0
BLOCK_RECORD
  5
41
330
1
100
AcDbSymbolTableRecord
100
AcDbBlockTableRecord
  2
*D3
340
0
  0
BLOCK_RECORD
  5
32
330
1
100
AcDbSymbolTableRecord
100
AcDbBlockTableRecord
  2
*D4
340
0
  0
BLOCK_RECORD
  5
23
330
1
100
AcDbSymbolTableRecord
100
AcDbBlockTableRecord
  2
*D5
340
0
  0
ENDTAB
  0
ENDSEC
  0
SECTION
  2
BLOCKS
  0
BLOCK
  5
16A
330
2
100
AcDbEntity
  8
0
100
AcDbBlockBegin
  2
*Model_Space
 70
     0
 10
0.0
 20
0.0
 30
0.0
  3
*Model_Space
  1

  0
ENDBLK
  5
16B
330
2
100
AcDbEntity
  8
0
100
AcDbBlockEnd
  0
BLOCK
  5
173
330
16E
100
AcDbEntity
 67
     1
  8
0
100
AcDbBlockBegin
  2
*Paper_Space
 70
     0
 10
0.0
 20
0.0
 30
0.0
  3
*Paper_Space
  1

  0
ENDBLK
  5
174
330
16E
100
AcDbEntity
 67
     1
  8
0
100
AcDbBlockEnd
  0
BLOCK
  5
9C
330
8E
100
AcDbEntity
  8
0
100
AcDbBlockBegin
  2
HN8S
 70
     2
 10
0.0
 20
0.0
 30
0.0
  3
HN8S
  1

  0
ATTDEF
  5
8F
330
8E
100
AcDbEntity
  8
0
100
AcDbText
 10
0.0
 20
0.0
 30
0.0
 40
0.328970833333334
  1

 41
0.8
  7
ATTR
100
AcDbAttributeDefinition
  3

  2
ESTCODE
 70
     9
  0
ARC
  5
90
330
8E
100
AcDbEntity
  8
0
  6
Continuous
 62
     0
100
AcDbCircle
 10
-3.978864384775
 20
-5.540505749675001
 30
0.0
 40
3.403010615225
100
AcDbArc
 50
147.13278
 51
212.86722
  0
ARC
  5
91
330
8E
100
AcDbEntity
  8
0
  6
Continuous
 62
     0
100
AcDbCircle
 10
-3.403010615225
 20
-5.540505749675001
 30
0.0
 40
3.403010615225
100
AcDbArc
 50
327.13278
 51
32.86722000000003
  0
LINE
  5
92
330
8E
100
AcDbEntity
  8
0
  6
Continuous
 62
     0
100
AcDbLine
 10
-0.5448204654749903
 20
-7.387340786312498
 30
0.0
 11
-6.837054534525009
 21
-7.387340786312505
 31
0.0
  0
ARC
  5
93
330
8E
100
AcDbEntity
  8
0
  6
Continuous
 62
     0
100
AcDbCircle
 10
-3.978864384775
 20
5.540505749674994
 30
0.0
 40
3.403010615225
100
AcDbArc
 50
147.13278
 51
212.86722
  0
LINE
  5
94
330
8E
100
AcDbEntity
  8
0
  6
Continuous
 62
     0
100
AcDbLine
 10
-7.381874999999999
 20
-5.540505749675001
 30
0.0
 11
-7.381874999999999
 21
5.540505749674994
 31
0.0
  0
ARC
  5
95
330
8E
100
AcDbEntity
  8
0
  6
Continuous
 62
     0
100
AcDbCircle
 10
-3.403010615225
 20
5.540505749674994
 30
0.0
 40
3.403010615225
100
AcDbArc
 50
327.13278
 51
32.86722000000003
  0
LINE
  5
96
330
8E
100
AcDbEntity
  8
0
  6
Continuous
 62
     0
100
AcDbLine
 10
0.0
 20
-5.540505749675001
 30
0.0
 11
0.0
 21
5.540505749674994
 31
0.0
  0
ARC
  5
97
330
8E
100
AcDbEntity
  8
0
  6
Continuous
 62
     0
100
AcDbCircle
 10
5.413375
 20
0.0
 30
0.0
 40
12.79525
100
AcDbArc
 50
163.22135
 51
196.77865
  0
ARC
  5
98
330
8E
100
AcDbEntity
  8
0
  6
Continuous
 62
     0
100
AcDbCircle
 10
-12.79525
 20
0.0
 30
0.0
 40
12.79525
100
AcDbArc
 50
343.2213500000001
 51
16.77865000000007
  0
LINE
  5
99
330
8E
100
AcDbEntity
  8
0
  6
Continuous
 62
     0
100
AcDbLine
 10
-0.5448204654749903
 20
-3.693670073274994
 30
0.0
 11
-6.837054534525009
 21
-3.693670073275007
 31
0.0
  0
LINE
  5
9A
330
8E
100
AcDbEntity
  8
0
  6
Continuous
 62
     0
100
AcDbLine
 10
-0.5448204654749903
 20
3.693670073274994
 30
0.0
 11
-6.837054534525009
 21
3.693670073274994
 31
0.0
  0
LINE
  5
9B
330
8E
100
AcDbEntity
  8
0
  6
Continuous
 62
     0
100
AcDbLine
 10
-0.5448204654749903
 20
7.387340786312505
 30
0.0
 11
-6.837054534525009
 21
7.387340786312492
 31
0.0
  0
ENDBLK
  5
9D
330
8E
100
AcDbEntity
  8
0
100
AcDbBlockEnd
  0
BLOCK
  5
18
330
D
100
AcDbEntity
  8
0
100
AcDbBlockBegin
  2
*D1
 70
     1
 10
0.0
 20
0.0
 30
0.0
  3
*D1
  1

  0
LINE
  5
E
330
D
100
AcDbEntity
  8
0
 62
     0
370
    -2
100
AcDbLine
 10
2147.472854741753
 20
1369.298021100176
 30
0.0
 11
2148.310822851934
 21
1369.298021100176
 31
0.0
  0
LINE
  5
F
330
D
100
AcDbEntity
  8
0
 62
     0
370
    -2
100
AcDbLine
 10
2147.472854741753
 20
1293.298021100176
 30
0.0
 11
2148.310822851934
 21
1293.298021100176
 31
0.0
  0
LINE
  5
10
330
D
100
AcDbEntity
  8
0
 62
     0
370
    -2
100
AcDbLine
 10
2149.560822851934
 20
1358.298021100176
 30
0.0
 11
2149.560822851934
 21
1304.298021100176
 31
0.0
  0
MTEXT
  5
11
330
D
100
AcDbEntity
  8
0
 62
     0
100
AcDbMText
 10
977.4015803112256
 20
1574.054508619052
 30
0.0
 40
5.0
 41
0.0
 71
     5
 72
     1
  1
76
 73
     1
 44
1.0
  0
SOLID
  5
12
330
D
100
AcDbEntity
  8
0
 62
     0
100
AcDbTrace
 10
2147.7274895186
 20
1358.298021100176
 30
0.0
 11
2151.394156185267
 21
1358.298021100176
 31
0.0
 12
2149.560822851934
 22
1369.298021100176
 32
0.0
 13
2149.560822851934
 23
1369.298021100176
 33
0.0
  0
SOLID
  5
13
330
D
100
AcDbEntity
  8
0
 62
     0
100
AcDbTrace
 10
2147.7274895186
 20
1304.298021100176
 30
0.0
 11
2151.394156185267
 21
1304.298021100176
 31
0.0
 12
2149.560822851934
 22
1293.298021100176
 32
0.0
 13
2149.560822851934
 23
1293.298021100176
 33
0.0
  0
POINT
  5
14
330
D
100
AcDbEntity
  8
Defpoints
 62
     0
100
AcDbPoint
 10
2150.472854741753
 20
1369.298021100176
 30
0.0
  0
POINT
  5
16
330
D
100
AcDbEntity
  8
Defpoints
 62
     0
100
AcDbPoint
 10
2150.472854741753
 20
1293.298021100176
 30
0.0
  0
POINT
  5
17
330
D
100
AcDbEntity
  8
Defpoints
 62
     0
100
AcDbPoint
 10
2149.560822851934
 20
1293.298021100176
 30
0.0
  0
ENDBLK
  5
19
330
D
100
AcDbEntity
  8
0
100
AcDbBlockEnd
  0
BLOCK
  5
F1
330
E7
100
AcDbEntity
  8
0
100
AcDbBlockBegin
  2
*D2
 70
     1
 10
0.0
 20
0.0
 30
0.0
  3
*D2
  1

  0
LINE
  5
E8
330
E7
100
AcDbEntity
  8
0
 62
     0
370
    -2
100
AcDbLine
 10
2209.793928557919
 20
1347.493034744531
 30
0.0
 11
2183.152408478539
 21
1347.493034744531
 31
0.0
  0
LINE
  5
E9
330
E7
100
AcDbEntity
  8
0
 62
     0
370
    -2
100
AcDbLine
 10
2209.793928557919
 20
1315.103007455821
 30
0.0
 11
2183.152408478539
 21
1315.103007455821
 31
0.0
  0
LINE
  5
EA
330
E7
100
AcDbEntity
  8
0
 62
     0
370
    -2
100
AcDbLine
 10
2184.402408478539
 20
1336.493034744531
 30
0.0
 11
2184.402408478539
 21
1326.103007455821
 31
0.0
  0
MTEXT
  5
EB
330
E7
100
AcDbEntity
  8
0
 62
     0
100
AcDbMText
 10
1296.051341949537
 20
1777.161304798494
 30
0.0
 40
5.0
 41
0.0
 71
     5
 72
     1
  1
25
 73
     1
 44
1.0
  0
SOLID
  5
EC
330
E7
100
AcDbEntity
  8
0
 62
     0
100
AcDbTrace
 10
2182.569075145206
 20
1336.493034744531
 30
0.0
 11
2186.235741811872
 21
1336.493034744531
 31
0.0
 12
2184.402408478539
 22
1347.493034744531
 32
0.0
 13
2184.402408478539
 23
1347.493034744531
 33
0.0
  0
SOLID
  5
ED
330
E7
100
AcDbEntity
  8
0
 62
     0
100
AcDbTrace
 10
2182.569075145206
 20
1326.103007455821
 30
0.0
 11
2186.235741811872
 21
1326.103007455821
 31
0.0
 12
2184.402408478539
 22
1315.103007455821
 32
0.0
 13
2184.402408478539
 23
1315.103007455821
 33
0.0
  0
POINT
  5
EE
330
E7
100
AcDbEntity
  8
Defpoints
 62
     0
100
AcDbPoint
 10
2212.793928557919
 20
1347.493034744531
 30
0.0
  0
POINT
  5
EF
330
E7
100
AcDbEntity
  8
Defpoints
 62
     0
100
AcDbPoint
 10
2212.793928557919
 20
1315.103007455821
 30
0.0
  0
POINT
  5
F0
330
E7
100
AcDbEntity
  8
Defpoints
 62
     0
100
AcDbPoint
 10
2184.402408478539
 20
1315.103007455821
 30
0.0
  0
ENDBLK
  5
F2
330
E7
100
AcDbEntity
  8
0
100
AcDbBlockEnd
  0
BLOCK
  5
4B
330
41
100
AcDbEntity
  8
0
100
AcDbBlockBegin
  2
*D3
 70
     1
 10
0.0
 20
0.0
 30
0.0
  3
*D3
  1

  0
LINE
  5
42
330
41
100
AcDbEntity
  8
0
 62
     0
370
    -2
100
AcDbLine
 10
2212.793928557919
 20
1262.231254163963
 30
0.0
 11
2212.793928557919
 21
1263.273895145431
 31
0.0
  0
LINE
  5
43
330
41
100
AcDbEntity
  8
0
 62
     0
370
    -2
100
AcDbLine
 10
2257.793928557919
 20
1294.879729685759
 30
0.0
 11
2257.793928557919
 21
1263.273895145431
 31
0.0
  0
LINE
  5
44
330
41
100
AcDbEntity
  8
0
 62
     0
370
    -2
100
AcDbLine
 10
2223.793928557919
 20
1264.523895145431
 30
0.0
 11
2246.793928557919
 21
1264.523895145431
 31
0.0
  0
MTEXT
  5
45
330
41
100
AcDbEntity
  8
0
 62
     0
100
AcDbMText
 10
1355.425039236364
 20
1683.54142358524
 30
0.0
 40
5.0
 41
0.0
 71
     5
 72
     1
  1
45
 73
     1
 44
1.0
  0
SOLID
  5
46
330
41
100
AcDbEntity
  8
0
 62
     0
100
AcDbTrace
 10
2223.793928557919
 20
1266.357228478764
 30
0.0
 11
2223.793928557919
 21
1262.690561812098
 31
0.0
 12
2212.793928557919
 22
1264.523895145431
 32
0.0
 13
2212.793928557919
 23
1264.523895145431
 33
0.0
  0
SOLID
  5
47
330
41
100
AcDbEntity
  8
0
 62
     0
100
AcDbTrace
 10
2246.793928557919
 20
1266.357228478764
 30
0.0
 11
2246.793928557919
 21
1262.690561812098
 31
0.0
 12
2257.793928557919
 22
1264.523895145431
 32
0.0
 13
2257.793928557919
 23
1264.523895145431
 33
0.0
  0
POINT
  5
48
330
41
100
AcDbEntity
  8
Defpoints
 62
     0
100
AcDbPoint
 10
2212.793928557919
 20
1265.231254163963
 30
0.0
  0
POINT
  5
49
330
41
100
AcDbEntity
  8
Defpoints
 62
     0
100
AcDbPoint
 10
2257.793928557919
 20
1297.87972968576
 30
0.0
  0
POINT
  5
4A
330
41
100
AcDbEntity
  8
Defpoints
 62
     0
100
AcDbPoint
 10
2257.793928557919
 20
1264.523895145431
 30
0.0
  0
ENDBLK
  5
4C
330
41
100
AcDbEntity
  8
0
100
AcDbBlockEnd
  0
BLOCK
  5
3C
330
32
100
AcDbEntity
  8
0
100
AcDbBlockBegin
  2
*D4
 70
     1
 10
0.0
 20
0.0
 30
0.0
  3
*D4
  1

  0
LINE
  5
33
330
32
100
AcDbEntity
  8
0
 62
     0
370
    -2
100
AcDbLine
 10
2212.793928557919
 20
1244.181042292463
 30
0.0
 11
2212.793928557919
 21
1242.431042292464
 31
0.0
  0
LINE
  5
34
330
32
100
AcDbEntity
  8
0
 62
     0
370
    -2
100
AcDbLine
 10
2278.171021375942
 20
1294.879729685759
 30
0.0
 11
2278.171021375942
 21
1239.931042292464
 31
0.0
  0
LINE
  5
35
330
32
100
AcDbEntity
  8
0
 62
     0
370
    -2
100
AcDbLine
 10
2223.793928557919
 20
1241.181042292463
 30
0.0
 11
2267.171021375942
 21
1241.181042292463
 31
0.0
  0
MTEXT
  5
36
330
32
100
AcDbEntity
  8
0
 62
     0
100
AcDbMText
 10
1361.674902516526
 20
1727.230701096219
 30
0.0
 40
5.0
 41
0.0
 71
     5
 72
     1
  1
63
 73
     1
 44
1.0
  0
SOLID
  5
37
330
32
100
AcDbEntity
  8
0
 62
     0
100
AcDbTrace
 10
2223.793928557919
 20
1243.014375625797
 30
0.0
 11
2223.793928557919
 21
1239.34770895913
 31
0.0
 12
2212.793928557919
 22
1241.181042292463
 32
0.0
 13
2212.793928557919
 23
1241.181042292463
 33
0.0
  0
SOLID
  5
38
330
32
100
AcDbEntity
  8
0
 62
     0
100
AcDbTrace
 10
2267.171021375942
 20
1243.014375625797
 30
0.0
 11
2267.171021375942
 21
1239.34770895913
 31
0.0
 12
2278.171021375942
 22
1241.181042292463
 32
0.0
 13
2278.171021375942
 23
1241.181042292463
 33
0.0
  0
POINT
  5
39
330
32
100
AcDbEntity
  8
Defpoints
 62
     0
100
AcDbPoint
 10
2212.793928557919
 20
1241.181042292463
 30
0.0
  0
POINT
  5
3A
330
32
100
AcDbEntity
  8
Defpoints
 62
     0
100
AcDbPoint
 10
2278.171021375942
 20
1297.87972968576
 30
0.0
  0
POINT
  5
3B
330
32
100
AcDbEntity
  8
Defpoints
 62
     0
100
AcDbPoint
 10
2278.171021375942
 20
1241.181042292463
 30
0.0
  0
ENDBLK
  5
3D
330
32
100
AcDbEntity
  8
0
100
AcDbBlockEnd
  0
BLOCK
  5
2D
330
23
100
AcDbEntity
  8
0
100
AcDbBlockBegin
  2
*D5
 70
     1
 10
0.0
 20
0.0
 30
0.0
  3
*D5
  1

  0
LINE
  5
24
330
23
100
AcDbEntity
  8
0
 62
     0
370
    -2
100
AcDbLine
 10
2212.793928557919
 20
1209.079884106737
 30
0.0
 11
2212.793928557919
 21
1195.783321729206
 31
0.0
  0
LINE
  5
25
330
23
100
AcDbEntity
  8
0
 62
     0
370
    -2
100
AcDbLine
 10
2365.793928557919
 20
1209.079884106737
 30
0.0
 11
2365.793928557919
 21
1195.783321729206
 31
0.0
  0
LINE
  5
26
330
23
100
AcDbEntity
  8
0
 62
     0
370
    -2
100
AcDbLine
 10
2223.793928557919
 20
1197.033321729206
 30
0.0
 11
2354.793928557918
 21
1197.033321729206
 31
0.0
  0
MTEXT
  5
27
330
23
100
AcDbEntity
  8
0
 62
     0
100
AcDbMText
 10
1619.504956851773
 20
1588.965727092982
 30
0.0
 40
5.0
 41
0.0
 71
     5
 72
     1
  1
153
 73
     1
 44
1.0
  0
SOLID
  5
28
330
23
100
AcDbEntity
  8
0
 62
     0
100
AcDbTrace
 10
2223.793928557919
 20
1198.866655062539
 30
0.0
 11
2223.793928557919
 21
1195.199988395873
 31
0.0
 12
2212.793928557919
 22
1197.033321729206
 32
0.0
 13
2212.793928557919
 23
1197.033321729206
 33
0.0
  0
SOLID
  5
29
330
23
100
AcDbEntity
  8
0
 62
     0
100
AcDbTrace
 10
2354.793928557918
 20
1198.866655062539
 30
0.0
 11
2354.793928557918
 21
1195.199988395873
 31
0.0
 12
2365.793928557919
 22
1197.033321729206
 32
0.0
 13
2365.793928557919
 23
1197.033321729206
 33
0.0
  0
POINT
  5
2A
330
23
100
AcDbEntity
  8
Defpoints
 62
     0
100
AcDbPoint
 10
2212.793928557919
 20
1212.079884106737
 30
0.0
  0
POINT
  5
2B
330
23
100
AcDbEntity
  8
Defpoints
 62
     0
100
AcDbPoint
 10
2365.793928557919
 20
1212.079884106737
 30
0.0
  0
POINT
  5
2C
330
23
100
AcDbEntity
  8
Defpoints
 62
     0
100
AcDbPoint
 10
2365.793928557919
 20
1197.033321729206
 30
0.0
  0
ENDBLK
  5
2E
330
23
100
AcDbEntity
  8
0
100
AcDbBlockEnd
  0
ENDSEC
  0
SECTION
  2
ENTITIES
  0
DIMENSION
  5
3
102
{ACAD_XDICTIONARY
360
4
102
}
102
{ACAD_REACTORS
330
5
102
}
330
2
100
AcDbEntity
  8
0
100
AcDbDimension
  2
*D1
 10
2149.560822851934
 20
1293.298021100176
 30
0.0
 11
977.4015803112256
 21
1574.054508619052
 31
0.0
 70
   160
 71
     5
 42
76.0
  3
ISO-25
100
AcDbAlignedDimension
 13
2150.472854741753
 23
1369.298021100176
 33
0.0
 14
2150.472854741753
 24
1293.298021100176
 34
0.0
 50
90.0
100
AcDbRotatedDimension
1001
ACAD
1000
DSTYLE
1002
{
1070
   279
1070
     2
1002
}
  0
MTEXT
  5
1B
330
2
100
AcDbEntity
  8
0
100
AcDbMText
 10
2049.915562500019
 20
786.6268911726481
 30
0.0
 40
6.0
 41
483.8068999999999
 71
     1
 72
     5
  1
N.B. A MANUAL RELEASE MECHANISM IS NOT AVAILABLE WITH THIS PRODUCT
 73
     1
 44
1.0
  0
LINE
  5
1C
330
2
100
AcDbEntity
  8
0
100
AcDbLine
 10
2409.845468040817
 20
954.577400917663
 30
0.0
 11
2106.794521370204
 21
954.577400917663
 31
0.0
  0
MTEXT
  5
1D
330
2
100
AcDbEntity
  8
0
100
AcDbMText
 10
2291.591452790685
 20
832.6903949844203
 30
0.0
 40
10.0
 41
539.4878999999999
 71
     2
 72
     5
  1
{\fArial|b1|i0|c0|p34;ELEVATION OF DOOR OPENING WITH CUTAWAY SECTION SHOWING THE TUBULAR MOTORIZED DRUM INSTALLED IN THE BULKHEAD}
 73
     1
 44
1.0
  0
LINE
  5
1E
330
2
100
AcDbEntity
  8
0
  6
ACAD_ISO03W100
 48
0.5
100
AcDbLine
 10
2093.762431373734
 20
1293.298021100176
 30
0.0
 11
2212.506896668099
 21
1293.298021100176
 31
0.0
  0
LINE
  5
20
102
{ACAD_REACTORS
330
5
102
}
330
2
100
AcDbEntity
  8
0
  6
ACAD_ISO03W100
 48
0.5
100
AcDbLine
 10
2092.973018676645
 20
1369.298021100176
 30
0.0
 11
2212.506896668099
 21
1369.298021100176
 31
0.0
  0
MTEXT
  5
21
330
2
100
AcDbEntity
  8
0
100
AcDbMText
 10
2028.708210663512
 20
1354.619926673469
 30
0.0
 40
6.0
 41
116.9449134660868
 71
     1
 72
     5
  1
76mm MINIMUM SLOT IN UNDERSIDE OF BULKHEAD, FOR ENTIRE LENGTH OF ROLLER DOOR, TO ACCOMODATE BOTTOM RAIL
 73
     1
 44
1.0
  0
DIMENSION
  5
22
330
2
100
AcDbEntity
  8
0
100
AcDbDimension
  2
*D5
 10
2365.793928557919
 20
1197.033321729206
 30
0.0
 11
1619.504956851773
 21
1588.965727092982
 31
0.0
 70
   160
 71
     5
 42
153.0
  3
ISO-25
100
AcDbAlignedDimension
 13
2212.793928557919
 23
1212.079884106737
 33
0.0
 14
2365.793928557919
 24
1212.079884106737
 34
0.0
100
AcDbRotatedDimension
1001
ACAD
1000
DSTYLE
1002
{
1070
   279
1070
     2
1002
}
  0
MTEXT
  5
2F
330
2
100
AcDbEntity
  8
0
100
AcDbMText
 10
2103.531370084323
 20
1071.880952495743
 30
0.0
 40
6.0
 41
87.57519999999999
 71
     1
 72
     5
  1
ALTERNATIVE END ACCESS PANEL
 73
     1
 44
1.0
  0
MTEXT
  5
30
330
2
100
AcDbEntity
  8
0
100
AcDbMText
 10
1979.724228003444
 20
1018.362092205812
 30
0.0
 40
6.0
 41
128.5426325581444
 71
     1
 72
     5
  3
REMOVABLE SOFFIT ACCESS PANELS, DIVIDED INTO MANAGEABLE SECTIONS OVER ENTIRE LENGTH OF THE OPENING. THIS IS TO PROVIDE FUTURE ACCESS FOR SERVICING AND ADJUSTMENT OF MOTOR LIMITS.\P\PPLEASE NOTE: THE ENTIRE SOFFIT AND REAR OF THE COLUMN MUST BE LEFT C
  1
LEAR UNTIL THE DOOR HAS BEEN INSTALLED
 73
     1
 44
1.0
  0
DIMENSION
  5
31
330
2
100
AcDbEntity
  8
0
100
AcDbDimension
  2
*D4
 10
2278.171021375942
 20
1241.181042292463
 30
0.0
 11
1361.674902516526
 21
1727.230701096219
 31
0.0
 70
   160
  1
63
 71
     5
 42
65.3770928180229
  3
ISO-25
100
AcDbAlignedDimension
 13
2212.793928557919
 23
1241.181042292463
 33
0.0
 14
2278.171021375942
 24
1297.87972968576
 34
0.0
100
AcDbRotatedDimension
1001
ACAD
1000
DSTYLE
1002
{
1070
   279
1070
     2
1002
}
  0
DIMENSION
  5
3E
102
{ACAD_XDICTIONARY
360
3F
102
}
102
{ACAD_REACTORS
330
40
102
}
330
2
100
AcDbEntity
  8
0
100
AcDbDimension
  2
*D3
 10
2257.793928557919
 20
1264.523895145431
 30
0.0
 11
1355.425039236364
 21
1683.54142358524
 31
0.0
 70
   160
 71
     5
 42
44.99999999999954
  3
ISO-25
100
AcDbAlignedDimension
 13
2212.793928557919
 23
1265.231254163963
 33
0.0
 14
2257.793928557919
 24
1297.87972968576
 34
0.0
100
AcDbRotatedDimension
1001
ACAD
1000
DSTYLE
1002
{
1070
   279
1070
     2
1002
}
  0
LINE
  5
4D
330
2
100
AcDbEntity
  8
0
100
AcDbLine
 10
2375.793928557919
 20
1450.516158093616
 30
0.0
 11
2375.793928557919
 21
1212.079884106737
 31
0.0
  0
LINE
  5
4E
330
2
100
AcDbEntity
  8
0
100
AcDbLine
 10
2365.793928557919
 20
1222.079884106737
 30
0.0
 11
2365.793928557919
 21
1440.516158093616
 31
0.0
  0
LINE
  5
4F
102
{ACAD_REACTORS
330
E6
330
40
102
}
330
2
100
AcDbEntity
  8
0
100
AcDbLine
 10
2212.793928557919
 20
1315.103007455821
 30
0.0
 11
2212.793928557919
 21
1217.079884106737
 31
0.0
  0
LINE
  5
50
330
2
100
AcDbEntity
  8
0
100
AcDbLine
 10
2222.793928557919
 20
1315.103007455821
 30
0.0
 11
2222.793928557919
 21
1222.079884106737
 31
0.0
  0
MTEXT
  5
51
330
2
100
AcDbEntity
  8
0
100
AcDbMText
 10
2493.540098340126
 20
990.0703061674063
 30
0.0
 40
6.0
 41
146.6047730497262
 71
     1
 72
     5
  1
TUBULAR MOTOR EXTERNAL CABLING, INCLUDING LIMIT SWITCHES
 73
     1
 44
1.0
  0
MTEXT
  5
52
330
2
100
AcDbEntity
  8
0
100
AcDbMText
 10
2497.580781963279
 20
1104.357007069471
 30
0.0
 40
6.0
 41
123.2232798507039
 71
     1
 72
     5
  1
TUBULAR MOTOR WITHIN THE 100mm ALUMINIUM TUBE DRUM (CAN BE MANUFACTURED TO BE EITHER END)
 73
     1
 44
1.0
  0
MTEXT
  5
53
330
2
100
AcDbEntity
  8
0
100
AcDbMText
 10
2496.977857896533
 20
1039.392867096728
 30
0.0
 40
6.0
 41
87.88055990339703
 71
     1
 72
     5
  1
ALTERNATIVE END ACCESS PANEL
 73
     1
 44
1.0
  0
MTEXT
  5
54
330
2
100
AcDbEntity
  8
0
100
AcDbMText
 10
2495.212576323408
 20
942.4752429599308
 30
0.0
 40
6.0
 41
137.3218
 71
     1
 72
     5
  1
TO 4-PIN SOCKET \P(WITHIN 1M OF BRACKET END)\P(SEE 4-PIN PLUG ASSEMBLY)
 73
     1
 44
1.0
  0
LEADER
  5
55
330
2
100
AcDbEntity
  8
0
100
AcDbLeader
  3
ISO-25
 76
     3
 10
2420.635362513658
 20
1007.062714652731
 30
0.0
 10
2420.635362513658
 20
1080.678071606986
 30
0.0
 10
2488.121898845673
 20
1080.678071606986
 30
0.0
1001
ACAD
1000
DSTYLE
1002
{
1070
   147
1040
3.0
1070
    77
1070
     0
1002
}
  0
LEADER
  5
56
330
2
100
AcDbEntity
  8
0
100
AcDbLeader
  3
ISO-25
 76
     2
 10
2230.551695818579
 20
1019.600699328302
 30
0.0
 10
2216.114175660644
 20
1054.3730329659
 30
0.0
1001
ACAD
1000
DSTYLE
1002
{
1070
   147
1040
0.625
1070
    77
1070
     0
1002
}
  0
LEADER
  5
57
330
2
100
AcDbEntity
  8
0
100
AcDbLeader
  3
ISO-25
 76
     3
 10
2169.175216676078
 20
1020.964116108173
 30
0.0
 10
2155.468137686443
 20
1046.971987362755
 30
0.0
 10
2150.670675511162
 20
1046.971987362755
 30
0.0
1001
ACAD
1000
DSTYLE
1002
{
1070
   147
1040
0.625
1070
    77
1070
     0
1002
}
  0
LWPOLYLINE
  5
58
330
2
100
AcDbEntity
  8
CURTAIN
 48
10.0
100
AcDbPolyline
 90
        3
 70
     0
 43
0.0
 10
2433.674049991459
 20
1014.701620140182
 10
2433.674049991459
 20
1025.724813571941
 10
2316.4158289338
 20
1025.724813571941
  0
LWPOLYLINE
  5
5A
330
2
100
AcDbEntity
  8
CURTAIN
 48
10.0
100
AcDbPolyline
 90
        3
 70
     0
 43
0.0
 10
2299.01027444904
 20
994.8782718153488
 10
2433.674049991459
 20
994.8782718153488
 10
2433.674049991459
 20
1005.901465247107
  0
LINE
  5
5B
330
2
100
AcDbEntity
  8
0
100
AcDbLine
 10
2189.377224507092
 20
984.5015426936452
 30
0.0
 11
2416.730807269823
 21
984.501542693645
 31
0.0
  0
LWPOLYLINE
  5
5C
330
2
100
AcDbEntity
  8
DISC-DRUM
100
AcDbPolyline
 90
        2
 70
     0
 43
0.0
 10
2318.537329685989
 20
1022.331693978716
 10
2428.532959698694
 20
1022.331693978716
  0
LWPOLYLINE
  5
5E
330
2
100
AcDbEntity
  8
DISC-DRUM
100
AcDbPolyline
 90
        3
 70
     0
 43
0.0
 10
2428.532959698694
 20
1022.331693978716
 10
2428.532959698694
 20
1021.714763143584
 10
2318.638137016758
 20
1021.714763143584
  0
LWPOLYLINE
  5
5F
330
2
100
AcDbEntity
  8
DISC-DRUM
100
AcDbPolyline
 90
        4
 70
     0
 43
0.0
 10
2294.615783537811
 20
998.271391408574
 10
2428.532959698694
 20
998.271391408574
 10
2428.532959698694
 20
998.8883222437058
 10
2294.038288346754
 20
998.888322243706
  0
LINE
  5
60
330
2
100
AcDbEntity
  8
0
100
AcDbLine
 10
2300.512437444634
 20
1009.001542693645
 30
0.0
 11
2388.329680095619
 21
1009.001542693645
 31
0.0
  0
LINE
  5
61
330
2
100
AcDbEntity
  8
0
100
AcDbLine
 10
2306.035467195175
 20
1011.601542693645
 30
0.0
 11
2388.329680095619
 21
1011.601542693645
 31
0.0
  0
LINE
  5
62
330
2
100
AcDbEntity
  8
0
100
AcDbLine
 10
2377.329680095619
 20
1004.201465247107
 30
0.0
 11
2293.323295223124
 21
1004.201465247107
 31
0.0
  0
LINE
  5
63
330
2
100
AcDbEntity
  8
0
100
AcDbLine
 10
2377.329680095619
 20
1016.401620140182
 30
0.0
 11
2314.972291030434
 21
1016.401620140182
 31
0.0
  0
LINE
  5
64
330
2
100
AcDbEntity
  8
0
100
AcDbLine
 10
2416.730807269823
 20
1036.101542693645
 30
0.0
 11
2189.377224507092
 21
1036.101542693645
 31
0.0
  0
LINE
  5
65
330
2
100
AcDbEntity
  8
0
100
AcDbLine
 10
2184.209056646642
 20
984.5015426936452
 30
0.0
 11
2184.209056646642
 21
852.085409061007
 31
0.0
  0
LINE
  5
66
330
2
100
AcDbEntity
  8
0
100
AcDbLine
 10
2132.535880286335
 20
1036.101542693645
 30
0.0
 11
2132.535880286334
 21
852.085409061007
 31
0.0
  0
MTEXT
  5
67
330
2
100
AcDbEntity
  8
0
100
AcDbMText
 10
2216.396664040467
 20
876.3802089460179
 30
0.0
 40
6.0
 41
88.21339999999999
 71
     1
 72
     5
  1
COLUMN
 73
     1
 44
1.0
  0
LINE
  5
68
330
2
100
AcDbEntity
  8
0
100
AcDbLine
 10
2184.209056646642
 20
852.085409061007
 30
0.0
 11
2132.535880286334
 21
852.085409061007
 31
0.0
  0
LEADER
  5
69
330
2
100
AcDbEntity
  8
0
100
AcDbLeader
  3
ISO-25
 76
     2
 10
2165.30296471604
 20
874.2490719554709
 30
0.0
 10
2213.023411949245
 20
874.2490719554709
 30
0.0
1001
ACAD
1000
DSTYLE
1002
{
1070
   147
1040
0.625
1070
    77
1070
     0
1002
}
  0
LEADER
  5
6A
330
2
100
AcDbEntity
  8
0
100
AcDbLeader
  3
ISO-25
 76
     2
 10
2189.845468040817
 20
984.501542693645
 30
0.0
 10
2189.845468040817
 20
954.577400917663
 30
0.0
1001
ACAD
1000
DSTYLE
1002
{
1070
   147
1040
0.625
1070
    77
1070
     0
1002
}
  0
LEADER
  5
6B
330
2
100
AcDbEntity
  8
0
100
AcDbLeader
  3
ISO-25
 76
     2
 10
2226.512134707483
 20
984.501542693645
 30
0.0
 10
2226.512134707483
 20
954.577400917663
 30
0.0
1001
ACAD
1000
DSTYLE
1002
{
1070
   147
1040
0.625
1070
    77
1070
     0
1002
}
  0
LWPOLYLINE
  5
6C
330
2
100
AcDbEntity
  8
0
  6
DASHED
 48
8.0
100
AcDbPolyline
 90
        4
 70
     1
 43
0.0
 10
2145.873182393701
 20
1030.272382756167
 10
2187.679773312087
 20
1030.272382756167
 10
2187.679773312087
 20
987.8384912256235
 10
2145.873182393701
 20
987.8384912256235
  0
LINE
  5
6E
330
2
100
AcDbEntity
  8
0
100
AcDbLine
 10
2189.377224507092
 20
1036.101542693645
 30
0.0
 11
2146.628770523928
 21
1036.101542693645
 31
0.0
  0
LINE
  5
6F
330
2
100
AcDbEntity
  8
0
100
AcDbLine
 10
2184.209056646642
 20
1036.101542693645
 30
0.0
 11
2132.535880286335
 21
1036.101542693645
 31
0.0
  0
LINE
  5
70
330
2
100
AcDbEntity
  8
0
100
AcDbLine
 10
2132.535880286335
 20
1036.101542693645
 30
0.0
 11
2132.535880286335
 21
984.5015426936452
 31
0.0
  0
LINE
  5
71
330
2
100
AcDbEntity
  8
0
100
AcDbLine
 10
2184.209056646642
 20
984.5015426936452
 30
0.0
 11
2189.377224507092
 21
984.5015426936452
 31
0.0
  0
LEADER
  5
72
330
2
100
AcDbEntity
  8
0
100
AcDbLeader
  3
ISO-25
 76
     2
 10
2263.17880137415
 20
984.501542693645
 30
0.0
 10
2263.17880137415
 20
954.577400917663
 30
0.0
1001
ACAD
1000
DSTYLE
1002
{
1070
   147
1040
0.625
1070
    77
1070
     0
1002
}
  0
LEADER
  5
73
330
2
100
AcDbEntity
  8
0
100
AcDbLeader
  3
ISO-25
 76
     2
 10
2299.845468040817
 20
984.501542693645
 30
0.0
 10
2299.845468040817
 20
954.577400917663
 30
0.0
1001
ACAD
1000
DSTYLE
1002
{
1070
   147
1040
0.625
1070
    77
1070
     0
1002
}
  0
SPLINE
  5
74
330
2
100
AcDbEntity
  8
0
100
AcDbSpline
210
0.0
220
0.0
230
1.0
 70
     8
 71
     3
 72
    10
 73
     6
 74
     0
 42
0.0000000001
 43
0.0000000001
 40
226.5056284575514
 40
226.5056284575514
 40
226.5056284575514
 40
226.5056284575514
 40
312.1597413692262
 40
471.4300207386655
 40
623.7084402032909
 40
623.7084402032909
 40
623.7084402032909
 40
623.7084402032909
 10
2306.69832262217
 20
1036.101542693645
 30
0.0
 10
2309.081077995101
 20
1031.257830049698
 30
0.0
 10
2333.495862606214
 20
1017.270048689543
 30
0.0
 10
2272.324396515466
 20
1004.791125240138
 30
0.0
 10
2306.992070259611
 20
990.6702819493178
 30
0.0
 10
2318.249847702786
 20
984.5015426936452
 30
0.0
  0
LINE
  5
75
330
2
100
AcDbEntity
  8
0
100
AcDbLine
 10
2468.40398363013
 20
1036.101542693645
 30
0.0
 11
2468.40398363013
 21
852.085409061007
 31
0.0
  0
LINE
  5
76
330
2
100
AcDbEntity
  8
0
100
AcDbLine
 10
2416.730807269823
 20
984.501542693645
 30
0.0
 11
2416.730807269823
 21
852.085409061007
 31
0.0
  0
LINE
  5
77
330
2
100
AcDbEntity
  8
0
  6
ACAD_ISO03W100
 48
0.5
100
AcDbLine
 10
2396.734217252214
 20
884.3926499503302
 30
0.0
 11
2485.860306489667
 21
884.3926499503302
 31
0.0
  0
LINE
  5
78
330
2
100
AcDbEntity
  8
0
100
AcDbLine
 10
2416.730807269823
 20
852.085409061007
 30
0.0
 11
2468.40398363013
 21
852.085409061007
 31
0.0
  0
LEADER
  5
79
330
2
100
AcDbEntity
  8
0
  6
ACAD_ISO03W100
100
AcDbLeader
  3
ISO-25
 76
     2
 10
2403.056696008192
 20
884.3926499503302
 30
0.0
 10
2403.056696008192
 20
910.1907800396086
 30
0.0
1001
ACAD
1000
DSTYLE
1002
{
1070
   147
1040
0.625
1070
    77
1070
     0
1002
}
  0
MTEXT
  5
7A
330
2
100
AcDbEntity
  8
0
100
AcDbMText
 10
2399.336862725612
 20
920.5016490061378
 30
0.0
 40
6.0
 41
6.456299999999999
 71
     1
 72
     5
  1
A
 73
     1
 44
1.0
  0
LWPOLYLINE
  5
7B
330
2
100
AcDbEntity
  8
0
  6
DASHED
 48
8.0
100
AcDbPolyline
 90
        4
 70
     1
 43
0.0
 10
2412.475822328818
 20
1030.272382756167
 10
2454.282413247205
 20
1030.272382756167
 10
2454.282413247205
 20
987.8384912256235
 10
2412.475822328818
 20
987.8384912256235
  0
LWPOLYLINE
  5
7C
330
2
100
AcDbEntity
  8
SHAFT
100
AcDbPolyline
 90
        2
 70
     0
 43
0.0
 10
2435.682053538727
 20
1014.701620140182
 10
2388.329680095619
 20
1014.701620140182
  0
LWPOLYLINE
  5
7E
330
2
100
AcDbEntity
  8
SHAFT
100
AcDbPolyline
 90
        2
 70
     0
 43
0.0
 10
2388.329680095619
 20
1005.901465247107
 10
2435.682053538727
 20
1005.901465247107
  0
LINE
  5
7F
330
2
100
AcDbEntity
  8
0
100
AcDbLine
 10
2416.730807269823
 20
1036.101542693645
 30
0.0
 11
2468.40398363013
 21
1036.101542693645
 31
0.0
  0
LEADER
  5
80
330
2
100
AcDbEntity
  8
0
100
AcDbLeader
  3
ISO-25
 76
     2
 10
2409.845468040817
 20
984.501542693645
 30
0.0
 10
2409.845468040817
 20
954.577400917663
 30
0.0
1001
ACAD
1000
DSTYLE
1002
{
1070
   147
1040
0.625
1070
    77
1070
     0
1002
}
  0
LEADER
  5
81
330
2
100
AcDbEntity
  8
0
100
AcDbLeader
  3
ISO-25
 76
     2
 10
2336.512134707483
 20
984.501542693645
 30
0.0
 10
2336.512134707483
 20
954.577400917663
 30
0.0
1001
ACAD
1000
DSTYLE
1002
{
1070
   147
1040
0.625
1070
    77
1070
     0
1002
}
  0
LEADER
  5
82
330
2
100
AcDbEntity
  8
0
100
AcDbLeader
  3
ISO-25
 76
     2
 10
2373.17880137415
 20
984.501542693645
 30
0.0
 10
2373.17880137415
 20
954.577400917663
 30
0.0
1001
ACAD
1000
DSTYLE
1002
{
1070
   147
1040
0.625
1070
    77
1070
     0
1002
}
  0
LINE
  5
83
330
2
100
AcDbEntity
  8
0
100
AcDbLine
 10
2377.329680095619
 20
1004.201465247107
 30
0.0
 11
2388.329680095619
 21
1004.201465247107
 31
0.0
  0
LINE
  5
84
330
2
100
AcDbEntity
  8
0
100
AcDbLine
 10
2377.329680095619
 20
1016.401620140182
 30
0.0
 11
2388.329680095619
 21
1016.401620140182
 31
0.0
  0
LINE
  5
85
330
2
100
AcDbEntity
  8
0
100
AcDbLine
 10
2388.329680095619
 20
1014.701620140182
 30
0.0
 11
2388.329680095619
 21
1005.901465247107
 31
0.0
  0
LINE
  5
86
330
2
100
AcDbEntity
  8
0
100
AcDbLine
 10
2388.329680095619
 20
1004.201465247107
 30
0.0
 11
2429.291977416792
 21
1004.201465247107
 31
0.0
  0
LWPOLYLINE
  5
87
330
2
100
AcDbEntity
  8
DISC-DRUM
 62
     7
100
AcDbPolyline
 90
        2
 70
     0
 43
0.0
 10
2428.532959698694
 20
998.271391408574
 10
2428.532959698694
 20
1005.901465247107
  0
LWPOLYLINE
  5
88
330
2
100
AcDbEntity
  8
DISC-DRUM
 62
     7
100
AcDbPolyline
 90
        2
 70
     0
 43
0.0
 10
2428.018850669417
 20
1005.901465247107
 10
2428.018850669417
 20
998.8883222437058
  0
LINE
  5
89
330
2
100
AcDbEntity
  8
DISC-DRUM
  6
Continuous
 62
     7
100
AcDbLine
 10
2429.766821368957
 20
1004.464442471609
 30
0.0
 11
2429.766821368957
 21
1005.054452244478
 31
0.0
  0
LINE
  5
8A
330
2
100
AcDbEntity
  8
DISC-DRUM
  6
Continuous
 62
     7
100
AcDbLine
 10
2429.627668120639
 20
1004.325289223291
 30
0.0
 11
2429.627668120639
 21
1005.193605492796
 31
0.0
  0
INSERT
  5
8B
330
2
100
AcDbEntity
  8
DISC-DRUM
 62
     7
100
AcDbBlockReference
 66
     1
  2
HN8S
 10
2428.532959698694
 20
1004.759447358043
 30
0.0
 41
0.1028218058553088
 42
0.1028218058553088
 43
0.1028218058553088
 50
180.0
  0
ATTRIB
  5
8C
330
8B
100
AcDbEntity
  8
0
100
AcDbText
 10
2428.532959698694
 20
1004.759447358043
 30
0.0
 40
0.0338253751570592
  1

 50
180.0
 41
0.8000000000000001
  7
ATTR
100
AcDbAttribute
  2
ESTCODE
 70
     9
  0
SEQEND
  5
9E
330
8B
100
AcDbEntity
  8
DISC-DRUM
 62
     7
  0
LINE
  5
9F
330
2
100
AcDbEntity
  8
DISC-DRUM
  6
DASHED
 62
     7
100
AcDbLine
 10
2429.627668120639
 20
1004.464442471609
 30
0.0
 11
2429.291977416792
 21
1004.464442471609
 31
0.0
  0
LINE
  5
A0
330
2
100
AcDbEntity
  8
DISC-DRUM
  6
Continuous
 62
     7
100
AcDbLine
 10
2429.627668120639
 20
1004.325289223291
 30
0.0
 11
2429.291977416792
 21
1004.325289223291
 31
0.0
  0
LINE
  5
A1
330
2
100
AcDbEntity
  8
DISC-DRUM
  6
Continuous
 62
     7
100
AcDbLine
 10
2429.766821368957
 20
1004.464442471609
 30
0.0
 11
2429.627668120639
 21
1004.325289223291
 31
0.0
  0
LINE
  5
A2
330
2
100
AcDbEntity
  8
DISC-DRUM
  6
DASHED
 62
     7
100
AcDbLine
 10
2429.627668120639
 20
1005.054452244478
 30
0.0
 11
2429.291977416792
 21
1005.054452244478
 31
0.0
  0
LINE
  5
A3
330
2
100
AcDbEntity
  8
DISC-DRUM
  6
Continuous
 62
     7
100
AcDbLine
 10
2429.627668120639
 20
1005.193605492796
 30
0.0
 11
2429.291977416792
 21
1005.193605492796
 31
0.0
  0
LINE
  5
A4
330
2
100
AcDbEntity
  8
DISC-DRUM
  6
Continuous
 62
     7
100
AcDbLine
 10
2429.766821368957
 20
1005.054452244478
 30
0.0
 11
2429.627668120639
 21
1005.193605492796
 31
0.0
  0
SOLID
  5
A5
330
2
100
AcDbEntity
  8
DISC-DRUM
 62
     7
100
AcDbTrace
 10
2427.442280721384
 20
998.8883222437058
 30
0.0
 11
2428.018850669417
 21
998.8883222437058
 31
0.0
 12
2428.018850669417
 22
999.5143171857085
 32
0.0
 13
2427.442280721384
 23
998.8883222437058
 33
0.0
  0
LWPOLYLINE
  5
A6
330
2
100
AcDbEntity
  8
DISC-DRUM
 62
     7
100
AcDbPolyline
 90
        2
 70
     0
 43
0.0
 10
2428.018850669417
 20
998.271391408574
 10
2428.532959698694
 20
998.271391408574
  0
LINE
  5
A7
330
2
100
AcDbEntity
  8
0
100
AcDbLine
 10
2388.329680095619
 20
1016.401620140182
 30
0.0
 11
2428.018850669417
 21
1016.401620140182
 31
0.0
  0
LWPOLYLINE
  5
A8
330
2
100
AcDbEntity
  8
DISC-DRUM
 62
     7
100
AcDbPolyline
 90
        3
 70
     0
 43
0.0
 10
2428.532959698694
 20
1014.701620140182
 10
2428.532959698694
 20
1022.331693978716
 10
2428.018850669417
 20
1022.331693978716
  0
LWPOLYLINE
  5
A9
330
2
100
AcDbEntity
  8
DISC-DRUM
 62
     7
100
AcDbPolyline
 90
        2
 70
     0
 43
0.0
 10
2428.018850669417
 20
1021.714763143584
 10
2428.018850669417
 20
1014.701620140182
  0
LWPOLYLINE
  5
AA
330
2
100
AcDbEntity
  8
DISC-DRUM
 62
     7
100
AcDbPolyline
 90
        4
 70
     0
 43
0.0
 10
2428.532959698694
 20
1014.701620140182
 10
2428.532959698694
 20
1017.946343958987
 10
2428.84142511626
 20
1017.946343958987
 10
2428.84142511626
 20
1014.701620140182
  0
SOLID
  5
AB
330
2
100
AcDbEntity
  8
DISC-DRUM
 62
     7
100
AcDbTrace
 10
2427.442280721384
 20
1021.714763143584
 30
0.0
 11
2428.018850669417
 21
1021.714763143584
 31
0.0
 12
2428.018850669417
 22
1021.088768201581
 32
0.0
 13
2427.442280721384
 23
1021.714763143584
 33
0.0
  0
SOLID
  5
AC
330
2
100
AcDbEntity
  8
DISC-DRUM
 62
     7
100
AcDbTrace
 10
2428.84142511626
 20
1017.946343958987
 30
0.0
 11
2428.532959698694
 21
1017.946343958987
 31
0.0
 12
2428.532959698694
 22
1018.238825652411
 32
0.0
 13
2428.84142511626
 23
1017.946343958987
 33
0.0
  0
ARC
  5
AD
330
2
100
AcDbEntity
  8
0
100
AcDbCircle
 10
2473.166103180983
 20
989.7347954257888
 30
0.0
 40
27.92136690156429
100
AcDbArc
 50
170.6972248662278
 51
207.1826716844106
  0
ARC
  5
AE
330
2
100
AcDbEntity
  8
0
100
AcDbCircle
 10
2471.506252279719
 20
989.8711317679801
 30
0.0
 40
27.92136690156429
100
AcDbArc
 50
170.6972248662278
 51
207.1826716844106
  0
LEADER
  5
AF
330
2
100
AcDbEntity
  8
0
100
AcDbLeader
  3
ISO-25
 76
     2
 10
2457.209188752148
 20
955.5304026281683
 30
0.0
 10
2489.20839489451
 20
926.879761343115
 30
0.0
1001
ACAD
1000
DSTYLE
1002
{
1070
   147
1040
0.625
1070
    77
1070
     0
1002
}
  0
LINE
  5
B0
330
2
100
AcDbEntity
  8
0
100
AcDbLine
 10
2460.338178493251
 20
965.4873573602138
 30
0.0
 11
2451.984591717845
 21
958.1563550388256
 31
0.0
  0
LINE
  5
B1
330
2
100
AcDbEntity
  8
0
100
AcDbLine
 10
2459.578761821769
 20
966.7513232609534
 30
0.0
 11
2451.478313614086
 21
959.1675276137699
 31
0.0
  0
ARC
  5
B2
330
2
100
AcDbEntity
  8
0
100
AcDbCircle
 10
2430.136345787632
 20
948.0446274687899
 30
0.0
 40
29.94976053276023
100
AcDbArc
 50
17.24580854887599
 51
27.11584202123891
  0
LINE
  5
B3
330
2
100
AcDbEntity
  8
0
100
AcDbLine
 10
2448.328523497947
 20
976.9795076932204
 30
0.0
 11
2456.794232735248
 21
961.6954596579949
 31
0.0
  0
LINE
  5
B4
330
2
100
AcDbEntity
  8
0
100
AcDbLine
 10
2446.668672596683
 20
977.1158440354117
 30
0.0
 11
2454.515981752487
 21
962.9594255587347
 31
0.0
  0
ARC
  5
B5
330
2
100
AcDbEntity
  8
0
100
AcDbCircle
 10
2390.093936025254
 20
935.402130444498
 30
0.0
 40
70.06856991329822
100
AcDbArc
 50
16.69430707461618
 51
23.15939257708579
  0
LEADER
  5
B6
330
2
100
AcDbEntity
  8
0
100
AcDbLeader
  3
ISO-25
 76
     3
 10
2441.385685430607
 20
1013.77269469091
 30
0.0
 10
2481.882553595835
 20
1013.77269469091
 30
0.0
 10
2490.254940664603
 20
995.3640504991779
 30
0.0
1001
ACAD
1000
DSTYLE
1002
{
1070
   147
1040
0.625
1070
    77
1070
     0
1002
}
  0
LEADER
  5
B7
330
2
100
AcDbEntity
  8
0
100
AcDbLeader
  3
ISO-25
 76
     2
 10
2449.439540636846
 20
1026.166074421439
 30
0.0
 10
2494.26299602622
 20
1026.166074421439
 30
0.0
1001
ACAD
1000
DSTYLE
1002
{
1070
   147
1040
0.625
1070
    77
1070
     0
1002
}
  0
LINE
  5
B8
330
2
100
AcDbEntity
  8
0
100
AcDbLine
 10
2441.385685430607
 20
1013.401620140182
 30
0.0
 11
2441.385685430607
 21
1007.201465247107
 31
0.0
  0
LINE
  5
B9
330
2
100
AcDbEntity
  8
0
100
AcDbLine
 10
2435.682053538727
 20
1003.201465247107
 30
0.0
 11
2435.682053538727
 21
1017.401620140182
 31
0.0
  0
LINE
  5
BA
330
2
100
AcDbEntity
  8
0
100
AcDbLine
 10
2468.40398363013
 20
1036.101542693645
 30
0.0
 11
2468.40398363013
 21
984.501542693645
 31
0.0
  0
LINE
  5
BB
330
2
100
AcDbEntity
  8
0
100
AcDbLine
 10
2441.385685430607
 20
1003.201465247107
 30
0.0
 11
2435.682053538727
 21
1003.201465247107
 31
0.0
  0
LINE
  5
BC
330
2
100
AcDbEntity
  8
0
100
AcDbLine
 10
2441.385685430607
 20
1007.201465247107
 30
0.0
 11
2441.385685430607
 21
1003.201465247107
 31
0.0
  0
SPLINE
  5
BD
330
2
100
AcDbEntity
  8
W018
 62
     7
100
AcDbSpline
210
0.0
220
0.0
230
1.0
 70
     8
 71
     3
 72
    52
 73
    48
 74
     0
 42
0.0000000001
 43
0.0000000001
 40
17.7358739938622
 40
17.7358739938622
 40
17.7358739938622
 40
17.7358739938622
 40
25.50797812741845
 40
25.50797812741845
 40
38.26196719112768
 40
38.26196719112768
 40
44.63896172298229
 40
44.63896172298229
 40
51.01595625483691
 40
51.01595625483691
 40
57.39295078669152
 40
57.39295078669152
 40
63.76994531854613
 40
63.76994531854613
 40
70.14693985040074
 40
70.14693985040074
 40
73.33543711632805
 40
73.33543711632805
 40
76.52393438225536
 40
76.52393438225536
 40
79.71243164818267
 40
79.71243164818267
 40
82.90092891410997
 40
82.90092891410997
 40
89.27792344596459
 40
89.27792344596459
 40
102.0319125096738
 40
102.0319125096738
 40
108.4089070415284
 40
108.4089070415284
 40
114.785901573383
 40
114.785901573383
 40
121.1628961052376
 40
121.1628961052376
 40
127.5398906370922
 40
127.5398906370922
 40
140.2938797008014
 40
140.2938797008014
 40
153.0478687645107
 40
153.0478687645107
 40
178.5558468919291
 40
178.5558468919291
 40
204.0638250193476
 40
204.0638250193476
 40
229.571803146766
 40
229.571803146766
 40
230.6857665996901
 40
230.6857665996901
 40
230.6857665996901
 40
230.6857665996901
 10
2441.385685430608
 20
1011.995421541905
 30
0.0
 10
2441.682726660799
 20
1012.035514019973
 30
0.0
 10
2441.982742866628
 20
1012.070799173138
 30
0.0
 10
2442.774672193605
 20
1012.146812038982
 30
0.0
 10
2443.267125232424
 20
1012.176682792721
 30
0.0
 10
2443.987688193036
 20
1012.182927443094
 30
0.0
 10
2444.224895549999
 20
1012.178571263161
 30
0.0
 10
2444.690943438323
 20
1012.154466359471
 30
0.0
 10
2444.919784701447
 20
1012.134731785817
 30
0.0
 10
2445.36701231519
 20
1012.076688246497
 30
0.0
 10
2445.585075628182
 20
1012.038485879695
 30
0.0
 10
2446.010382881969
 20
1011.938706123727
 30
0.0
 10
2446.217579793005
 20
1011.876928378195
 30
0.0
 10
2446.612658554623
 20
1011.725861358731
 30
0.0
 10
2446.800554833432
 20
1011.636851198629
 30
0.0
 10
2447.066182756993
 20
1011.482682247928
 30
0.0
 10
2447.151220069486
 20
1011.428364190583
 30
0.0
 10
2447.316265487855
 20
1011.312612049421
 30
0.0
 10
2447.396209339295
 20
1011.251086375326
 30
0.0
 10
2447.546926764873
 20
1011.124284240425
 30
0.0
 10
2447.620390109287
 20
1011.056747831177
 30
0.0
 10
2447.759606591887
 20
1010.916831653687
 30
0.0
 10
2447.825431995871
 20
1010.844523808432
 30
0.0
 10
2448.013599858094
 20
1010.618957428024
 30
0.0
 10
2448.124406507946
 20
1010.459656670589
 30
0.0
 10
2448.417673639773
 20
1009.956711505135
 30
0.0
 10
2448.557403765606
 20
1009.594270007113
 30
0.0
 10
2448.702294872132
 20
1009.023910896398
 30
0.0
 10
2448.739796251088
 20
1008.829298809855
 30
0.0
 10
2448.796143262016
 20
1008.431977429466
 30
0.0
 10
2448.81498876966
 20
1008.22926811799
 30
0.0
 10
2448.836479812931
 20
1007.816092513788
 30
0.0
 10
2448.839120878113
 20
1007.605576234778
 30
0.0
 10
2448.830201047263
 20
1007.177113289279
 30
0.0
 10
2448.818645658148
 20
1006.959166508164
 30
0.0
 10
2448.765092903152
 20
1006.293408986591
 30
0.0
 10
2448.704403111675
 20
1005.835291112205
 30
0.0
 10
2448.544014094201
 20
1004.891848744271
 30
0.0
 10
2448.444240309468
 20
1004.406536927527
 30
0.0
 10
2448.100739659676
 20
1002.91692618205
 30
0.0
 10
2447.812793389987
 20
1001.878325582343
 30
0.0
 10
2447.191220620866
 20
999.7552008494329
 30
0.0
 10
2446.857478051539
 20
998.670710698944
 30
0.0
 10
2446.215155572124
 20
996.5084739537282
 30
0.0
 10
2445.906602872126
 20
995.4307003899927
 30
0.0
 10
2445.634459874525
 20
994.3394641759747
 30
0.0
 10
2445.623163543669
 20
994.2938646207844
 30
0.0
 10
2445.611961225988
 20
994.2483296037634
 30
0.0
  0
SPLINE
  5
BF
330
2
100
AcDbEntity
  8
W018
 62
     7
100
AcDbSpline
210
0.0
220
0.0
230
1.0
 70
     8
 71
     3
 72
    54
 73
    50
 74
     0
 42
0.0000000001
 43
0.0000000001
 40
15.68608226570344
 40
15.68608226570344
 40
15.68608226570344
 40
15.68608226570344
 40
25.50797812741845
 40
25.50797812741845
 40
38.26196719112768
 40
38.26196719112768
 40
44.63896172298229
 40
44.63896172298229
 40
51.01595625483691
 40
51.01595625483691
 40
57.39295078669152
 40
57.39295078669152
 40
63.76994531854613
 40
63.76994531854613
 40
70.14693985040074
 40
70.14693985040074
 40
73.33543711632805
 40
73.33543711632805
 40
76.52393438225536
 40
76.52393438225536
 40
79.71243164818267
 40
79.71243164818267
 40
82.90092891410997
 40
82.90092891410997
 40
89.27792344596459
 40
89.27792344596459
 40
95.6549179778192
 40
95.6549179778192
 40
102.0319125096738
 40
102.0319125096738
 40
108.4089070415284
 40
108.4089070415284
 40
114.785901573383
 40
114.785901573383
 40
121.1628961052376
 40
121.1628961052376
 40
127.5398906370922
 40
127.5398906370922
 40
140.2938797008014
 40
140.2938797008014
 40
153.0478687645107
 40
153.0478687645107
 40
178.5558468919291
 40
178.5558468919291
 40
204.0638250193476
 40
204.0638250193476
 40
229.571803146766
 40
229.571803146766
 40
232.7053971899484
 40
232.7053971899484
 40
232.7053971899484
 40
232.7053971899484
 10
2441.385685430606
 20
1010.334349381238
 30
0.0
 10
2441.736368834291
 20
1010.384832516824
 30
0.0
 10
2442.090124991578
 20
1010.428396280447
 30
0.0
 10
2442.893837397671
 20
1010.505540138137
 30
0.0
 10
2443.340180705793
 20
1010.532105244496
 30
0.0
 10
2443.972545805948
 20
1010.537585541394
 30
0.0
 10
2444.177103405036
 20
1010.533695223929
 30
0.0
 10
2444.568782153418
 20
1010.513436836875
 30
0.0
 10
2444.755902570812
 20
1010.497054619124
 30
0.0
 10
2445.107414087567
 20
1010.451433615597
 30
0.0
 10
2445.272161774246
 20
1010.422080358518
 30
0.0
 10
2445.571777039162
 20
1010.351788733461
 30
0.0
 10
2445.706672699371
 20
1010.310970117588
 30
0.0
 10
2445.948426180525
 20
1010.218530377995
 30
0.0
 10
2446.055921303836
 20
1010.166869049938
 30
0.0
 10
2446.199768312052
 20
1010.083381056579
 30
0.0
 10
2446.2459847106
 20
1010.053816995445
 30
0.0
 10
2446.332225985624
 20
1009.993332964206
 30
0.0
 10
2446.372343802849
 20
1009.962545622265
 30
0.0
 10
2446.452545504106
 20
1009.895070034069
 30
0.0
 10
2446.488676806627
 20
1009.861703195724
 30
0.0
 10
2446.558903334798
 20
1009.79112371263
 30
0.0
 10
2446.592892328687
 20
1009.753805446854
 30
0.0
 10
2446.688783094305
 20
1009.638856312293
 30
0.0
 10
2446.74786444242
 20
1009.554392602879
 30
0.0
 10
2446.854081097864
 20
1009.372233923816
 30
0.0
 10
2446.902707974527
 20
1009.272099726241
 30
0.0
 10
2446.989219751393
 20
1009.054100728685
 30
0.0
 10
2447.027159060064
 20
1008.936257524353
 30
0.0
 10
2447.091829452963
 20
1008.681684633941
 30
0.0
 10
2447.118489115125
 20
1008.545108208398
 30
0.0
 10
2447.159749172195
 20
1008.254169921514
 30
0.0
 10
2447.174349688138
 20
1008.099808077338
 30
0.0
 10
2447.191263026978
 20
1007.774641034218
 30
0.0
 10
2447.193580326199
 20
1007.603885652453
 30
0.0
 10
2447.186156584037
 20
1007.247287137686
 30
0.0
 10
2447.176410047515
 20
1007.061444119104
 30
0.0
 10
2447.130007542971
 20
1006.484577132086
 30
0.0
 10
2447.075994649581
 20
1006.072606822405
 30
0.0
 10
2446.928665412537
 20
1005.20598486504
 30
0.0
 10
2446.835423601693
 20
1004.751320548125
 30
0.0
 10
2446.509136488106
 20
1003.336357313545
 30
0.0
 10
2446.229569563216
 20
1002.325714192291
 30
0.0
 10
2445.616690917045
 20
1000.23228623566
 30
0.0
 10
2445.283495266595
 20
999.1494674207636
 30
0.0
 10
2444.635067294044
 20
996.9666778815398
 30
0.0
 10
2444.319807762843
 20
995.8667341300547
 30
0.0
 10
2444.016393865499
 20
994.6501081814302
 30
0.0
 10
2443.983877854298
 20
994.5172443491443
 30
0.0
 10
2443.952110324725
 20
994.3846659459648
 30
0.0
  0
LINE
  5
C0
330
2
100
AcDbEntity
  8
0
100
AcDbLine
 10
2441.385685430607
 20
1017.401620140182
 30
0.0
 11
2435.682053538727
 21
1017.401620140182
 31
0.0
  0
LINE
  5
C1
330
2
100
AcDbEntity
  8
0
100
AcDbLine
 10
2441.385685430607
 20
1013.401620140182
 30
0.0
 11
2441.385685430607
 21
1017.401620140182
 31
0.0
  0
MTEXT
  5
C2
330
2
100
AcDbEntity
  8
0
100
AcDbMText
 10
2235.494006243589
 20
1129.595497771685
 30
0.0
 40
10.0
 41
131.9512
 71
     1
 72
     5
  1
{\fArial|b1|i0|c0|p34;SECTION A-A}
 73
     1
 44
1.0
  0
LINE
  5
C3
330
2
100
AcDbEntity
  8
0
100
AcDbLine
 10
2222.793928557919
 20
1222.079884106737
 30
0.0
 11
2365.793928557919
 21
1222.079884106737
 31
0.0
  0
LINE
  5
C4
330
2
100
AcDbEntity
  8
0
100
AcDbLine
 10
2212.793928557919
 20
1212.079884106737
 30
0.0
 11
2375.793928557919
 21
1212.079884106737
 31
0.0
  0
MTEXT
  5
C5
330
2
100
AcDbEntity
  8
0
100
AcDbMText
 10
2242.868310135503
 20
1191.411430598351
 30
0.0
 40
6.0
 41
101.6738602771029
 71
     1
 72
     5
  1
RECOMMENDED 153mm SIDEROOM REQUIRED EACH SIDE
 73
     1
 44
1.0
  0
MTEXT
  5
C6
330
2
100
AcDbEntity
  8
0
100
AcDbMText
 10
2198.27959393896
 20
1065.16204789184
 30
0.0
 40
6.0
 41
88.21339999999999
 71
     1
 72
     5
  1
BULKHEAD
 73
     1
 44
1.0
  0
MTEXT
  5
C7
330
2
100
AcDbEntity
  8
0
100
AcDbMText
 10
2159.080958766412
 20
1219.130959884071
 30
0.0
 40
6.0
 41
52.59109999999999
 71
     1
 72
     5
  1
INSIDE
 73
     1
 44
1.0
  0
LINE
  5
C8
330
2
100
AcDbEntity
  8
0
100
AcDbLine
 10
2212.793928557919
 20
1217.079884106737
 30
0.0
 11
2212.793928557919
 21
1212.079884106737
 31
0.0
  0
LINE
  5
C9
330
2
100
AcDbEntity
  8
0
100
AcDbLine
 10
2281.406800436902
 20
1318.278063116983
 30
0.0
 11
2362.738515521847
 21
1366.716312514593
 31
0.0
  0
LINE
  5
CA
330
2
100
AcDbEntity
  8
0
100
AcDbLine
 10
2281.406800436902
 20
1366.716312514593
 30
0.0
 11
2362.738515521847
 21
1318.278063116983
 31
0.0
  0
LWPOLYLINE
  5
CB
330
2
100
AcDbEntity
  8
0
100
AcDbPolyline
 90
        5
 70
     0
 43
0.0
 10
2281.406800436902
 20
1366.716312514593
 10
2281.406800436902
 20
1318.278063116983
 10
2362.738515521847
 20
1318.278063116983
 10
2362.738515521847
 20
1366.716312514593
 10
2281.406800436902
 20
1366.716312514593
  0
LINE
  5
CC
330
2
100
AcDbEntity
  8
0
100
AcDbLine
 10
2222.793928557919
 20
1440.516158093616
 30
0.0
 11
2365.793928557919
 21
1440.516158093616
 31
0.0
  0
LINE
  5
CD
330
2
100
AcDbEntity
  8
0
100
AcDbLine
 10
2212.793928557919
 20
1450.516158093616
 30
0.0
 11
2375.793928557919
 21
1450.516158093616
 31
0.0
  0
MTEXT
  5
CE
330
2
100
AcDbEntity
  8
0
100
AcDbMText
 10
2233.463289245212
 20
1424.858432748457
 30
0.0
 40
6.0
 41
92.81870000000001
 71
     1
 72
     5
  1
REMOVABLE 18MM DEEP PACKER
 73
     1
 44
1.0
  0
LINE
  5
CF
102
{ACAD_REACTORS
330
E6
102
}
330
2
100
AcDbEntity
  8
0
100
AcDbLine
 10
2212.793928557919
 20
1347.493034744531
 30
0.0
 11
2212.793928557919
 21
1445.516158093616
 31
0.0
  0
LINE
  5
D0
330
2
100
AcDbEntity
  8
0
100
AcDbLine
 10
2222.793928557919
 20
1347.493034744531
 30
0.0
 11
2222.793928557919
 21
1440.516158093616
 31
0.0
  0
LWPOLYLINE
  5
D1
330
2
100
AcDbEntity
  8
0
100
AcDbPolyline
 90
        4
 70
     1
 43
0.0
 10
2225.112599875256
 20
1364.716312514593
 10
2278.171021375942
 20
1364.716312514593
 10
2278.171021375942
 20
1347.605321384661
 10
2225.112599875256
 20
1347.605321384661
  0
LINE
  5
D2
330
2
100
AcDbEntity
  8
0
100
AcDbLine
 10
2225.112599875256
 20
1347.605321384661
 30
0.0
 11
2278.171021375942
 21
1364.716312514593
 31
0.0
  0
LINE
  5
D3
330
2
100
AcDbEntity
  8
0
100
AcDbLine
 10
2225.112599875256
 20
1364.716312514593
 30
0.0
 11
2278.171021375942
 21
1347.605321384661
 31
0.0
  0
LINE
  5
D4
330
2
100
AcDbEntity
  8
0
100
AcDbLine
 10
2225.112599875256
 20
1297.87972968576
 30
0.0
 11
2278.171021375942
 21
1314.990720815692
 31
0.0
  0
LINE
  5
D5
330
2
100
AcDbEntity
  8
0
100
AcDbLine
 10
2225.112599875256
 20
1314.990720815692
 30
0.0
 11
2278.171021375942
 21
1297.87972968576
 31
0.0
  0
LWPOLYLINE
  5
D6
330
2
100
AcDbEntity
  8
0
100
AcDbPolyline
 90
        4
 70
     1
 43
0.0
 10
2225.112599875256
 20
1297.87972968576
 10
2278.171021375942
 20
1297.87972968576
 10
2278.171021375942
 20
1314.990720815692
 10
2225.112599875256
 20
1314.990720815692
  0
LINE
  5
D7
330
2
100
AcDbEntity
  8
VE001I26$101
  6
Continuous
100
AcDbLine
 10
2245.031323515902
 20
1320.074281604378
 30
0.0
 11
2213.692037801616
 21
1320.074281604378
 31
0.0
  0
LINE
  5
D9
330
2
100
AcDbEntity
  8
VM001I26$010
  6
Continuous
100
AcDbLine
 10
2245.031323515902
 20
1320.074281604378
 30
0.0
 11
2213.692037801616
 21
1320.074281604378
 31
0.0
  0
LINE
  5
DB
330
2
100
AcDbEntity
  8
VE001I5$101
  6
Continuous
100
AcDbLine
 10
2251.270819314221
 20
1318.278063116983
 30
0.0
 11
2213.692037801616
 21
1318.278063116983
 31
0.0
  0
LINE
  5
DD
330
2
100
AcDbEntity
  8
VM001I5$010
  6
Continuous
100
AcDbLine
 10
2251.270819314221
 20
1318.278063116983
 30
0.0
 11
2213.692037801616
 21
1318.278063116983
 31
0.0
  0
LINE
  5
DF
330
2
100
AcDbEntity
  8
VE001I26$101
  6
Continuous
100
AcDbLine
 10
2245.031323515902
 20
1342.521760595974
 30
0.0
 11
2213.692037801616
 21
1342.521760595974
 31
0.0
  0
LINE
  5
E0
330
2
100
AcDbEntity
  8
VM001I26$010
  6
Continuous
100
AcDbLine
 10
2245.031323515902
 20
1342.521760595974
 30
0.0
 11
2213.692037801616
 21
1342.521760595974
 31
0.0
  0
LINE
  5
E1
330
2
100
AcDbEntity
  8
VE001I5$101
  6
Continuous
100
AcDbLine
 10
2251.270819314221
 20
1344.317979083369
 30
0.0
 11
2213.692037801616
 21
1344.317979083369
 31
0.0
  0
LINE
  5
E2
330
2
100
AcDbEntity
  8
VM001I5$010
  6
Continuous
100
AcDbLine
 10
2251.270819314221
 20
1344.317979083369
 30
0.0
 11
2213.692037801616
 21
1344.317979083369
 31
0.0
  0
LEADER
  5
E3
330
2
100
AcDbEntity
  8
0
100
AcDbLeader
  3
ISO-25
 76
     2
 10
2213.773976943758
 20
1342.441382656909
 30
0.0
 10
2160.000265750171
 20
1395.190532436084
 30
0.0
1001
ACAD
1000
DSTYLE
1002
{
1070
   147
1040
0.625
1070
    77
1070
     0
1002
}
  0
DIMENSION
  5
E4
102
{ACAD_XDICTIONARY
360
E5
102
}
102
{ACAD_REACTORS
330
E6
102
}
330
2
100
AcDbEntity
  8
0
100
AcDbDimension
  2
*D2
 10
2184.402408478539
 20
1315.103007455821
 30
0.0
 11
1296.051341949537
 21
1777.161304798494
 31
0.0
 70
   160
  1
25
 71
     5
 42
32.39002728871037
  3
ISO-25
100
AcDbAlignedDimension
 13
2212.793928557919
 23
1347.493034744531
 33
0.0
 14
2212.793928557919
 24
1315.103007455821
 34
0.0
 50
90.0
100
AcDbRotatedDimension
1001
ACAD
1000
DSTYLE
1002
{
1070
   279
1070
     2
1002
}
  0
LINE
  5
F3
330
2
100
AcDbEntity
  8
0
100
AcDbLine
 10
2212.793928557919
 20
1315.103007455821
 30
0.0
 11
2222.793928557919
 21
1315.103007455821
 31
0.0
  0
ARC
  5
F4
330
2
100
AcDbEntity
  8
VE001I27$101
  6
Continuous
100
AcDbCircle
 10
2213.692037801616
 20
1319.176172360681
 30
0.0
 40
0.8981092436974769
100
AcDbArc
 50
90.00000000000003
 51
270.0
  0
ARC
  5
F6
330
2
100
AcDbEntity
  8
VM001I27$010
  6
Continuous
100
AcDbCircle
 10
2213.692037801616
 20
1319.176172360681
 30
0.0
 40
0.8981092436974769
100
AcDbArc
 50
90.00000000000003
 51
270.0
  0
LINE
  5
F8
330
2
100
AcDbEntity
  8
0
100
AcDbLine
 10
2222.793928557919
 20
1347.493034744531
 30
0.0
 11
2212.793928557919
 21
1347.493034744531
 31
0.0
  0
ARC
  5
F9
330
2
100
AcDbEntity
  8
VE001I27$101
  6
Continuous
100
AcDbCircle
 10
2213.692037801616
 20
1343.419869839672
 30
0.0
 40
0.8981092436974769
100
AcDbArc
 50
90.0
 51
270.0
  0
ARC
  5
FA
330
2
100
AcDbEntity
  8
VM001I27$010
  6
Continuous
100
AcDbCircle
 10
2213.692037801616
 20
1343.419869839672
 30
0.0
 40
0.8981092436974769
100
AcDbArc
 50
90.0
 51
270.0
  0
MTEXT
  5
FB
330
2
100
AcDbEntity
  8
0
100
AcDbMText
 10
2118.744822721194
 20
1415.130963292939
 30
0.0
 40
6.0
 41
59.4505
 71
     1
 72
     5
  1
SIDE GUIDE\P24WIDE X 45DEEP
 73
     1
 44
1.0
  0
LEADER
  5
FC
330
2
100
AcDbEntity
  8
0
100
AcDbLeader
  3
ISO-25
 76
     2
 10
2267.556397128945
 20
1335.065641031675
 30
0.0
 10
2257.140544843923
 20
1401.57463295174
 30
0.0
1001
ACAD
1000
DSTYLE
1002
{
1070
   147
1040
0.625
1070
    77
1070
     0
1002
}
  0
HATCH
  5
FD
330
2
100
AcDbEntity
  8
0
100
AcDbHatch
 10
0.0
 20
0.0
 30
0.0
210
0.0
220
0.0
230
1.0
  2
ANSI31
 70
     0
 71
     1
 91
        1
 92
        7
 72
     0
 73
     1
 93
        4
 10
2278.171021375942
 20
1341.298021100176
 10
2260.171021375942
 20
1341.298021100176
 10
2260.171021375942
 20
1321.298021100176
 10
2278.171021375942
 20
1321.298021100176
 97
        1
330
FE
 75
     0
 76
     1
 52
0.0
 41
1.0
 77
     0
 78
     1
 53
45.0
 43
46.19327616399096
 44
0.0
 45
-2.245064030267287
 46
2.245064030267288
 79
     0
 47
0.3295005214650663
 98
        1
 10
2272.763791820628
 20
1334.225251151129
  0
LWPOLYLINE
  5
FE
102
{ACAD_REACTORS
330
FD
102
}
330
2
100
AcDbEntity
  8
0
100
AcDbPolyline
 90
        5
 70
     0
 43
0.0
 10
2260.171021375942
 20
1341.298021100176
 10
2278.171021375942
 20
1341.298021100176
 10
2278.171021375942
 20
1321.298021100176
 10
2260.171021375942
 20
1321.298021100176
 10
2260.171021375942
 20
1341.298021100176
  0
LINE
  5
FF
330
2
100
AcDbEntity
  8
VM001I18$010
  6
Continuous
100
AcDbLine
 10
2257.793928557918
 20
1330.778063116984
 30
0.0
 11
2257.793928557919
 21
1318.278063116983
 31
0.0
  0
LINE
  5
101
330
2
100
AcDbEntity
  8
VE001I18$101
  6
Continuous
100
AcDbLine
 10
2257.793928557918
 20
1330.778063116984
 30
0.0
 11
2257.793928557919
 21
1318.278063116983
 31
0.0
  0
LINE
  5
103
330
2
100
AcDbEntity
  8
VE001I25$101
  6
Continuous
100
AcDbLine
 10
2255.997710070523
 20
1331.817979083369
 30
0.0
 11
2255.997710070523
 21
1320.830584125387
 31
0.0
  0
LINE
  5
105
330
2
100
AcDbEntity
  8
VM001I25$010
  6
Continuous
100
AcDbLine
 10
2255.997710070523
 20
1330.778063116983
 30
0.0
 11
2255.997710070523
 21
1320.830584125387
 31
0.0
  0
LINE
  5
107
330
2
100
AcDbEntity
  8
VE001I2$101
  6
Continuous
100
AcDbLine
 10
2247.252962171364
 20
1331.817979083369
 30
0.0
 11
2247.252962171364
 21
1320.830584125387
 31
0.0
  0
LINE
  5
109
330
2
100
AcDbEntity
  8
VM001I2$010
  6
Continuous
100
AcDbLine
 10
2247.252962171364
 20
1330.778063116983
 30
0.0
 11
2247.252962171364
 21
1320.830584125387
 31
0.0
  0
LINE
  5
10B
330
2
100
AcDbEntity
  8
VM001I22$010
  6
Continuous
100
AcDbLine
 10
2245.78762603691
 20
1330.778063116983
 30
0.0
 11
2245.78762603691
 21
1320.830584125387
 31
0.0
  0
LINE
  5
10D
330
2
100
AcDbEntity
  8
VE001I22$101
  6
Continuous
100
AcDbLine
 10
2245.78762603691
 20
1330.778063116983
 30
0.0
 11
2245.78762603691
 21
1320.830584125387
 31
0.0
  0
LINE
  5
10F
330
2
100
AcDbEntity
  8
VE001I8$101
  6
Continuous
100
AcDbLine
 10
2255.241407549515
 20
1320.074281604378
 30
0.0
 11
2248.009264692373
 21
1320.074281604378
 31
0.0
  0
LINE
  5
111
330
2
100
AcDbEntity
  8
VM001I8$010
  6
Continuous
100
AcDbLine
 10
2255.241407549515
 20
1320.074281604378
 30
0.0
 11
2248.009264692373
 21
1320.074281604378
 31
0.0
  0
LINE
  5
113
330
2
100
AcDbEntity
  8
VE001I6$101
  6
Continuous
100
AcDbLine
 10
2257.793928557919
 20
1318.278063116983
 30
0.0
 11
2252.310735280607
 21
1318.278063116983
 31
0.0
  0
LINE
  5
115
330
2
100
AcDbEntity
  8
VM001I6$010
  6
Continuous
100
AcDbLine
 10
2257.793928557919
 20
1318.278063116983
 30
0.0
 11
2252.310735280607
 21
1318.278063116983
 31
0.0
  0
LINE
  5
117
330
2
100
AcDbEntity
  8
VE001I3$101
  6
Continuous
100
AcDbLine
 10
2252.027121835229
 20
1318.561676562362
 30
0.0
 11
2251.554432759599
 21
1318.561676562362
 31
0.0
  0
LINE
  5
119
330
2
100
AcDbEntity
  8
VM001I3$010
  6
Continuous
100
AcDbLine
 10
2252.027121835229
 20
1318.561676562362
 30
0.0
 11
2251.554432759599
 21
1318.561676562362
 31
0.0
  0
ARC
  5
11B
330
2
100
AcDbEntity
  8
VE001I32$101
  6
Continuous
100
AcDbCircle
 10
2245.031323515902
 20
1320.830584125387
 30
0.0
 40
0.7563025210084017
100
AcDbArc
 50
270.0
 51
0.0
  0
ARC
  5
11D
330
2
100
AcDbEntity
  8
VM001I32$010
  6
Continuous
100
AcDbCircle
 10
2245.031323515902
 20
1320.830584125387
 30
0.0
 40
0.7563025210084017
100
AcDbArc
 50
270.0
 51
0.0
  0
LINE
  5
11F
330
2
100
AcDbEntity
  8
VE001I4$101
  6
Continuous
100
AcDbLine
 10
2251.554432759599
 20
1318.561676562362
 30
0.0
 11
2251.270819314221
 21
1318.278063116983
 31
0.0
  0
LINE
  5
121
330
2
100
AcDbEntity
  8
VM001I4$010
  6
Continuous
100
AcDbLine
 10
2251.554432759599
 20
1318.561676562362
 30
0.0
 11
2251.270819314221
 21
1318.278063116983
 31
0.0
  0
ARC
  5
123
330
2
100
AcDbEntity
  8
VE001I29$101
  6
Continuous
100
AcDbCircle
 10
2248.009264692373
 20
1320.830584125387
 30
0.0
 40
0.7563025210084017
100
AcDbArc
 50
180.0
 51
270.0
  0
ARC
  5
125
330
2
100
AcDbEntity
  8
VM001I29$010
  6
Continuous
100
AcDbCircle
 10
2248.009264692373
 20
1320.830584125387
 30
0.0
 40
0.7563025210084017
100
AcDbArc
 50
180.0
 51
270.0
  0
LINE
  5
127
330
2
100
AcDbEntity
  8
VE001I1$101
  6
Continuous
100
AcDbLine
 10
2252.027121835229
 20
1318.561676562362
 30
0.0
 11
2252.310735280607
 21
1318.278063116983
 31
0.0
  0
LINE
  5
129
330
2
100
AcDbEntity
  8
VM001I1$010
  6
Continuous
100
AcDbLine
 10
2252.027121835229
 20
1318.561676562362
 30
0.0
 11
2252.310735280607
 21
1318.278063116983
 31
0.0
  0
ARC
  5
12B
330
2
100
AcDbEntity
  8
VE001I34$101
  6
Continuous
100
AcDbCircle
 10
2255.241407549515
 20
1320.830584125387
 30
0.0
 40
0.7563025210084017
100
AcDbArc
 50
270.0
 51
0.0
  0
ARC
  5
12D
330
2
100
AcDbEntity
  8
VM001I34$010
  6
Continuous
100
AcDbCircle
 10
2255.241407549515
 20
1320.830584125387
 30
0.0
 40
0.7563025210084017
100
AcDbArc
 50
270.0
 51
0.0
  0
LINE
  5
12F
330
2
100
AcDbEntity
  8
VE001I8$101
  6
Continuous
100
AcDbLine
 10
2255.241407549515
 20
1342.521760595974
 30
0.0
 11
2248.009264692373
 21
1342.521760595974
 31
0.0
  0
LINE
  5
130
330
2
100
AcDbEntity
  8
VM001I8$010
  6
Continuous
100
AcDbLine
 10
2255.241407549515
 20
1342.521760595974
 30
0.0
 11
2248.009264692373
 21
1342.521760595974
 31
0.0
  0
LINE
  5
131
330
2
100
AcDbEntity
  8
VE001I6$101
  6
Continuous
100
AcDbLine
 10
2257.793928557919
 20
1344.317979083369
 30
0.0
 11
2252.310735280607
 21
1344.317979083369
 31
0.0
  0
LINE
  5
132
330
2
100
AcDbEntity
  8
VM001I6$010
  6
Continuous
100
AcDbLine
 10
2257.793928557919
 20
1344.317979083369
 30
0.0
 11
2252.310735280607
 21
1344.317979083369
 31
0.0
  0
LINE
  5
133
330
2
100
AcDbEntity
  8
VE001I21$101
  6
Continuous
100
AcDbLine
 10
2246.071239482289
 20
1331.298021100176
 30
0.0
 11
2246.071239482289
 21
1331.061676562362
 31
0.0
  0
LINE
  5
135
330
2
100
AcDbEntity
  8
VM001I21$010
  6
Continuous
100
AcDbLine
 10
2246.071239482289
 20
1331.298021100176
 30
0.0
 11
2246.071239482289
 21
1331.061676562362
 31
0.0
  0
LINE
  5
137
330
2
100
AcDbEntity
  8
VM001I11$010
  6
Continuous
100
AcDbLine
 10
2246.071239482289
 20
1331.061676562362
 30
0.0
 11
2245.78762603691
 21
1330.778063116983
 31
0.0
  0
LINE
  5
139
330
2
100
AcDbEntity
  8
VE001I11$101
  6
Continuous
100
AcDbLine
 10
2246.071239482289
 20
1331.061676562362
 30
0.0
 11
2245.78762603691
 21
1330.778063116983
 31
0.0
  0
LINE
  5
13B
330
2
100
AcDbEntity
  8
VE001I21$101
  6
Continuous
100
AcDbLine
 10
2246.071239482289
 20
1331.298021100176
 30
0.0
 11
2246.071239482289
 21
1331.534365637991
 31
0.0
  0
LINE
  5
13C
330
2
100
AcDbEntity
  8
VM001I21$010
  6
Continuous
100
AcDbLine
 10
2246.071239482289
 20
1331.298021100176
 30
0.0
 11
2246.071239482289
 21
1331.534365637991
 31
0.0
  0
ARC
  5
13D
330
2
100
AcDbEntity
  8
VE001I32$101
  6
Continuous
100
AcDbCircle
 10
2245.031323515902
 20
1341.765458074966
 30
0.0
 40
0.7563025210084017
100
AcDbArc
 50
0.0
 51
90.0
  0
ARC
  5
13E
330
2
100
AcDbEntity
  8
VM001I32$010
  6
Continuous
100
AcDbCircle
 10
2245.031323515902
 20
1341.765458074966
 30
0.0
 40
0.7563025210084017
100
AcDbArc
 50
0.0
 51
90.0
  0
LINE
  5
13F
330
2
100
AcDbEntity
  8
VE001I22$101
  6
Continuous
100
AcDbLine
 10
2245.78762603691
 20
1331.817979083369
 30
0.0
 11
2245.78762603691
 21
1341.765458074966
 31
0.0
  0
LINE
  5
140
330
2
100
AcDbEntity
  8
VM001I22$010
  6
Continuous
100
AcDbLine
 10
2245.78762603691
 20
1331.817979083369
 30
0.0
 11
2245.78762603691
 21
1341.765458074966
 31
0.0
  0
LINE
  5
141
330
2
100
AcDbEntity
  8
VE001I4$101
  6
Continuous
100
AcDbLine
 10
2251.554432759599
 20
1344.03436563799
 30
0.0
 11
2251.270819314221
 21
1344.317979083369
 31
0.0
  0
LINE
  5
142
330
2
100
AcDbEntity
  8
VM001I4$010
  6
Continuous
100
AcDbLine
 10
2251.554432759599
 20
1344.03436563799
 30
0.0
 11
2251.270819314221
 21
1344.317979083369
 31
0.0
  0
LINE
  5
143
330
2
100
AcDbEntity
  8
VE001I1$101
  6
Continuous
100
AcDbLine
 10
2252.027121835229
 20
1344.03436563799
 30
0.0
 11
2252.310735280607
 21
1344.317979083369
 31
0.0
  0
LINE
  5
144
330
2
100
AcDbEntity
  8
VM001I1$010
  6
Continuous
100
AcDbLine
 10
2252.027121835229
 20
1344.03436563799
 30
0.0
 11
2252.310735280607
 21
1344.317979083369
 31
0.0
  0
LINE
  5
145
330
2
100
AcDbEntity
  8
VE001I3$101
  6
Continuous
100
AcDbLine
 10
2252.027121835229
 20
1344.03436563799
 30
0.0
 11
2251.554432759599
 21
1344.03436563799
 31
0.0
  0
LINE
  5
146
330
2
100
AcDbEntity
  8
VM001I3$010
  6
Continuous
100
AcDbLine
 10
2252.027121835229
 20
1344.03436563799
 30
0.0
 11
2251.554432759599
 21
1344.03436563799
 31
0.0
  0
ARC
  5
147
330
2
100
AcDbEntity
  8
VE001I29$101
  6
Continuous
100
AcDbCircle
 10
2248.009264692373
 20
1341.765458074966
 30
0.0
 40
0.7563025210084017
100
AcDbArc
 50
90.0
 51
180.0
  0
ARC
  5
148
330
2
100
AcDbEntity
  8
VM001I29$010
  6
Continuous
100
AcDbCircle
 10
2248.009264692373
 20
1341.765458074966
 30
0.0
 40
0.7563025210084017
100
AcDbArc
 50
90.0
 51
180.0
  0
LINE
  5
149
330
2
100
AcDbEntity
  8
VE001I11$101
  6
Continuous
100
AcDbLine
 10
2246.071239482289
 20
1331.534365637991
 30
0.0
 11
2245.78762603691
 21
1331.817979083369
 31
0.0
  0
LINE
  5
14A
330
2
100
AcDbEntity
  8
VM001I11$010
  6
Continuous
100
AcDbLine
 10
2246.071239482289
 20
1331.534365637991
 30
0.0
 11
2245.78762603691
 21
1331.817979083369
 31
0.0
  0
LINE
  5
14B
330
2
100
AcDbEntity
  8
VE001I2$101
  6
Continuous
100
AcDbLine
 10
2247.252962171364
 20
1331.817979083369
 30
0.0
 11
2247.252962171364
 21
1341.765458074966
 31
0.0
  0
LINE
  5
14C
330
2
100
AcDbEntity
  8
VM001I2$010
  6
Continuous
100
AcDbLine
 10
2247.252962171364
 20
1331.817979083369
 30
0.0
 11
2247.252962171364
 21
1341.765458074966
 31
0.0
  0
LINE
  5
14D
330
2
100
AcDbEntity
  8
VE001I13$101
  6
Continuous
100
AcDbLine
 10
2257.510315112541
 20
1331.298021100176
 30
0.0
 11
2257.510315112541
 21
1331.061676562362
 31
0.0
  0
LINE
  5
14F
330
2
100
AcDbEntity
  8
VM001I13$010
  6
Continuous
100
AcDbLine
 10
2257.510315112541
 20
1331.298021100176
 30
0.0
 11
2257.510315112541
 21
1331.061676562362
 31
0.0
  0
LINE
  5
151
330
2
100
AcDbEntity
  8
VM001I15$010
  6
Continuous
100
AcDbLine
 10
2257.510315112541
 20
1331.061676562362
 30
0.0
 11
2257.793928557919
 21
1330.778063116983
 31
0.0
  0
LINE
  5
153
330
2
100
AcDbEntity
  8
VE001I15$101
  6
Continuous
100
AcDbLine
 10
2257.510315112541
 20
1331.061676562362
 30
0.0
 11
2257.793928557919
 21
1330.778063116983
 31
0.0
  0
LINE
  5
155
330
2
100
AcDbEntity
  8
VE001I13$101
  6
Continuous
100
AcDbLine
 10
2257.510315112541
 20
1331.298021100176
 30
0.0
 11
2257.510315112541
 21
1331.534365637991
 31
0.0
  0
LINE
  5
156
330
2
100
AcDbEntity
  8
VM001I13$010
  6
Continuous
100
AcDbLine
 10
2257.510315112541
 20
1331.298021100176
 30
0.0
 11
2257.510315112541
 21
1331.534365637991
 31
0.0
  0
LINE
  5
157
330
2
100
AcDbEntity
  8
VE001I18$101
  6
Continuous
100
AcDbLine
 10
2257.793928557918
 20
1331.817979083369
 30
0.0
 11
2257.793928557919
 21
1344.317979083369
 31
0.0
  0
LINE
  5
158
330
2
100
AcDbEntity
  8
VM001I18$010
  6
Continuous
100
AcDbLine
 10
2257.793928557918
 20
1331.817979083369
 30
0.0
 11
2257.793928557919
 21
1344.317979083369
 31
0.0
  0
LINE
  5
159
330
2
100
AcDbEntity
  8
VE001I15$101
  6
Continuous
100
AcDbLine
 10
2257.510315112541
 20
1331.534365637991
 30
0.0
 11
2257.793928557919
 21
1331.817979083369
 31
0.0
  0
LINE
  5
15A
330
2
100
AcDbEntity
  8
VM001I15$010
  6
Continuous
100
AcDbLine
 10
2257.510315112541
 20
1331.534365637991
 30
0.0
 11
2257.793928557919
 21
1331.817979083369
 31
0.0
  0
ARC
  5
15B
330
2
100
AcDbEntity
  8
VE001I34$101
  6
Continuous
100
AcDbCircle
 10
2255.241407549515
 20
1341.765458074966
 30
0.0
 40
0.7563025210084017
100
AcDbArc
 50
0.0
 51
90.0
  0
ARC
  5
15C
330
2
100
AcDbEntity
  8
VM001I34$010
  6
Continuous
100
AcDbCircle
 10
2255.241407549515
 20
1341.765458074966
 30
0.0
 40
0.7563025210084017
100
AcDbArc
 50
0.0
 51
90.0
  0
LINE
  5
15D
330
2
100
AcDbEntity
  8
VE001I25$101
  6
Continuous
100
AcDbLine
 10
2255.997710070523
 20
1331.817979083369
 30
0.0
 11
2255.997710070523
 21
1341.765458074966
 31
0.0
  0
LINE
  5
15E
330
2
100
AcDbEntity
  8
VM001I25$010
  6
Continuous
100
AcDbLine
 10
2255.997710070523
 20
1331.817979083369
 30
0.0
 11
2255.997710070523
 21
1341.765458074966
 31
0.0
  0
MTEXT
  5
15F
330
2
100
AcDbEntity
  8
0
100
AcDbMText
 10
2156.371029852574
 20
1451.003012049475
 30
0.0
 40
6.0
 41
53.8259
 71
     1
 72
     5
  1
OUTSIDE
 73
     1
 44
1.0
  0
LINE
  5
160
330
2
100
AcDbEntity
  8
0
100
AcDbLine
 10
2212.793928557919
 20
1445.516158093616
 30
0.0
 11
2212.793928557919
 21
1450.516158093616
 31
0.0
  0
MTEXT
  5
161
330
2
100
AcDbEntity
  8
0
100
AcDbMText
 10
2424.272713419497
 20
1401.172607608928
 30
0.0
 40
6.0
 41
106.8025999999999
 71
     1
 72
     5
  1
TIMBER STUD FIXED BETWEEN THE FLOOR AND THE BUILDING STRUCTURE ABOVE THE ROLLER SHUTTER DRUM, TO SUPPORT THE ROLLER SHUTTER. (SUPPLIED BY OTHERS)
 73
     1
 44
1.0
  0
LEADER
  5
162
330
2
100
AcDbEntity
  8
0
100
AcDbLeader
  3
ISO-25
 76
     2
 10
2354.16467301875
 20
1355.651358979317
 30
0.0
 10
2415.120686158109
 20
1372.970886467311
 30
0.0
1001
ACAD
1000
DSTYLE
1002
{
1070
   147
1040
0.625
1070
    77
1070
     0
1002
}
  0
LWPOLYLINE
  5
163
330
2
100
AcDbEntity
  8
0
100
AcDbPolyline
 90
        4
 70
     1
 43
0.0
 10
2151.726815154723
 20
1455.323889443051
 10
2200.964340496532
 20
1455.323889443051
 10
2200.964340496532
 20
1438.933800240001
 10
2151.726815154723
 20
1438.933800240001
  0
LWPOLYLINE
  5
164
330
2
100
AcDbEntity
  8
0
100
AcDbPolyline
 90
        4
 70
     1
 43
0.0
 10
2151.726815154723
 20
1224.039264546879
 10
2200.964340496532
 20
1224.039264546879
 10
2200.964340496532
 20
1207.649175343829
 10
2151.726815154723
 20
1207.649175343829
  0
MTEXT
  5
165
330
2
100
AcDbEntity
  8
0
100
AcDbMText
 10
2483.257661016269
 20
920.5016490061378
 30
0.0
 40
6.0
 41
6.456299999999999
 71
     1
 72
     5
  1
A
210
0.0
220
0.0
230
-1.0
 11
-1.0
 21
0.0
 31
0.0
 73
     1
 44
1.0
  0
LEADER
  5
166
330
2
100
AcDbEntity
  8
0
  6
ACAD_ISO03W100
100
AcDbLeader
  3
ISO-25
 76
     2
 10
2479.537827733689
 20
884.3926499503302
 30
0.0
 10
2479.537827733689
 20
910.1907800396086
 30
0.0
211
-1.0
221
0.0
231
0.0
210
0.0
220
0.0
230
-1.0
1001
ACAD
1000
DSTYLE
1002
{
1070
   147
1040
0.625
1070
    77
1070
     0
1002
}
  0
MTEXT
  5
167
330
2
100
AcDbEntity
  8
0
100
AcDbMText
 10
2240.868473537241
 20
1250.747887301043
 30
0.0
 40
6.0
 41
19.40029633682138
 71
     1
 72
     5
  1
63
 73
     1
 44
1.0
  0
MTEXT
  5
168
330
2
100
AcDbEntity
  8
0
100
AcDbMText
 10
2230.456536203139
 20
1274.333289508016
 30
0.0
 40
6.0
 41
19.4003
 71
     1
 72
     5
  1
45
 73
     1
 44
1.0
  0
MTEXT
  5
169
330
2
100
AcDbEntity
  8
0
100
AcDbMText
 10
2173.275171805259
 20
1324.034210875002
 30
0.0
 40
6.0
 41
19.4003
 71
     1
 72
     5
  1
25
 11
0.0000000000000001
 21
1.0
 31
0.0
 73
     1
 44
1.0
  0
VIEWPORT
  5
16F
330
16E
100
AcDbEntity
 67
     1
  8
0
100
AcDbViewport
 10
290.0671809269831
 20
141.7425832748413
 30
0.0
 40
592.2205282358022
 41
296.9259948730469
 68
     2
 69
     1
 12
290.0671809269831
 22
141.7425832748413
 13
0.0
 23
0.0
 14
10.0
 24
10.0
 15
10.0
 25
10.0
 16
0.0
 26
0.0
 36
1.0
 17
0.0
 27
0.0
 37
0.0
 42
50.0
 43
0.0
 44
0.0
 45
296.9259948730469
 50
0.0
 51
0.0
 72
   100
 90
    32800
  1

281
     0
 71
     1
 74
     0
110
0.0
120
0.0
130
0.0
111
1.0
121
0.0
131
0.0
112
0.0
122
1.0
132
0.0
 79
     0
146
0.0
  0
VIEWPORT
  5
171
330
16E
100
AcDbEntity
 67
     1
  8
0
100
AcDbViewport
 10
98.63413544542652
 20
141.7425832748412
 30
0.0
 40
195.5060893838306
 41
281.4695730740059
 68
     1
 69
     2
 12
2309.81041964943
 22
1488.049223937242
 13
0.0
 23
0.0
 14
10.0
 24
10.0
 15
10.0
 25
10.0
 16
0.0
 26
0.0
 36
1.0
 17
0.0
 27
0.0
 37
0.0
 42
50.0
 43
0.0
 44
0.0
 45
402.4080841820073
 50
0.0
 51
0.0
 72
   100
 90
    32864
  1

281
     0
 71
     1
 74
     0
110
0.0
120
0.0
130
0.0
111
1.0
121
0.0
131
0.0
112
0.0
122
1.0
132
0.0
 79
     0
146
0.0
  0
ENDSEC
  0
SECTION
  2
OBJECTS
  0
DICTIONARY
  5
9
330
0
100
AcDbDictionary
281
     1
  3
ACAD_GROUP
350
183
  3
ACAD_LAYOUT
350
16D
  3
ACAD_MLINESTYLE
350
184
  3
ACAD_PLOTSETTINGS
350
185
  3
ACAD_PLOTSTYLENAME
350
8
  3
AcDbVariableDictionary
350
18E
  0
DICTIONARY
  5
4
330
3
100
AcDbDictionary
280
     1
281
     1
  3
ACAD_DIMASSOC
360
5
  0
DICTIONARY
  5
3F
330
3E
100
AcDbDictionary
280
     1
281
     1
  3
ACAD_DIMASSOC
360
40
  0
DICTIONARY
  5
E5
330
E4
100
AcDbDictionary
280
     1
281
     1
  3
ACAD_DIMASSOC
360
E6
  0
DICTIONARY
  5
183
102
{ACAD_REACTORS
330
9
102
}
330
9
100
AcDbDictionary
281
     1
  0
DICTIONARY
  5
16D
102
{ACAD_REACTORS
330
9
102
}
330
9
100
AcDbDictionary
281
     1
  3
MIRAGE
350
175
  3
Model
350
16C
  0
DICTIONARY
  5
184
102
{ACAD_REACTORS
330
9
102
}
330
9
100
AcDbDictionary
281
     1
  3
Standard
350
186
  0
DICTIONARY
  5
185
102
{ACAD_REACTORS
330
9
102
}
330
9
100
AcDbDictionary
281
     1
  0
ACDBDICTIONARYWDFLT
  5
8
102
{ACAD_REACTORS
330
9
102
}
330
9
100
AcDbDictionary
281
     1
  3
Normal
350
7
100
AcDbDictionaryWithDefault
340
7
  0
DICTIONARY
  5
18E
102
{ACAD_REACTORS
330
9
102
}
330
9
100
AcDbDictionary
281
     1
  3
DIMASSOC
350
18F
  0
DIMASSOC
  5
5
102
{ACAD_REACTORS
330
4
102
}
330
4
100
AcDbDimAssoc
330
3
 90
        1
 70
     0
 71
     0
  1
AcDbOsnapPointRef
 72
    10
331
20
 73
     2
 91
        0
 40
0.481033804234301
 10
2150.472854741753
 20
1369.298021100176
 30
0.0
 75
     0
  0
DIMASSOC
  5
40
102
{ACAD_REACTORS
330
3F
102
}
330
3F
100
AcDbDimAssoc
330
3E
 90
        1
 70
     0
 71
     0
  1
AcDbOsnapPointRef
 72
    10
331
4F
 73
     2
 91
        0
 40
0.5087753949060782
 10
2212.793928557919
 20
1265.231254163963
 30
0.0
 75
     0
  0
DIMASSOC
  5
E6
102
{ACAD_REACTORS
330
E5
102
}
330
E5
100
AcDbDimAssoc
330
E4
 90
        3
 70
     0
 71
     0
  1
AcDbOsnapPointRef
 72
    13
331
CF
 73
     2
 91
        0
 40
0.0
 10
2212.793928557919
 20
1347.493034744531
 30
0.0
 75
     0
  1
AcDbOsnapPointRef
 72
    13
331
4F
 73
     2
 91
        0
 40
0.0
 10
2212.793928557919
 20
1315.103007455821
 30
0.0
 75
     0
  0
LAYOUT
  5
175
102
{ACAD_REACTORS
330
16D
102
}
330
16D
100
AcDbPlotSettings
  1

  2
HP LaserJet 5N
  4
A4
  6

 40
6.043083190917968
 41
6.720414161682128
 42
7.821090698242187
 43
5.027069091796875
 44
210.0579986572265
 45
296.9259948730469
 46
0.0
 47
0.0
 48
0.0
 49
0.0
140
0.0
141
0.0
142
1.0
143
1.0
 70
   688
 72
     1
 73
     0
 74
     5
  7

 75
    16
147
1.0
148
0.0
149
0.0
100
AcDbLayout
  1
MIRAGE
 70
     1
 71
     1
 10
-6.043083190917968
 20
-6.720414161682128
 11
204.0149154663085
 21
290.2055807113647
 12
0.0
 22
0.0
 32
0.0
 14
0.8810907535112164
 24
1.007796737838248
 34
0.0
 15
196.3871801373418
 25
282.4773698118442
 35
0.0
146
0.0
 13
0.0
 23
0.0
 33
0.0
 16
1.0
 26
0.0
 36
0.0
 17
0.0
 27
1.0
 37
0.0
 76
     0
330
16E
331
171
  0
LAYOUT
  5
16C
102
{ACAD_REACTORS
330
16D
102
}
330
16D
100
AcDbPlotSettings
  1

  2
HP LaserJet 5N
  4
A4
  6

 40
6.043083190917968
 41
6.720414161682128
 42
7.821090698242187
 43
5.027069091796875
 44
210.0579986572265
 45
296.9259948730469
 46
0.0
 47
0.0
 48
2011.764517928892
 49
751.4138487200566
140
2618.37422216849
141
1458.809750204048
142
1.0
143
3.091889894886905
 70
 11952
 72
     1
 73
     0
 74
     4
  7

 75
     0
147
0.3234267823229125
148
-2011.764517928892
149
-751.4138487200566
100
AcDbLayout
  1
Model
 70
     1
 71
     0
 10
0.0
 20
0.0
 11
12.0
 21
9.0
 12
0.0
 22
0.0
 32
0.0
 14
0.0
 24
0.0
 34
0.0
 15
0.0
 25
0.0
 35
0.0
146
0.0
 13
0.0
 23
0.0
 33
0.0
 16
1.0
 26
0.0
 36
0.0
 17
0.0
 27
1.0
 37
0.0
 76
     0
330
2
  0
MLINESTYLE
  5
186
102
{ACAD_REACTORS
330
184
102
}
330
184
100
AcDbMlineStyle
  2
STANDARD
 70
     0
  3

 62
   256
 51
90.0
 52
90.0
 71
     2
 49
0.5
 62
   256
  6
BYLAYER
 49
-0.5
 62
   256
  6
BYLAYER
  0
ACDBPLACEHOLDER
  5
7
102
{ACAD_REACTORS
330
8
102
}
330
8
  0
DICTIONARYVAR
  5
18F
102
{ACAD_REACTORS
330
18E
102
}
330
18E
100
DictionaryVariables
280
     0
  1
1
  0
ENDSEC
  0
EOF
