  0
SECTION
  2
HEADER
  9
$ACADVER
  1
AC1015
  9
$ACADMAINTVER
 70
    13
  9
$DWGCODEPAGE
  3
ANSI_1252
  9
$INSBASE
 10
-626.1504316828174
 20
36.79215240207463
 30
0.0
  9
$EXTMIN
 10
-626.1504315093411
 20
34.29188361503657
 30
0.0
  9
$EXTMAX
 10
-232.6941357095845
 20
365.1027575359073
 30
0.0
  9
$LIMMIN
 10
0.0
 20
0.0
  9
$LIMMAX
 10
297.0
 20
210.0
  9
$ORTHOMODE
 70
     0
  9
$REGENMODE
 70
     1
  9
$FILLMODE
 70
     1
  9
$QTEXTMODE
 70
     0
  9
$MIRRTEXT
 70
     1
  9
$LTSCALE
 40
1.0
  9
$ATTMODE
 70
     1
  9
$TEXTSIZE
 40
10.0
  9
$TRACEWID
 40
0.05
  9
$TEXTSTYLE
  7
STYLE1
  9
$CLAYER
  8
0
  9
$CELTYPE
  6
BYLAYER
  9
$CECOLOR
 62
   256
  9
$CELTSCALE
 40
1.0
  9
$DISPSILH
 70
     0
  9
$DIMSCALE
 40
1.0
  9
$DIMASZ
 40
2.5
  9
$DIMEXO
 40
0.625
  9
$DIMDLI
 40
3.75
  9
$DIMRND
 40
0.0
  9
$DIMDLE
 40
0.0
  9
$DIMEXE
 40
1.25
  9
$DIMTP
 40
0.0
  9
$DIMTM
 40
0.0
  9
$DIMTXT
 40
2.5
  9
$DIMCEN
 40
2.5
  9
$DIMTSZ
 40
0.0
  9
$DIMTOL
 70
     0
  9
$DIMLIM
 70
     0
  9
$DIMTIH
 70
     1
  9
$DIMTOH
 70
     0
  9
$DIMSE1
 70
     0
  9
$DIMSE2
 70
     0
  9
$DIMTAD
 70
     1
  9
$DIMZIN
 70
     8
  9
$DIMBLK
  1

  9
$DIMASO
 70
     1
  9
$DIMSHO
 70
     1
  9
$DIMPOST
  1

  9
$DIMAPOST
  1

  9
$DIMALT
 70
     0
  9
$DIMALTD
 70
     2
  9
$DIMALTF
 40
0.0394
  9
$DIMLFAC
 40
1.0
  9
$DIMTOFL
 70
     1
  9
$DIMTVP
 40
1.0
  9
$DIMTIX
 70
     0
  9
$DIMSOXD
 70
     0
  9
$DIMSAH
 70
     0
  9
$DIMBLK1
  1

  9
$DIMBLK2
  1

  9
$DIMSTYLE
  2
ISO-25
  9
$DIMCLRD
 70
     0
  9
$DIMCLRE
 70
     0
  9
$DIMCLRT
 70
     0
  9
$DIMTFAC
 40
1.0
  9
$DIMGAP
 40
0.625
  9
$DIMJUST
 70
     0
  9
$DIMSD1
 70
     0
  9
$DIMSD2
 70
     0
  9
$DIMTOLJ
 70
     1
  9
$DIMTZIN
 70
     0
  9
$DIMALTZ
 70
     0
  9
$DIMALTTZ
 70
     0
  9
$DIMUPT
 70
     0
  9
$DIMDEC
 70
     4
  9
$DIMTDEC
 70
     4
  9
$DIMALTU
 70
     2
  9
$DIMALTTD
 70
     2
  9
$DIMTXSTY
  7
STANDARD
  9
$DIMAUNIT
 70
     0
  9
$DIMADEC
 70
     0
  9
$DIMALTRND
 40
0.0
  9
$DIMAZIN
 70
     0
  9
$DIMDSEP
 70
    46
  9
$DIMATFIT
 70
     3
  9
$DIMFRAC
 70
     0
  9
$DIMLDRBLK
  1

  9
$DIMLUNIT
 70
     2
  9
$DIMLWD
 70
    -2
  9
$DIMLWE
 70
    -2
  9
$DIMTMOVE
 70
     0
  9
$LUNITS
 70
     2
  9
$LUPREC
 70
     4
  9
$SKETCHINC
 40
0.1
  9
$FILLETRAD
 40
0.0
  9
$AUNITS
 70
     0
  9
$AUPREC
 70
     0
  9
$MENU
  1
acad
  9
$ELEVATION
 40
0.0
  9
$PELEVATION
 40
0.0
  9
$THICKNESS
 40
0.0
  9
$LIMCHECK
 70
     0
  9
$CHAMFERA
 40
10.0
  9
$CHAMFERB
 40
10.0
  9
$CHAMFERC
 40
20.0
  9
$CHAMFERD
 40
0.0
  9
$SKPOLY
 70
     0
  9
$TDCREATE
 40
2452461.345466435
  9
$TDUCREATE
 40
2452460.928799768
  9
$TDUPDATE
 40
2453647.433335821
  9
$TDUUPDATE
 40
2453647.016669155
  9
$TDINDWG
 40
0.9126075579
  9
$TDUSRTIMER
 40
0.9126075579
  9
$USRTIMER
 70
     1
  9
$ANGBASE
 50
0.0
  9
$ANGDIR
 70
     0
  9
$PDMODE
 70
     0
  9
$PDSIZE
 40
0.0
  9
$PLINEWID
 40
0.0
  9
$SPLFRAME
 70
     0
  9
$SPLINETYPE
 70
     6
  9
$SPLINESEGS
 70
    50
  9
$HANDSEED
  5
1EB
  9
$SURFTAB1
 70
     6
  9
$SURFTAB2
 70
     6
  9
$SURFTYPE
 70
     6
  9
$SURFU
 70
     6
  9
$SURFV
 70
     6
  9
$UCSBASE
  2

  9
$UCSNAME
  2

  9
$UCSORG
 10
0.0
 20
0.0
 30
0.0
  9
$UCSXDIR
 10
1.0
 20
0.0
 30
0.0
  9
$UCSYDIR
 10
0.0
 20
1.0
 30
0.0
  9
$UCSORTHOREF
  2

  9
$UCSORTHOVIEW
 70
     0
  9
$UCSORGTOP
 10
0.0
 20
0.0
 30
0.0
  9
$UCSORGBOTTOM
 10
0.0
 20
0.0
 30
0.0
  9
$UCSORGLEFT
 10
0.0
 20
0.0
 30
0.0
  9
$UCSORGRIGHT
 10
0.0
 20
0.0
 30
0.0
  9
$UCSORGFRONT
 10
0.0
 20
0.0
 30
0.0
  9
$UCSORGBACK
 10
0.0
 20
0.0
 30
0.0
  9
$PUCSBASE
  2

  9
$PUCSNAME
  2

  9
$PUCSORG
 10
0.0
 20
0.0
 30
0.0
  9
$PUCSXDIR
 10
1.0
 20
0.0
 30
0.0
  9
$PUCSYDIR
 10
0.0
 20
1.0
 30
0.0
  9
$PUCSORTHOREF
  2

  9
$PUCSORTHOVIEW
 70
     0
  9
$PUCSORGTOP
 10
0.0
 20
0.0
 30
0.0
  9
$PUCSORGBOTTOM
 10
0.0
 20
0.0
 30
0.0
  9
$PUCSORGLEFT
 10
0.0
 20
0.0
 30
0.0
  9
$PUCSORGRIGHT
 10
0.0
 20
0.0
 30
0.0
  9
$PUCSORGFRONT
 10
0.0
 20
0.0
 30
0.0
  9
$PUCSORGBACK
 10
0.0
 20
0.0
 30
0.0
  9
$USERI1
 70
     0
  9
$USERI2
 70
     0
  9
$USERI3
 70
     0
  9
$USERI4
 70
     0
  9
$USERI5
 70
     0
  9
$USERR1
 40
0.0
  9
$USERR2
 40
0.0
  9
$USERR3
 40
0.0
  9
$USERR4
 40
0.0
  9
$USERR5
 40
0.0
  9
$WORLDVIEW
 70
     1
  9
$SHADEDGE
 70
     3
  9
$SHADEDIF
 70
    70
  9
$TILEMODE
 70
     1
  9
$MAXACTVP
 70
    16
  9
$PINSBASE
 10
0.0
 20
0.0
 30
0.0
  9
$PLIMCHECK
 70
     0
  9
$PEXTMIN
 10
-84.0
 20
-0.1575368999165647
 30
0.0
  9
$PEXTMAX
 10
211.0941500469197
 20
282.033201554023
 30
0.0
  9
$PLIMMIN
 10
-6.043083190917968
 20
-6.720414161682128
  9
$PLIMMAX
 10
204.0149154663085
 20
290.2055807113647
  9
$UNITMODE
 70
     0
  9
$VISRETAIN
 70
     0
  9
$PLINEGEN
 70
     0
  9
$PSLTSCALE
 70
     1
  9
$TREEDEPTH
 70
  3020
  9
$CMLSTYLE
  2
STANDARD
  9
$CMLJUST
 70
     0
  9
$CMLSCALE
 40
20.0
  9
$PROXYGRAPHICS
 70
     1
  9
$MEASUREMENT
 70
     0
  9
$CELWEIGHT
370
    -1
  9
$ENDCAPS
280
     0
  9
$JOINSTYLE
280
     0
  9
$LWDISPLAY
290
     0
  9
$INSUNITS
 70
     0
  9
$HYPERLINKBASE
  1

  9
$STYLESHEET
  1

  9
$XEDIT
290
     1
  9
$CEPSNTYPE
380
     0
  9
$PSTYLEMODE
290
     1
  9
$FINGERPRINTGUID
  2
{19245959-ED00-4CA9-B29A-3CAC91204687}
  9
$VERSIONGUID
  2
{6244DE9E-9EF4-45E0-9241-FCC609BF320E}
  9
$EXTNAMES
290
     1
  9
$PSVPSCALE
 40
0.0
  9
$OLESTARTUP
290
     0
  0
ENDSEC
  0
SECTION
  2
CLASSES
  0
CLASS
  1
ACDBDICTIONARYWDFLT
  2
AcDbDictionaryWithDefault
  3
AutoCAD 2000
 90
        0
280
     0
281
     0
  0
CLASS
  1
ACDBPLACEHOLDER
  2
AcDbPlaceHolder
  3
AutoCAD 2000
 90
        0
280
     0
281
     0
  0
CLASS
  1
LAYOUT
  2
AcDbLayout
  3
AutoCAD 2000
 90
        0
280
     0
281
     0
  0
CLASS
  1
DICTIONARYVAR
  2
AcDbDictionaryVar
  3
AutoCAD 2000
 90
        0
280
     0
281
     0
  0
ENDSEC
  0
SECTION
  2
TABLES
  0
TABLE
  2
VPORT
  5
1D7
330
0
100
AcDbSymbolTable
 70
     4
  0
VPORT
  5
1EA
330
1D7
100
AcDbSymbolTableRecord
100
AcDbViewportTableRecord
  2
*Active
 70
     0
 10
0.0
 20
0.0
 11
1.0
 21
1.0
 12
-406.3191657010238
 22
130.4439292188935
 13
0.0
 23
0.0
 14
10.0
 24
10.0
 15
10.0
 25
10.0
 16
0.0
 26
0.0
 36
1.0
 17
0.0
 27
0.0
 37
0.0
 40
196.0091740413772
 41
1.786259541984732
 42
50.0
 43
0.0
 44
0.0
 50
0.0
 51
0.0
 71
     0
 72
  5000
 73
     1
 74
     0
 75
     0
 76
     0
 77
     0
 78
     0
281
     0
 65
     1
110
0.0
120
0.0
130
0.0
111
1.0
121
0.0
131
0.0
112
0.0
122
1.0
132
0.0
 79
     0
146
0.0
  0
ENDTAB
  0
TABLE
  2
LTYPE
  5
1D2
330
0
100
AcDbSymbolTable
 70
     2
  0
LTYPE
  5
1D3
330
1D2
100
AcDbSymbolTableRecord
100
AcDbLinetypeTableRecord
  2
BYBLOCK
 70
     0
  3

 72
    65
 73
     0
 40
0.0
  0
LTYPE
  5
1D4
330
1D2
100
AcDbSymbolTableRecord
100
AcDbLinetypeTableRecord
  2
BYLAYER
 70
     0
  3

 72
    65
 73
     0
 40
0.0
  0
LTYPE
  5
8
330
1D2
100
AcDbSymbolTableRecord
100
AcDbLinetypeTableRecord
  2
CONTINUOUS
 70
     0
  3
Solid line
 72
    65
 73
     0
 40
0.0
  0
LTYPE
  5
33
330
1D2
100
AcDbSymbolTableRecord
100
AcDbLinetypeTableRecord
  2
DASHED
 70
     0
  3
__ __ __ __ __ __ __ __ __ __ __ __ __ __ __ __
 72
    65
 73
     2
 40
0.75
 49
0.5
 74
     0
 49
-0.25
 74
     0
  0
ENDTAB
  0
TABLE
  2
LAYER
  5
1CF
330
0
100
AcDbSymbolTable
 70
     4
  0
LAYER
  5
4
330
1CF
100
AcDbSymbolTableRecord
100
AcDbLayerTableRecord
  2
0
 70
     0
 62
     7
  6
CONTINUOUS
370
    -3
390
5
  0
LAYER
  5
32
330
1CF
100
AcDbSymbolTableRecord
100
AcDbLayerTableRecord
  2
DASHED
 70
     0
 62
     7
  6
DASHED
370
    -3
390
5
  0
LAYER
  5
43
330
1CF
100
AcDbSymbolTableRecord
100
AcDbLayerTableRecord
  2
DIMENSION
 70
     0
 62
     7
  6
CONTINUOUS
370
    -3
390
5
  0
LAYER
  5
11
330
1CF
100
AcDbSymbolTableRecord
100
AcDbLayerTableRecord
  2
DEFPOINTS
 70
     0
 62
     7
  6
CONTINUOUS
290
     0
370
    -3
390
5
  0
ENDTAB
  0
TABLE
  2
STYLE
  5
1D0
330
0
100
AcDbSymbolTable
 70
     2
  0
STYLE
  5
9
330
1D0
100
AcDbSymbolTableRecord
100
AcDbTextStyleTableRecord
  2
STANDARD
 70
     0
 40
0.0
 41
1.0
 50
0.0
 71
     0
 42
5.0
  3
txt
  4

  0
STYLE
  5
1E0
330
1D0
100
AcDbSymbolTableRecord
100
AcDbTextStyleTableRecord
  2
STYLE1
 70
     0
 40
0.0
 41
1.0
 50
0.0
 71
     0
 42
10.0
  3
ARIAL.TTF
  4

1001
ACAD
1000
Arial
1071
       34
  0
ENDTAB
  0
TABLE
  2
VIEW
  5
1D5
330
0
100
AcDbSymbolTable
 70
     0
  0
ENDTAB
  0
TABLE
  2
UCS
  5
1D6
330
0
100
AcDbSymbolTable
 70
     0
  0
ENDTAB
  0
TABLE
  2
APPID
  5
1D9
330
0
100
AcDbSymbolTable
 70
     1
  0
APPID
  5
15
330
1D9
100
AcDbSymbolTableRecord
100
AcDbRegAppTableRecord
  2
ACAD
 70
     0
  0
ENDTAB
  0
TABLE
  2
DIMSTYLE
  5
1DA
330
0
100
AcDbSymbolTable
 70
     3
100
AcDbDimStyleTable
 71
     3
340
A
340
1DB
340
26
  0
DIMSTYLE
105
26
102
{ACAD_REACTORS
330
1A4
102
}
330
1DA
100
AcDbSymbolTableRecord
100
AcDbDimStyleTableRecord
  2
STANDARD
 70
     0
 40
1.5
 41
2.5
 42
0.625
 43
3.75
 44
1.25
140
1.5
141
2.5
147
1.0
340
9
  0
DIMSTYLE
105
A
102
{ACAD_REACTORS
330
3
102
}
330
1DA
100
AcDbSymbolTableRecord
100
AcDbDimStyleTableRecord
  2
ISO-25
 70
     0
 41
2.5
 42
0.625
 43
3.75
 44
1.25
 74
     0
 77
     1
 78
     8
140
2.5
141
2.5
143
0.0394
145
1.0
147
0.625
172
     1
340
9
  0
DIMSTYLE
105
1DB
330
1DA
100
AcDbSymbolTableRecord
100
AcDbDimStyleTableRecord
  2
luke
 70
     0
 41
30.0
 42
2.0
 43
3.75
 44
5.0
 73
     0
 74
     0
 77
     1
 78
     8
140
15.0
141
2.5
143
0.03937007874016
147
10.0
171
     3
271
     1
272
     1
274
     3
283
     0
284
     8
289
     0
340
9
  0
ENDTAB
  0
TABLE
  2
BLOCK_RECORD
  5
1
330
0
100
AcDbSymbolTable
 70
     2
  0
BLOCK_RECORD
  5
2
330
1
100
AcDbSymbolTableRecord
100
AcDbBlockTableRecord
  2
*MODEL_SPACE
340
1C9
  0
BLOCK_RECORD
  5
1CB
330
1
100
AcDbSymbolTableRecord
100
AcDbBlockTableRecord
  2
*Paper_Space
340
1CE
  0
BLOCK_RECORD
  5
B
330
1
100
AcDbSymbolTableRecord
100
AcDbBlockTableRecord
  2
*D0
340
0
  0
BLOCK_RECORD
  5
1A5
330
1
100
AcDbSymbolTableRecord
100
AcDbBlockTableRecord
  2
*D1
340
0
  0
ENDTAB
  0
ENDSEC
  0
SECTION
  2
BLOCKS
  0
BLOCK
  5
1C7
330
2
100
AcDbEntity
  8
0
100
AcDbBlockBegin
  2
*MODEL_SPACE
 70
     0
 10
0.0
 20
0.0
 30
0.0
  3
*MODEL_SPACE
  1

  0
ENDBLK
  5
1C8
330
2
100
AcDbEntity
  8
0
100
AcDbBlockEnd
  0
BLOCK
  5
1CC
330
1CB
100
AcDbEntity
 67
     1
  8
0
100
AcDbBlockBegin
  2
*Paper_Space
 70
     0
 10
0.0
 20
0.0
 30
0.0
  3
*Paper_Space
  1

  0
ENDBLK
  5
1CD
330
1CB
100
AcDbEntity
 67
     1
  8
0
100
AcDbBlockEnd
  0
BLOCK
  5
13
330
B
100
AcDbEntity
  8
0
100
AcDbBlockBegin
  2
*D0
 70
     1
 10
0.0
 20
0.0
 30
0.0
  3
*D0
  1

  0
LINE
  5
C
330
B
100
AcDbEntity
  8
0
 62
     0
370
    -2
100
AcDbLine
 10
-342.6211231045259
 20
178.3301055975034
 30
0.0
 11
-314.0806884466669
 21
158.1918710785472
 31
0.0
  0
MTEXT
  5
D
330
B
100
AcDbEntity
  8
0
 62
     0
100
AcDbMText
 10
-619.9004315093411
 20
363.8527575359073
 30
0.0
 40
2.5
 41
0.0
 71
     5
 72
     1
  1
\A1;\U+220539.93
 73
     1
 44
1.0
  0
SOLID
  5
E
330
B
100
AcDbEntity
  8
0
 62
     0
100
AcDbTrace
 10
-342.3809017747359
 20
178.670553572714
 30
0.0
 11
-342.8613444343159
 21
177.9896576222928
 31
0.0
 12
-344.6638109557898
 22
179.7714335762435
 32
0.0
 13
-344.6638109557898
 23
179.7714335762435
 33
0.0
  0
SOLID
  5
F
330
B
100
AcDbEntity
  8
0
 62
     0
100
AcDbTrace
 10
-313.8404671168769
 20
158.5323190537578
 30
0.0
 11
-314.3209097764569
 21
157.8514231033365
 31
0.0
 12
-312.038000595403
 22
156.7505430998071
 32
0.0
 13
-312.038000595403
 23
156.7505430998071
 33
0.0
  0
POINT
  5
10
330
B
100
AcDbEntity
  8
DEFPOINTS
 62
     0
100
AcDbPoint
 10
-312.038000595403
 20
156.7505430998071
 30
0.0
  0
POINT
  5
12
330
B
100
AcDbEntity
  8
DEFPOINTS
 62
     0
100
AcDbPoint
 10
-344.6638109557898
 20
179.7714335762435
 30
0.0
  0
ENDBLK
  5
14
330
B
100
AcDbEntity
  8
0
100
AcDbBlockEnd
  0
BLOCK
  5
1B0
330
1A5
100
AcDbEntity
  8
0
100
AcDbBlockBegin
  2
*D1
 70
     1
 10
0.0
 20
0.0
 30
0.0
  3
*D1
  1

  0
LINE
  5
1A6
330
1A5
100
AcDbEntity
  8
0
 62
     0
370
    -2
100
AcDbLine
 10
-298.5936689647837
 20
188.2259883380252
 30
0.0
 11
-283.0373551430406
 21
188.2259883380252
 31
0.0
  0
LINE
  5
1A7
330
1A5
100
AcDbEntity
  8
0
 62
     0
370
    -2
100
AcDbLine
 10
-298.5936689647837
 20
191.4272883380252
 30
0.0
 11
-283.0373551430406
 21
191.4272883380252
 31
0.0
  0
LINE
  5
1A8
330
1A5
100
AcDbEntity
  8
0
 62
     0
370
    -2
100
AcDbLine
 10
-284.2873551430406
 20
185.7259883380252
 30
0.0
 11
-284.2873551430406
 21
183.2259883380252
 31
0.0
  0
LINE
  5
1A9
330
1A5
100
AcDbEntity
  8
0
 62
     0
370
    -2
100
AcDbLine
 10
-284.2873551430406
 20
193.9272883380252
 30
0.0
 11
-284.2873551430406
 21
196.4272883380252
 31
0.0
  0
MTEXT
  5
1AA
330
1A5
100
AcDbEntity
  8
0
 62
     0
100
AcDbMText
 10
-268.5598515599788
 20
189.912229696581
 30
0.0
 40
2.0
 41
0.0
 71
     5
 72
     1
  1
\A1;30mm CLEARANCE
 73
     1
 44
1.0
  0
SOLID
  5
1AB
330
1A5
100
AcDbEntity
  8
0
 62
     0
100
AcDbTrace
 10
-284.7040218097073
 20
185.7259883380252
 30
0.0
 11
-283.8706884763739
 21
185.7259883380252
 31
0.0
 12
-284.2873551430406
 22
188.2259883380252
 32
0.0
 13
-284.2873551430406
 23
188.2259883380252
 33
0.0
  0
SOLID
  5
1AC
330
1A5
100
AcDbEntity
  8
0
 62
     0
100
AcDbTrace
 10
-284.7040218097073
 20
193.9272883380252
 30
0.0
 11
-283.8706884763739
 21
193.9272883380252
 31
0.0
 12
-284.2873551430406
 22
191.4272883380252
 32
0.0
 13
-284.2873551430406
 23
191.4272883380252
 33
0.0
  0
POINT
  5
1AD
330
1A5
100
AcDbEntity
  8
DEFPOINTS
 62
     0
100
AcDbPoint
 10
-299.5936689647837
 20
188.2259883380252
 30
0.0
  0
POINT
  5
1AE
330
1A5
100
AcDbEntity
  8
DEFPOINTS
 62
     0
100
AcDbPoint
 10
-299.5936689647837
 20
191.4272883380252
 30
0.0
  0
POINT
  5
1AF
330
1A5
100
AcDbEntity
  8
DEFPOINTS
 62
     0
100
AcDbPoint
 10
-284.2873551430406
 20
191.4272883380252
 30
0.0
  0
ENDBLK
  5
1B1
330
1A5
100
AcDbEntity
  8
0
100
AcDbBlockEnd
  0
ENDSEC
  0
SECTION
  2
ENTITIES
  0
DIMENSION
  5
3
330
2
100
AcDbEntity
  8
0
100
AcDbDimension
  2
*D0
 10
-344.6638109557898
 20
179.7714335762435
 30
0.0
 11
-619.9004315093411
 21
363.8527575359073
 31
0.0
 70
   131
 71
     5
 42
39.92999999999994
  3
ISO-25
100
AcDbDiametricDimension
 15
-312.038000595403
 25
156.7505430998071
 35
0.0
 40
0.0
1001
ACAD
1000
DSTYLE
1002
{
1070
   279
1070
     2
1070
   288
1070
     1
1002
}
  0
LINE
  5
16
330
2
100
AcDbEntity
  8
0
100
AcDbLine
 10
-348.3159057755965
 20
194.9153294107509
 30
0.0
 11
-348.3159057755964
 21
201.395372805326
 31
0.0
  0
TEXT
  5
17
330
2
100
AcDbEntity
  8
0
100
AcDbText
 10
-281.7886579342125
 20
180.9155503077336
 30
0.0
 40
2.0
  1
EITHER OF THESE POSITIONS 
100
AcDbText
  0
CIRCLE
  5
18
330
2
100
AcDbEntity
  8
0
 62
     7
100
AcDbCircle
 10
-328.3509057755964
 20
168.2609883380252
 30
0.0
 40
19.965
  0
LINE
  5
19
330
2
100
AcDbEntity
  8
0
100
AcDbLine
 10
-356.8861221419008
 20
121.9989451472572
 30
0.0
 11
-356.8861221419008
 21
193.9272883380251
 31
0.0
  0
LINE
  5
1A
330
2
100
AcDbEntity
  8
0
100
AcDbLine
 10
-353.6514034114318
 20
125.2489451472572
 30
0.0
 11
-353.6514034114318
 21
191.4272883380252
 31
0.0
  0
LINE
  5
1B
330
2
100
AcDbEntity
  8
0
100
AcDbLine
 10
-356.1514034114318
 20
122.7489451472572
 30
0.0
 11
-356.1514034114318
 21
193.9272883380251
 31
0.0
  0
LINE
  5
1C
330
2
100
AcDbEntity
  8
0
100
AcDbLine
 10
-299.5936689647837
 20
121.9989451472572
 30
0.0
 11
-299.5936689647837
 21
193.9272883380252
 31
0.0
  0
LINE
  5
1D
330
2
100
AcDbEntity
  8
0
100
AcDbLine
 10
-302.8283876952527
 20
125.2489451472572
 30
0.0
 11
-302.8283876952526
 21
191.4272883380252
 31
0.0
  0
LINE
  5
1E
330
2
100
AcDbEntity
  8
0
100
AcDbLine
 10
-300.3283876952528
 20
122.7489451472572
 30
0.0
 11
-300.3283876952528
 21
193.9272883380252
 31
0.0
  0
MTEXT
  5
1F
330
2
100
AcDbEntity
  8
0
100
AcDbMText
 10
-422.1011364068975
 20
36.62521694836984
 30
0.0
 40
2.0
 41
1670.696799999999
 71
     1
 72
     5
  1
N.B LOCKS SHOULD NOT BE FITTED, BUT SOME LIFTING OF THE SHUTTER MAY BE POSSIBLE
 73
     1
 44
1.0
  0
MTEXT
  5
20
330
2
100
AcDbEntity
  8
0
100
AcDbMText
 10
-422.1011364068975
 20
43.22089072141877
 30
0.0
 40
2.0
 41
1670.696799999999
 71
     1
 72
     5
  1
N.B A MANUAL RELEASE MECHANISM IS NOT AVAILABLE WITH THIS PRODUCT
 73
     1
 44
1.0
  0
MTEXT
  5
21
330
2
100
AcDbEntity
  8
0
100
AcDbMText
 10
-422.1592524936121
 20
66.11776527522774
 30
0.0
 40
2.0
 41
189.0027
 71
     1
 72
     5
  1
N.B THE INTERNAL END OF THE BULKHEAD MUST BE CLEAR TO AT LEAST A MINIMUM OF 65mm OR A \P    RECOMMENDED 153mm FROM THE DAYLIGHT OPENING, ie THE FRONT OF THE GUIDE (REFER TO TECH SHEETS \P    15C AND 15D)
 73
     1
 44
1.0
  0
MTEXT
  5
22
330
2
100
AcDbEntity
  8
0
100
AcDbMText
 10
-422.0615301238398
 20
54.54285497628531
 30
0.0
 40
2.0
 41
1654.972562198789
 71
     1
 72
     5
  1
N.B DROP HEIGHT IS MEASURED FROM SOFFIT OR BULKHEAD LINE TO THE FLOOR
 73
     1
 44
1.0
  0
MTEXT
  5
23
330
2
100
AcDbEntity
  8
0
100
AcDbMText
 10
-422.1011364068975
 20
48.71728453660911
 30
0.0
 40
2.0
 41
1670.696799999999
 71
     1
 72
     5
  1
N.B REMOVABLE MULLIONS ARE NOT RECOMMENDED FOR THIS PRODUCT
 73
     1
 44
1.0
  0
LINE
  5
24
330
2
100
AcDbEntity
  8
0
100
AcDbLine
 10
-312.038000595403
 20
156.7505430998071
 30
0.0
 11
-283.7274749061023
 21
136.8113883017399
 31
0.0
  0
LEADER
  5
25
330
2
100
AcDbEntity
  8
0
100
AcDbLeader
  3
STANDARD
 76
     3
 10
-315.3509057755964
 20
168.2609883380252
 30
0.0
 10
-286.1293295106206
 20
153.1864499464681
 30
0.0
 10
-284.4371734637848
 20
153.1864499464681
 30
0.0
1001
ACAD
1000
DSTYLE
1002
{
1070
    40
1040
1.0
1070
    42
1040
1.0
1070
    43
1040
4.0
1070
    77
1070
     0
1070
   140
1040
2.0
1070
   147
1040
1.5
1070
   271
1070
     0
1070
   272
1070
     0
1002
}
  0
LINE
  5
27
330
2
100
AcDbEntity
  8
0
100
AcDbLine
 10
-327.3509057755964
 20
148.2959883380252
 30
0.0
 11
-308.5124777996107
 21
148.2959883380252
 31
0.0
  0
LINE
  5
28
330
2
100
AcDbEntity
  8
0
100
AcDbLine
 10
-327.3509057755964
 20
125.2489451472572
 30
0.0
 11
-308.5124777996107
 21
125.2489451472572
 31
0.0
  0
LINE
  5
29
330
2
100
AcDbEntity
  8
0
100
AcDbLine
 10
-336.1496217716029
 20
125.2489451472572
 30
0.0
 11
-302.8283876952527
 21
125.2489451472572
 31
0.0
  0
LINE
  5
2A
330
2
100
AcDbEntity
  8
0
100
AcDbLine
 10
-313.2674882637038
 20
111.80968510011
 30
0.0
 11
-291.6230094099173
 21
111.80968510011
 31
0.0
  0
LINE
  5
2B
102
{ACAD_REACTORS
330
2D
102
}
330
2
100
AcDbEntity
  8
0
100
AcDbLine
 10
-336.1496217716029
 20
121.9989451472572
 30
0.0
 11
-299.5936689647837
 21
121.9989451472572
 31
0.0
  0
LINE
  5
2C
102
{ACAD_REACTORS
330
2D
102
}
330
2
100
AcDbEntity
  8
0
100
AcDbLine
 10
-336.1496217716029
 20
122.7489451472572
 30
0.0
 11
-300.3283876952528
 21
122.7489451472572
 31
0.0
  0
HATCH
  5
2D
330
2
100
AcDbEntity
  8
0
100
AcDbHatch
 10
0.0
 20
0.0
 30
0.0
210
0.0
220
0.0
230
1.0
  2
ANSI31
 70
     0
 71
     1
 91
        1
 92
        7
 72
     0
 73
     1
 93
        4
 10
-300.3283876952528
 20
122.7489451472572
 10
-336.1496217716029
 20
122.7489451472572
 10
-336.1496217716029
 20
121.9989451472572
 10
-299.5936689647837
 20
121.9989451472572
 97
        4
330
2C
330
138
330
2B
330
17A
 75
     0
 76
     1
 52
0.0
 41
10.0
 77
     0
 78
     1
 53
45.0
 43
217.2826545128687
 44
23.27498693197867
 45
-0.8838834764831842
 46
0.8838834764831844
 79
     0
 47
0.0714434426861326
 98
        1
 10
-310.4259947078701
 20
122.1969329116778
  0
LINE
  5
2E
102
{ACAD_REACTORS
330
14C
102
}
330
2
100
AcDbEntity
  8
0
100
AcDbLine
 10
-309.7624777996106
 20
136.7724667426412
 30
0.0
 11
-284.2873551430407
 21
122.0643978192318
 31
0.0
  0
SOLID
  5
2F
330
2
100
AcDbEntity
  8
0
100
AcDbTrace
 10
-310.1791444662773
 20
127.7489451472572
 30
0.0
 11
-309.345811132944
 21
127.7489451472572
 31
0.0
 12
-309.7624777996106
 22
125.2489451472572
 32
0.0
 13
-309.7624777996106
 23
125.2489451472572
 33
0.0
  0
LINE
  5
30
330
2
100
AcDbEntity
  8
0
  6
ByBlock
 62
     7
100
AcDbLine
 10
-342.8656525528483
 20
112.4122297352742
 30
0.0
 11
-342.8656525528483
 21
127.5433570652081
 31
0.0
  0
LINE
  5
31
330
2
100
AcDbEntity
  8
DASHED
 62
     7
 48
2.5
100
AcDbLine
 10
-340.8219015188533
 20
133.0674101948227
 30
0.0
 11
-340.8219015188533
 21
107.4202983543448
 31
0.0
  0
LINE
  5
34
330
2
100
AcDbEntity
  8
0
 62
     7
100
AcDbLine
 10
-338.8958612095573
 20
131.9696145687841
 30
0.0
 11
-338.8958612095573
 21
100.9711974655924
 31
0.0
  0
LINE
  5
35
330
2
100
AcDbEntity
  8
0
 62
     7
100
AcDbLine
 10
-342.8656525528483
 20
131.9696145687868
 30
0.0
 11
-342.8656525528482
 21
100.9711974655924
 31
0.0
  0
LINE
  5
36
330
2
100
AcDbEntity
  8
0
100
AcDbLine
 10
-367.1224138452571
 20
112.0449969840638
 30
0.0
 11
-387.6292904590777
 21
107.2464371041443
 31
0.0
  0
MTEXT
  5
37
330
2
100
AcDbEntity
  8
0
100
AcDbMText
 10
-368.6224138452571
 20
118.8853886732476
 30
0.0
 40
2.0
 41
0.0
 71
     9
 72
     1
  1
SOFFIT OR \PBULKHEAD LINE
 73
     1
 44
1.0
  0
MTEXT
  5
38
330
2
100
AcDbEntity
  8
0
100
AcDbMText
 10
-368.6224138452571
 20
95.86526808800522
 30
0.0
 40
2.0
 41
0.0
 71
     9
 72
     1
  1
PROVIDE A MIN 76mm CLEARANCE \PSLOT FOR THE ENTIRE LENGTH OF \PTHE INSTALLATION. 
 73
     1
 44
1.0
  0
MTEXT
  5
39
330
2
100
AcDbEntity
  8
0
100
AcDbMText
 10
-368.3772856362056
 20
81.6009506427672
 30
0.0
 40
2.0
 41
0.0
 71
     9
 72
     1
  1
ALUMINIUM EXTRUDED \P24mm WIDE SIDE GUIDE
 73
     1
 44
1.0
  0
LINE
  5
3A
330
2
100
AcDbEntity
  8
0
100
AcDbLine
 10
-342.5242777372036
 20
92.78657237710714
 30
0.0
 11
-342.5242777372036
 21
103.8016298875071
 31
0.0
  0
LINE
  5
3B
330
2
100
AcDbEntity
  8
0
100
AcDbLine
 10
-342.5242777372036
 20
92.78657237710714
 30
0.0
 11
-342.5242777372036
 21
103.8016298875071
 31
0.0
  0
LINE
  5
3C
330
2
100
AcDbEntity
  8
0
100
AcDbLine
 10
-342.2938777372036
 20
93.75425237710713
 30
0.0
 11
-342.2938777372036
 21
98.37761237710711
 31
0.0
  0
LINE
  5
3D
330
2
100
AcDbEntity
  8
0
100
AcDbLine
 10
-342.2938777372036
 20
93.75425237710713
 30
0.0
 11
-342.2938777372036
 21
98.37761237710711
 31
0.0
  0
LINE
  5
3E
330
2
100
AcDbEntity
  8
0
100
AcDbLine
 10
-338.8958612095573
 20
99.97119746559246
 30
0.0
 11
-338.8958612095573
 21
83.79929414693947
 31
0.0
  0
LINE
  5
3F
330
2
100
AcDbEntity
  8
0
100
AcDbLine
 10
-342.8656525528482
 20
99.97119746559247
 30
0.0
 11
-342.8656525528482
 21
83.79929414693947
 31
0.0
  0
SOLID
  5
40
330
2
100
AcDbEntity
  8
0
100
AcDbTrace
 10
-345.3656525528482
 20
85.46596081360613
 30
0.0
 11
-345.3656525528482
 21
84.63262748027281
 31
0.0
 12
-342.8656525528482
 22
85.04929414693947
 32
0.0
 13
-342.8656525528482
 23
85.04929414693947
 33
0.0
  0
SOLID
  5
41
330
2
100
AcDbEntity
  8
0
100
AcDbTrace
 10
-345.3656525528482
 20
85.46596081360613
 30
0.0
 11
-342.8656525528482
 21
85.04929414693947
 31
0.0
 12
-345.3656525528482
 22
84.63262748027281
 32
0.0
 13
-345.3656525528482
 23
84.63262748027281
 33
0.0
1001
ACAD
1000
DSTYLE
1002
{
1070
    40
1040
1.0
1070
    42
1040
1.0
1070
    43
1040
4.0
1070
    77
1070
     0
1070
   140
1040
2.0
1070
   147
1040
1.5
1070
   271
1070
     0
1070
   272
1070
     0
1002
}
  0
MTEXT
  5
42
330
2
100
AcDbEntity
  8
DIMENSION
 62
     7
100
AcDbMText
 10
-371.8183861107538
 20
77.18714569531468
 30
0.0
 40
3.025
 41
35.14058694454438
 71
     1
 72
     5
  1
{OUTSIDE}
 73
     1
 44
1.0
  0
LWPOLYLINE
  5
44
330
2
100
AcDbEntity
  8
DIMENSION
 62
     7
100
AcDbPolyline
 90
        4
 70
     1
 43
0.0
 10
-373.8328138603237
 20
78.97556658557562
 10
-373.8328138603237
 20
72.49253997094587
 10
-350.3311477433285
 20
72.49253997094587
 10
-350.3311477433285
 20
78.97556658557562
  0
LWPOLYLINE
  5
45
330
2
100
AcDbEntity
  8
0
100
AcDbPolyline
 90
        2
 70
     0
 43
0.0
 10
-345.3656525528482
 20
85.04929414693947
 10
-366.8772856362056
 20
85.04929414693947
1001
ACAD
1000
DSTYLE
1002
{
1070
    40
1040
1.0
1070
    42
1040
1.0
1070
    43
1040
4.0
1070
    77
1070
     0
1070
   140
1040
2.0
1070
   147
1040
1.5
1070
   271
1070
     0
1070
   272
1070
     0
1002
}
  0
LINE
  5
46
330
2
100
AcDbEntity
  8
0
100
AcDbLine
 10
-345.3656525528482
 20
85.04929414693947
 30
0.0
 11
-352.1989858861816
 21
85.04929414693947
 31
0.0
  0
MTEXT
  5
47
330
2
100
AcDbEntity
  8
DIMENSION
 62
     7
100
AcDbMText
 10
-328.8847908146499
 20
77.18714569531468
 30
0.0
 40
3.025
 41
35.14058694454438
 71
     1
 72
     5
  1
{INSIDE}
 73
     1
 44
1.0
  0
LWPOLYLINE
  5
48
330
2
100
AcDbEntity
  8
DIMENSION
 62
     7
100
AcDbPolyline
 90
        4
 70
     1
 43
0.0
 10
-330.8992185642199
 20
78.97556658557562
 10
-330.8992185642199
 20
72.49253997094587
 10
-310.4359452926528
 20
72.49253997094587
 10
-310.4359452926528
 20
78.97556658557562
  0
LINE
  5
49
330
2
100
AcDbEntity
  8
0
100
AcDbLine
 10
-336.3958612095573
 20
85.04929414693947
 30
0.0
 11
-333.8958612095573
 21
85.04929414693947
 31
0.0
  0
SOLID
  5
4A
330
2
100
AcDbEntity
  8
0
100
AcDbTrace
 10
-336.3958612095573
 20
85.46596081360613
 30
0.0
 11
-336.3958612095573
 21
84.63262748027281
 31
0.0
 12
-338.8958612095573
 22
85.04929414693947
 32
0.0
 13
-338.8958612095573
 23
85.04929414693947
 33
0.0
  0
LINE
  5
4B
330
2
100
AcDbEntity
  8
0
100
AcDbLine
 10
-340.2686617372037
 20
93.26273237710713
 30
0.0
 11
-341.4974617372037
 21
93.26273237710713
 31
0.0
  0
LINE
  5
4C
330
2
100
AcDbEntity
  8
0
100
AcDbLine
 10
-340.2686617372037
 20
93.26273237710713
 30
0.0
 11
-341.4974617372037
 21
93.26273237710713
 31
0.0
  0
LINE
  5
4D
330
2
100
AcDbEntity
  8
0
100
AcDbLine
 10
-339.5951257372037
 20
93.63137237710713
 30
0.0
 11
-342.1709977372036
 21
93.63137237710713
 31
0.0
  0
LINE
  5
4E
330
2
100
AcDbEntity
  8
0
100
AcDbLine
 10
-339.5951257372037
 20
93.63137237710713
 30
0.0
 11
-342.1709977372036
 21
93.63137237710713
 31
0.0
  0
ARC
  5
4F
330
2
100
AcDbEntity
  8
0
100
AcDbCircle
 10
-341.2670617372036
 20
92.64833237710716
 30
0.0
 40
0.0768
100
AcDbArc
 50
0.0
 51
90.0
  0
ARC
  5
50
330
2
100
AcDbEntity
  8
0
100
AcDbCircle
 10
-341.2670617372036
 20
92.64833237710716
 30
0.0
 40
0.0768
100
AcDbArc
 50
0.0
 51
90.0
  0
ARC
  5
51
330
2
100
AcDbEntity
  8
0
100
AcDbCircle
 10
-341.4974617372037
 20
92.87873237710714
 30
0.0
 40
0.1536
100
AcDbArc
 50
180.0
 51
270.0
  0
ARC
  5
52
330
2
100
AcDbEntity
  8
0
100
AcDbCircle
 10
-341.4974617372037
 20
92.87873237710714
 30
0.0
 40
0.1536
100
AcDbArc
 50
180.0
 51
270.0
  0
LINE
  5
53
330
2
100
AcDbEntity
  8
0
100
AcDbLine
 10
-341.1902617372036
 20
92.41793237710714
 30
0.0
 11
-341.1902617372036
 21
92.64833237710714
 31
0.0
  0
LINE
  5
54
330
2
100
AcDbEntity
  8
0
100
AcDbLine
 10
-341.1902617372036
 20
92.41793237710714
 30
0.0
 11
-341.1902617372036
 21
92.64833237710714
 31
0.0
  0
LINE
  5
55
330
2
100
AcDbEntity
  8
0
100
AcDbLine
 10
-341.2670617372036
 20
92.72513237710715
 30
0.0
 11
-341.4974617372037
 21
92.72513237710715
 31
0.0
  0
LINE
  5
56
330
2
100
AcDbEntity
  8
0
100
AcDbLine
 10
-341.2670617372036
 20
92.72513237710715
 30
0.0
 11
-341.4974617372037
 21
92.72513237710715
 31
0.0
  0
LINE
  5
57
330
2
100
AcDbEntity
  8
0
100
AcDbLine
 10
-341.6510617372036
 20
92.87873237710712
 30
0.0
 11
-341.6510617372036
 21
93.10913237710712
 31
0.0
  0
LINE
  5
58
330
2
100
AcDbEntity
  8
0
100
AcDbLine
 10
-341.6510617372036
 20
92.87873237710712
 30
0.0
 11
-341.6510617372036
 21
93.10913237710712
 31
0.0
  0
ARC
  5
59
330
2
100
AcDbEntity
  8
0
100
AcDbCircle
 10
-341.4974617372037
 20
93.10913237710714
 30
0.0
 40
0.1536
100
AcDbArc
 50
90.0
 51
180.0
  0
ARC
  5
5A
330
2
100
AcDbEntity
  8
0
100
AcDbCircle
 10
-341.4974617372037
 20
93.10913237710714
 30
0.0
 40
0.1536
100
AcDbArc
 50
90.0
 51
180.0
  0
ARC
  5
5B
330
2
100
AcDbEntity
  8
0
100
AcDbCircle
 10
-339.6258457372037
 20
93.97082837710716
 30
0.0
 40
0.1536
100
AcDbArc
 50
0.0
 51
90.0
  0
ARC
  5
5C
330
2
100
AcDbEntity
  8
0
100
AcDbCircle
 10
-339.6258457372037
 20
93.97082837710716
 30
0.0
 40
0.1536
100
AcDbArc
 50
0.0
 51
90.0
  0
LINE
  5
5D
330
2
100
AcDbEntity
  8
0
100
AcDbLine
 10
-339.2418457372036
 20
92.78657237710714
 30
0.0
 11
-339.2418457372036
 21
94.76494037710713
 31
0.0
  0
LINE
  5
5E
330
2
100
AcDbEntity
  8
0
100
AcDbLine
 10
-339.2418457372036
 20
92.78657237710714
 30
0.0
 11
-339.2418457372036
 21
94.76494037710713
 31
0.0
  0
LINE
  5
5F
330
2
100
AcDbEntity
  8
0
100
AcDbLine
 10
-337.2941977372036
 20
92.41793237710714
 30
0.0
 11
-337.8548377372037
 21
92.41793237710714
 31
0.0
  0
LINE
  5
60
330
2
100
AcDbEntity
  8
0
100
AcDbLine
 10
-337.2941977372036
 20
92.41793237710714
 30
0.0
 11
-337.8548377372037
 21
92.41793237710714
 31
0.0
  0
LINE
  5
61
330
2
100
AcDbEntity
  8
0
100
AcDbLine
 10
-337.2941977372036
 20
92.66369237710714
 30
0.0
 11
-339.1189657372036
 21
92.66369237710714
 31
0.0
  0
LINE
  5
62
330
2
100
AcDbEntity
  8
0
100
AcDbLine
 10
-337.2941977372036
 20
92.66369237710714
 30
0.0
 11
-339.1189657372036
 21
92.66369237710714
 31
0.0
  0
ARC
  5
63
330
2
100
AcDbEntity
  8
0
100
AcDbCircle
 10
-339.1189657372036
 20
92.78657237710715
 30
0.0
 40
0.12288
100
AcDbArc
 50
180.0
 51
270.0
  0
ARC
  5
64
330
2
100
AcDbEntity
  8
0
100
AcDbCircle
 10
-339.1189657372036
 20
92.78657237710715
 30
0.0
 40
0.12288
100
AcDbArc
 50
180.0
 51
270.0
  0
LINE
  5
65
330
2
100
AcDbEntity
  8
0
100
AcDbLine
 10
-338.0237977372037
 20
92.41793237710714
 30
0.0
 11
-340.5758617372037
 21
92.41793237710714
 31
0.0
  0
LINE
  5
66
330
2
100
AcDbEntity
  8
0
100
AcDbLine
 10
-338.0237977372037
 20
92.41793237710714
 30
0.0
 11
-340.5758617372037
 21
92.41793237710714
 31
0.0
  0
ARC
  5
67
330
2
100
AcDbEntity
  8
0
100
AcDbCircle
 10
-340.2686617372037
 20
92.87873237710714
 30
0.0
 40
0.1536
100
AcDbArc
 50
270.0
 51
0.0
  0
ARC
  5
68
330
2
100
AcDbEntity
  8
0
100
AcDbCircle
 10
-340.2686617372037
 20
92.87873237710714
 30
0.0
 40
0.1536
100
AcDbArc
 50
270.0
 51
0.0
  0
ARC
  5
69
330
2
100
AcDbEntity
  8
0
100
AcDbCircle
 10
-340.4990617372036
 20
92.64833237710716
 30
0.0
 40
0.0768
100
AcDbArc
 50
90.0
 51
180.0
  0
ARC
  5
6A
330
2
100
AcDbEntity
  8
0
100
AcDbCircle
 10
-340.4990617372036
 20
92.64833237710716
 30
0.0
 40
0.0768
100
AcDbArc
 50
90.0
 51
180.0
  0
LINE
  5
6B
330
2
100
AcDbEntity
  8
0
100
AcDbLine
 10
-340.5758617372037
 20
92.41793237710714
 30
0.0
 11
-340.5758617372037
 21
92.64833237710714
 31
0.0
  0
LINE
  5
6C
330
2
100
AcDbEntity
  8
0
100
AcDbLine
 10
-340.5758617372037
 20
92.41793237710714
 30
0.0
 11
-340.5758617372037
 21
92.64833237710714
 31
0.0
  0
LINE
  5
6D
330
2
100
AcDbEntity
  8
0
100
AcDbLine
 10
-340.2686617372037
 20
92.72513237710715
 30
0.0
 11
-340.4990617372036
 21
92.72513237710715
 31
0.0
  0
LINE
  5
6E
330
2
100
AcDbEntity
  8
0
100
AcDbLine
 10
-340.2686617372037
 20
92.72513237710715
 30
0.0
 11
-340.4990617372036
 21
92.72513237710715
 31
0.0
  0
LINE
  5
6F
330
2
100
AcDbEntity
  8
0
100
AcDbLine
 10
-340.1150617372036
 20
92.87873237710712
 30
0.0
 11
-340.1150617372036
 21
93.10913237710712
 31
0.0
  0
LINE
  5
70
330
2
100
AcDbEntity
  8
0
100
AcDbLine
 10
-340.1150617372036
 20
92.87873237710712
 30
0.0
 11
-340.1150617372036
 21
93.10913237710712
 31
0.0
  0
ARC
  5
71
330
2
100
AcDbEntity
  8
0
100
AcDbCircle
 10
-340.2686617372037
 20
93.10913237710714
 30
0.0
 40
0.1536
100
AcDbArc
 50
0.0
 51
90.0
  0
ARC
  5
72
330
2
100
AcDbEntity
  8
0
100
AcDbCircle
 10
-340.2686617372037
 20
93.10913237710714
 30
0.0
 40
0.1536
100
AcDbArc
 50
0.0
 51
90.0
  0
ARC
  5
73
330
2
100
AcDbEntity
  8
0
100
AcDbCircle
 10
-339.5951257372037
 20
93.75425237710715
 30
0.0
 40
0.12288
100
AcDbArc
 50
270.0
 51
0.0
  0
ARC
  5
74
330
2
100
AcDbEntity
  8
0
100
AcDbCircle
 10
-339.5951257372037
 20
93.75425237710715
 30
0.0
 40
0.12288
100
AcDbArc
 50
270.0
 51
0.0
  0
LINE
  5
75
330
2
100
AcDbEntity
  8
0
100
AcDbLine
 10
-339.4722457372036
 20
93.75425237710713
 30
0.0
 11
-339.4722457372036
 21
93.97082837710714
 31
0.0
  0
LINE
  5
76
330
2
100
AcDbEntity
  8
0
100
AcDbLine
 10
-339.4722457372036
 20
93.75425237710713
 30
0.0
 11
-339.4722457372036
 21
93.97082837710714
 31
0.0
  0
LINE
  5
77
330
2
100
AcDbEntity
  8
0
100
AcDbLine
 10
-337.9777177372036
 20
92.46401237710712
 30
0.0
 11
-338.0237977372037
 21
92.41793237710714
 31
0.0
  0
LINE
  5
78
330
2
100
AcDbEntity
  8
0
100
AcDbLine
 10
-337.9777177372036
 20
92.46401237710712
 30
0.0
 11
-338.0237977372037
 21
92.41793237710714
 31
0.0
  0
LINE
  5
79
330
2
100
AcDbEntity
  8
0
100
AcDbLine
 10
-337.9009177372036
 20
92.46401237710712
 30
0.0
 11
-337.8548377372037
 21
92.41793237710714
 31
0.0
  0
LINE
  5
7A
330
2
100
AcDbEntity
  8
0
100
AcDbLine
 10
-337.9009177372036
 20
92.46401237710712
 30
0.0
 11
-337.8548377372037
 21
92.41793237710714
 31
0.0
  0
LINE
  5
7B
330
2
100
AcDbEntity
  8
0
100
AcDbLine
 10
-337.9777177372036
 20
92.46401237710712
 30
0.0
 11
-337.9009177372036
 21
92.46401237710712
 31
0.0
  0
LINE
  5
7C
330
2
100
AcDbEntity
  8
0
100
AcDbLine
 10
-337.9777177372036
 20
92.46401237710712
 30
0.0
 11
-337.9009177372036
 21
92.46401237710712
 31
0.0
  0
LINE
  5
7D
330
2
100
AcDbEntity
  8
0
100
AcDbLine
 10
-337.9950619420036
 20
92.41793237710714
 30
0.0
 11
-337.8869495068036
 21
92.41793237710714
 31
0.0
  0
ARC
  5
7E
330
2
100
AcDbEntity
  8
0
100
AcDbCircle
 10
-337.2941977372036
 20
92.54081237710712
 30
0.0
 40
0.12288
100
AcDbArc
 50
270.0
 51
90.0
  0
ARC
  5
7F
330
2
100
AcDbEntity
  8
0
100
AcDbCircle
 10
-337.2941977372036
 20
92.54081237710712
 30
0.0
 40
0.12288
100
AcDbArc
 50
270.0
 51
90.0
  0
LINE
  5
80
330
2
100
AcDbEntity
  8
0
100
AcDbLine
 10
-339.4169497372037
 20
94.36558037710712
 30
0.0
 11
-339.4169497372037
 21
94.76494037710713
 31
0.0
  0
LINE
  5
81
330
2
100
AcDbEntity
  8
0
100
AcDbLine
 10
-339.4169497372037
 20
94.36558037710712
 30
0.0
 11
-339.4169497372037
 21
94.76494037710713
 31
0.0
  0
LINE
  5
82
330
2
100
AcDbEntity
  8
0
100
AcDbLine
 10
-339.9192217372036
 20
94.27802837710713
 30
0.0
 11
-339.9192217372036
 21
94.73191637710714
 31
0.0
  0
LINE
  5
83
330
2
100
AcDbEntity
  8
0
100
AcDbLine
 10
-339.9192217372036
 20
94.27802837710713
 30
0.0
 11
-339.9192217372036
 21
94.73191637710714
 31
0.0
  0
LINE
  5
84
330
2
100
AcDbEntity
  8
0
100
AcDbLine
 10
-339.4169497372037
 20
94.36558037710712
 30
0.0
 11
-339.7441177372036
 21
94.36558037710712
 31
0.0
  0
LINE
  5
85
330
2
100
AcDbEntity
  8
0
100
AcDbLine
 10
-339.4169497372037
 20
94.36558037710712
 30
0.0
 11
-339.7441177372036
 21
94.36558037710712
 31
0.0
  0
LINE
  5
86
330
2
100
AcDbEntity
  8
0
100
AcDbLine
 10
-339.6258457372037
 20
94.12442837710713
 30
0.0
 11
-339.7656217372036
 21
94.12442837710713
 31
0.0
  0
LINE
  5
87
330
2
100
AcDbEntity
  8
0
100
AcDbLine
 10
-339.6258457372037
 20
94.12442837710713
 30
0.0
 11
-339.7656217372036
 21
94.12442837710713
 31
0.0
  0
ARC
  5
88
330
2
100
AcDbEntity
  8
0
100
AcDbCircle
 10
-339.7656217372038
 20
94.27802837710714
 30
0.0
 40
0.1536
100
AcDbArc
 50
180.0
 51
270.0
  0
ARC
  5
89
330
2
100
AcDbEntity
  8
0
100
AcDbCircle
 10
-339.7656217372038
 20
94.27802837710714
 30
0.0
 40
0.1536
100
AcDbArc
 50
180.0
 51
270.0
  0
LINE
  5
8A
330
2
100
AcDbEntity
  8
0
100
AcDbLine
 10
-339.7441177372036
 20
94.36558037710712
 30
0.0
 11
-339.7441177372036
 21
94.62437441230715
 31
0.0
  0
LINE
  5
8B
330
2
100
AcDbEntity
  8
0
100
AcDbLine
 10
-339.7441177372036
 20
94.36558037710712
 30
0.0
 11
-339.7441177372036
 21
94.62437441230715
 31
0.0
  0
ARC
  5
8C
330
2
100
AcDbEntity
  8
0
100
AcDbCircle
 10
-339.3293977372037
 20
94.76494037710713
 30
0.0
 40
0.087552
100
AcDbArc
 50
0.0
 51
180.0
  0
ARC
  5
8D
330
2
100
AcDbEntity
  8
0
100
AcDbCircle
 10
-339.3293977372037
 20
94.76494037710713
 30
0.0
 40
0.087552
100
AcDbArc
 50
0.0
 51
180.0
  0
ARC
  5
8E
330
2
100
AcDbEntity
  8
0
100
AcDbCircle
 10
-339.7986457372037
 20
94.73191637710716
 30
0.0
 40
0.120576
100
AcDbArc
 50
296.8868039999993
 51
180.0
  0
ARC
  5
8F
330
2
100
AcDbEntity
  8
0
100
AcDbCircle
 10
-339.7986457372037
 20
94.73191637710716
 30
0.0
 40
0.120576
100
AcDbArc
 50
296.8868039999993
 51
180.0
  0
LINE
  5
90
330
2
100
AcDbEntity
  8
0
100
AcDbLine
 10
-342.6471577372036
 20
92.66369237710714
 30
0.0
 11
-344.4719257372037
 21
92.66369237710714
 31
0.0
  0
LINE
  5
91
330
2
100
AcDbEntity
  8
0
100
AcDbLine
 10
-342.6471577372036
 20
92.66369237710714
 30
0.0
 11
-344.4719257372037
 21
92.66369237710714
 31
0.0
  0
LINE
  5
92
330
2
100
AcDbEntity
  8
0
100
AcDbLine
 10
-343.9112857372037
 20
92.41793237710714
 30
0.0
 11
-344.4719257372037
 21
92.41793237710714
 31
0.0
  0
LINE
  5
93
330
2
100
AcDbEntity
  8
0
100
AcDbLine
 10
-343.9112857372037
 20
92.41793237710714
 30
0.0
 11
-344.4719257372037
 21
92.41793237710714
 31
0.0
  0
ARC
  5
94
330
2
100
AcDbEntity
  8
0
100
AcDbCircle
 10
-344.4719257372037
 20
92.54081237710712
 30
0.0
 40
0.12288
100
AcDbArc
 50
90.0
 51
270.0
  0
ARC
  5
95
330
2
100
AcDbEntity
  8
0
100
AcDbCircle
 10
-344.4719257372037
 20
92.54081237710712
 30
0.0
 40
0.12288
100
AcDbArc
 50
90.0
 51
270.0
  0
ARC
  5
96
330
2
100
AcDbEntity
  8
0
100
AcDbCircle
 10
-342.6471577372036
 20
92.78657237710715
 30
0.0
 40
0.12288
100
AcDbArc
 50
270.0
 51
0.0
  0
ARC
  5
97
330
2
100
AcDbEntity
  8
0
100
AcDbCircle
 10
-342.6471577372036
 20
92.78657237710715
 30
0.0
 40
0.12288
100
AcDbArc
 50
270.0
 51
0.0
  0
LINE
  5
98
330
2
100
AcDbEntity
  8
0
100
AcDbLine
 10
-343.7884057372036
 20
92.46401237710712
 30
0.0
 11
-343.7423257372036
 21
92.41793237710714
 31
0.0
  0
LINE
  5
99
330
2
100
AcDbEntity
  8
0
100
AcDbLine
 10
-343.7884057372036
 20
92.46401237710712
 30
0.0
 11
-343.7423257372036
 21
92.41793237710714
 31
0.0
  0
LINE
  5
9A
330
2
100
AcDbEntity
  8
0
100
AcDbLine
 10
-343.7884057372036
 20
92.46401237710712
 30
0.0
 11
-343.8652057372037
 21
92.46401237710712
 31
0.0
  0
LINE
  5
9B
330
2
100
AcDbEntity
  8
0
100
AcDbLine
 10
-343.7884057372036
 20
92.46401237710712
 30
0.0
 11
-343.8652057372037
 21
92.46401237710712
 31
0.0
  0
LINE
  5
9C
330
2
100
AcDbEntity
  8
0
100
AcDbLine
 10
-343.8652057372037
 20
92.46401237710712
 30
0.0
 11
-343.9112857372037
 21
92.41793237710714
 31
0.0
  0
LINE
  5
9D
330
2
100
AcDbEntity
  8
0
100
AcDbLine
 10
-343.8652057372037
 20
92.46401237710712
 30
0.0
 11
-343.9112857372037
 21
92.41793237710714
 31
0.0
  0
LINE
  5
9E
330
2
100
AcDbEntity
  8
0
100
AcDbLine
 10
-341.1902617372036
 20
92.41793237710714
 30
0.0
 11
-343.7423257372036
 21
92.41793237710714
 31
0.0
  0
LINE
  5
9F
330
2
100
AcDbEntity
  8
0
100
AcDbLine
 10
-341.1902617372036
 20
92.41793237710714
 30
0.0
 11
-343.7423257372036
 21
92.41793237710714
 31
0.0
  0
ARC
  5
A0
330
2
100
AcDbEntity
  8
0
100
AcDbCircle
 10
-342.1709977372036
 20
93.75425237710715
 30
0.0
 40
0.12288
100
AcDbArc
 50
180.0
 51
270.0
  0
ARC
  5
A1
330
2
100
AcDbEntity
  8
0
100
AcDbCircle
 10
-342.1709977372036
 20
93.75425237710715
 30
0.0
 40
0.12288
100
AcDbArc
 50
180.0
 51
270.0
  0
LINE
  5
A2
330
2
100
AcDbEntity
  8
0
100
AcDbLine
 10
-345.2046771903902
 20
120.9989451472572
 30
0.0
 11
-345.2046771903902
 21
110.7949969840638
 31
0.0
  0
LEADER
  5
A3
330
2
100
AcDbEntity
  8
0
100
AcDbLeader
  3
STANDARD
 40
18.66666666666666
 41
44.66666666666665
 76
     2
 10
-356.8861221419009
 20
121.9989451472572
 30
0.0
 10
-367.478113970222
 20
121.9989451472572
 30
0.0
213
0.0
223
1.0
233
0.0
1001
ACAD
1000
DSTYLE
1002
{
1070
    40
1040
1.0
1070
    42
1040
1.0
1070
    43
1040
4.0
1070
    77
1070
     0
1070
   140
1040
2.0
1070
   147
1040
1.5
1070
   271
1070
     0
1070
   272
1070
     0
1002
}
  0
LWPOLYLINE
  5
A4
330
2
100
AcDbEntity
  8
0
100
AcDbPolyline
 90
        2
 70
     0
 43
0.0
 10
-346.5944249246449
 20
112.0449969840638
 10
-367.1224138452571
 20
112.0449969840638
1001
ACAD
1000
DSTYLE
1002
{
1070
    40
1040
1.0
1070
    42
1040
1.0
1070
    43
1040
4.0
1070
    77
1070
     0
1070
   140
1040
2.0
1070
   147
1040
1.5
1070
   271
1070
     0
1070
   272
1070
     0
1002
}
  0
LINE
  5
A5
330
2
100
AcDbEntity
  8
0
100
AcDbLine
 10
-346.5944249246449
 20
112.0449969840638
 30
0.0
 11
-349.0944249246449
 21
112.0449969840638
 31
0.0
  0
SOLID
  5
A6
330
2
100
AcDbEntity
  8
0
100
AcDbTrace
 10
-347.7355603982479
 20
112.4616636507304
 30
0.0
 11
-347.7355603982479
 21
111.6283303173971
 31
0.0
 12
-345.2355603982478
 22
112.0449969840638
 32
0.0
 13
-345.2355603982478
 23
112.0449969840638
 33
0.0
  0
SOLID
  5
A7
330
2
100
AcDbEntity
  8
0
100
AcDbTrace
 10
-347.8782021749493
 20
112.4616636507304
 30
0.0
 11
-345.3782021749493
 21
112.0449969840638
 31
0.0
 12
-347.8782021749493
 22
111.6283303173971
 32
0.0
 13
-347.8782021749493
 23
111.6283303173971
 33
0.0
1001
ACAD
1000
DSTYLE
1002
{
1070
    40
1040
1.0
1070
    42
1040
1.0
1070
    43
1040
4.0
1070
    77
1070
     0
1070
   140
1040
2.0
1070
   147
1040
1.5
1070
   271
1070
     0
1070
   272
1070
     0
1002
}
  0
ARC
  5
A8
330
2
100
AcDbEntity
  8
0
100
AcDbCircle
 10
-354.0014034114316
 20
123.0989451472572
 30
0.0
 40
0.349999999999909
100
AcDbArc
 50
269.9999999999804
 51
359.9999999999975
  0
LINE
  5
A9
330
2
100
AcDbEntity
  8
0
100
AcDbLine
 10
-356.8861221419009
 20
121.9989451472572
 30
0.0
 11
-345.4941812661035
 21
121.9989451472572
 31
0.0
  0
LINE
  5
AA
330
2
100
AcDbEntity
  8
0
100
AcDbLine
 10
-354.185076034895
 20
122.7489451472572
 30
0.0
 11
-345.4941812661036
 21
122.7489451472572
 31
0.0
  0
LWPOLYLINE
  5
AB
330
2
100
AcDbEntity
  8
0
100
AcDbPolyline
 90
        8
 70
     1
 43
0.0
 10
-353.7514034114317
 20
123.0989451472572
 42
-0.4142135623730085
 10
-354.0014034114318
 20
122.8489451472571
 10
-355.8014034114318
 20
122.8489451472572
 42
-0.4142135623736079
 10
-356.0514034114317
 20
123.0989451472571
 10
-356.0514034114317
 20
124.8989451472572
 42
-0.4142135623730085
 10
-355.8014034114315
 20
125.1489451472572
 10
-354.0014034114316
 20
125.1489451472572
 42
-0.4142135623736079
 10
-353.7514034114316
 20
124.8989451472573
  0
ARC
  5
AC
330
2
100
AcDbEntity
  8
0
100
AcDbCircle
 10
-354.0014034114316
 20
124.8989451472572
 30
0.0
 40
0.3500000000000085
100
AcDbArc
 50
0.0000000000024427
 51
90.00000000001953
  0
LINE
  5
AD
330
2
100
AcDbEntity
  8
0
100
AcDbLine
 10
-355.8014034114317
 20
125.2489451472572
 30
0.0
 11
-354.0014034114317
 21
125.2489451472572
 31
0.0
  0
LINE
  5
AE
330
2
100
AcDbEntity
  8
0
100
AcDbLine
 10
-354.0014034114317
 20
122.7489451472572
 30
0.0
 11
-356.1514034114318
 21
122.7489451472572
 31
0.0
  0
ARC
  5
AF
330
2
100
AcDbEntity
  8
0
100
AcDbCircle
 10
-355.8014034114318
 20
123.0989451472572
 30
0.0
 40
0.3500000000000085
100
AcDbArc
 50
180.000000000002
 51
270.0000000000195
  0
LINE
  5
B0
330
2
100
AcDbEntity
  8
0
100
AcDbLine
 10
-356.1514034114318
 20
122.7489451472572
 30
0.0
 11
-356.1514034114317
 21
124.8989451472572
 31
0.0
  0
LINE
  5
B1
330
2
100
AcDbEntity
  8
0
100
AcDbLine
 10
-356.1514034114318
 20
122.7489451472572
 30
0.0
 11
-356.8861221419008
 21
121.9989451472572
 31
0.0
  0
ARC
  5
B2
330
2
100
AcDbEntity
  8
0
100
AcDbCircle
 10
-355.8014034114318
 20
124.8989451472572
 30
0.0
 40
0.349999999999909
100
AcDbArc
 50
89.99999999998046
 51
179.9999999999975
  0
LINE
  5
B3
330
2
100
AcDbEntity
  8
0
100
AcDbLine
 10
-345.8441812661037
 20
125.2489451472572
 30
0.0
 11
-347.6441812661037
 21
125.2489451472572
 31
0.0
  0
LINE
  5
B4
330
2
100
AcDbEntity
  8
0
100
AcDbLine
 10
-353.6514034114319
 20
125.2489451472572
 30
0.0
 11
-345.4941812661035
 21
125.2489451472572
 31
0.0
  0
ARC
  5
B5
330
2
100
AcDbEntity
  8
0
100
AcDbCircle
 10
-345.8441812661036
 20
123.0989451472572
 30
0.0
 40
0.3500000000000085
100
AcDbArc
 50
269.9999999999804
 51
359.9999999999975
  0
LINE
  5
B6
330
2
100
AcDbEntity
  8
0
100
AcDbLine
 10
-345.4941812661036
 20
122.7489451472572
 30
0.0
 11
-345.4941812661037
 21
124.8989451472572
 31
0.0
  0
LINE
  5
B7
330
2
100
AcDbEntity
  8
0
100
AcDbLine
 10
-345.4941812661036
 20
123.7189989981352
 30
0.0
 11
-345.2046771903901
 21
123.7189989981352
 31
0.0
  0
LINE
  5
B8
330
2
100
AcDbEntity
  8
0
100
AcDbLine
 10
-345.2046771903901
 20
123.7189989981352
 30
0.0
 11
-345.2046771903901
 21
121.7094410715437
 31
0.0
  0
LINE
  5
B9
330
2
100
AcDbEntity
  8
0
100
AcDbLine
 10
-347.6441812661037
 20
122.7489451472572
 30
0.0
 11
-345.4941812661036
 21
122.7489451472572
 31
0.0
  0
LINE
  5
BA
330
2
100
AcDbEntity
  8
0
100
AcDbLine
 10
-352.8731935629999
 20
121.9989451472572
 30
0.0
 11
-352.8731935629999
 21
121.7094410715437
 31
0.0
  0
LINE
  5
BB
330
2
100
AcDbEntity
  8
0
100
AcDbLine
 10
-347.9941812661037
 20
124.8989451472572
 30
0.0
 11
-347.9941812661037
 21
123.0989451472572
 31
0.0
  0
LINE
  5
BC
330
2
100
AcDbEntity
  8
0
100
AcDbLine
 10
-352.8731935629999
 20
121.7094410715437
 30
0.0
 11
-345.2046771903901
 21
121.7094410715437
 31
0.0
  0
ARC
  5
BD
330
2
100
AcDbEntity
  8
0
100
AcDbCircle
 10
-347.6441812661038
 20
123.0989451472572
 30
0.0
 40
0.349999999999909
100
AcDbArc
 50
180.0000000000024
 51
270.0000000000195
  0
LINE
  5
BE
330
2
100
AcDbEntity
  8
0
100
AcDbLine
 10
-353.6514034114317
 20
124.8989451472572
 30
0.0
 11
-353.6514034114317
 21
123.0989451472572
 31
0.0
  0
ARC
  5
BF
330
2
100
AcDbEntity
  8
0
100
AcDbCircle
 10
-345.8441812661036
 20
124.8989451472572
 30
0.0
 40
0.349999999999909
100
AcDbArc
 50
0.0000000000024427
 51
90.00000000001953
  0
LINE
  5
C0
330
2
100
AcDbEntity
  8
0
100
AcDbLine
 10
-345.4941812661036
 20
125.2489451472572
 30
0.0
 11
-345.4941812661036
 21
121.9989451472572
 31
0.0
  0
LWPOLYLINE
  5
C1
330
2
100
AcDbEntity
  8
0
100
AcDbPolyline
 90
        8
 70
     1
 43
0.0
 10
-347.8941812661037
 20
123.0989451472572
 42
0.4142135623730085
 10
-347.6441812661036
 20
122.8489451472571
 10
-345.8441812661036
 20
122.8489451472572
 42
0.4142135623736079
 10
-345.5941812661036
 20
123.0989451472571
 10
-345.5941812661037
 20
124.8989451472572
 42
0.4142135623730085
 10
-345.8441812661039
 20
125.1489451472572
 10
-347.6441812661038
 20
125.1489451472572
 42
0.4142135623736079
 10
-347.8941812661038
 20
124.8989451472573
  0
ARC
  5
C2
330
2
100
AcDbEntity
  8
0
100
AcDbCircle
 10
-347.6441812661038
 20
124.8989451472572
 30
0.0
 40
0.3500000000000085
100
AcDbArc
 50
89.99999999998046
 51
179.9999999999975
  0
LINE
  5
C3
330
2
100
AcDbEntity
  8
0
100
AcDbLine
 10
-336.4391258473164
 20
120.9989451472572
 30
0.0
 11
-336.4391258473164
 21
110.7949969840638
 31
0.0
  0
LINE
  5
C4
330
2
100
AcDbEntity
  8
0
100
AcDbLine
 10
-339.2418457372036
 20
103.8016298875071
 30
0.0
 11
-340.1519037724036
 21
105.3778965883071
 31
0.0
  0
LINE
  5
C5
330
2
100
AcDbEntity
  8
0
100
AcDbLine
 10
-339.2418457372036
 20
103.8016298875071
 30
0.0
 11
-340.1519037724036
 21
105.3778965883071
 31
0.0
  0
LINE
  5
C6
330
2
100
AcDbEntity
  8
0
100
AcDbLine
 10
-339.4887085852036
 20
103.7684088187071
 30
0.0
 11
-339.7435483420037
 21
104.2098043771071
 31
0.0
  0
LINE
  5
C7
330
2
100
AcDbEntity
  8
0
100
AcDbLine
 10
-339.4887085852036
 20
103.7684088187071
 30
0.0
 11
-339.7435483420037
 21
104.2098043771071
 31
0.0
  0
LINE
  5
C8
330
2
100
AcDbEntity
  8
0
100
AcDbLine
 10
-341.3951945500036
 20
105.7572594043071
 30
0.0
 11
-342.5242777372036
 21
103.8016298875071
 31
0.0
  0
LINE
  5
C9
330
2
100
AcDbEntity
  8
0
100
AcDbLine
 10
-341.3951945500036
 20
105.7572594043071
 30
0.0
 11
-342.5242777372036
 21
103.8016298875071
 31
0.0
  0
LINE
  5
CA
330
2
100
AcDbEntity
  8
0
100
AcDbLine
 10
-342.0225751324036
 20
104.2098043771071
 30
0.0
 11
-342.2774148892036
 21
103.7684088187071
 31
0.0
  0
LINE
  5
CB
330
2
100
AcDbEntity
  8
0
100
AcDbLine
 10
-342.0225751324036
 20
104.2098043771071
 30
0.0
 11
-342.2774148892036
 21
103.7684088187071
 31
0.0
  0
ARC
  5
CC
330
2
100
AcDbEntity
  8
0
100
AcDbCircle
 10
-339.5951257372037
 20
103.7069688187071
 30
0.0
 40
0.12288
100
AcDbArc
 50
0.0
 51
30.00000000000089
  0
ARC
  5
CD
330
2
100
AcDbEntity
  8
0
100
AcDbCircle
 10
-339.5951257372037
 20
103.7069688187071
 30
0.0
 40
0.12288
100
AcDbArc
 50
0.0
 51
30.00000000000089
  0
LINE
  5
CE
330
2
100
AcDbEntity
  8
0
100
AcDbLine
 10
-341.8430617372036
 20
102.9426043771071
 30
0.0
 11
-341.6126617372036
 21
102.9426043771071
 31
0.0
  0
LINE
  5
CF
330
2
100
AcDbEntity
  8
0
100
AcDbLine
 10
-341.8430617372036
 20
102.9426043771071
 30
0.0
 11
-341.6126617372036
 21
102.9426043771071
 31
0.0
  0
LINE
  5
D0
330
2
100
AcDbEntity
  8
0
100
AcDbLine
 10
-342.1402777372037
 20
102.5586043771071
 30
0.0
 11
-341.9966617372035
 21
102.5586043771071
 31
0.0
  0
LINE
  5
D1
330
2
100
AcDbEntity
  8
0
100
AcDbLine
 10
-342.1402777372037
 20
102.5586043771071
 30
0.0
 11
-341.9966617372035
 21
102.5586043771071
 31
0.0
  0
LINE
  5
D2
330
2
100
AcDbEntity
  8
0
100
AcDbLine
 10
-341.8430617372036
 20
102.7122043771071
 30
0.0
 11
-341.8430617372036
 21
102.9426043771071
 31
0.0
  0
LINE
  5
D3
330
2
100
AcDbEntity
  8
0
100
AcDbLine
 10
-341.8430617372036
 20
102.7122043771071
 30
0.0
 11
-341.8430617372036
 21
102.9426043771071
 31
0.0
  0
ARC
  5
D4
330
2
100
AcDbEntity
  8
0
100
AcDbCircle
 10
-341.9966617372035
 20
102.7122043771071
 30
0.0
 40
0.1536
100
AcDbArc
 50
270.0
 51
0.0
  0
ARC
  5
D5
330
2
100
AcDbEntity
  8
0
100
AcDbCircle
 10
-341.9966617372035
 20
102.7122043771071
 30
0.0
 40
0.1536
100
AcDbArc
 50
270.0
 51
0.0
  0
LINE
  5
D6
330
2
100
AcDbEntity
  8
0
100
AcDbLine
 10
-341.2670617372036
 20
102.3282043771071
 30
0.0
 11
-341.2670617372036
 21
102.5586043771071
 31
0.0
  0
LINE
  5
D7
330
2
100
AcDbEntity
  8
0
100
AcDbLine
 10
-341.2670617372036
 20
102.3282043771071
 30
0.0
 11
-341.2670617372036
 21
102.5586043771071
 31
0.0
  0
LINE
  5
D8
330
2
100
AcDbEntity
  8
0
100
AcDbLine
 10
-341.4206617372036
 20
102.5586043771071
 30
0.0
 11
-341.2670617372036
 21
102.5586043771071
 31
0.0
  0
LINE
  5
D9
330
2
100
AcDbEntity
  8
0
100
AcDbLine
 10
-341.4206617372036
 20
102.5586043771071
 30
0.0
 11
-341.2670617372036
 21
102.5586043771071
 31
0.0
  0
ARC
  5
DA
330
2
100
AcDbEntity
  8
0
100
AcDbCircle
 10
-341.4206617372036
 20
102.7506043771071
 30
0.0
 40
0.192
100
AcDbArc
 50
180.0
 51
270.0
  0
ARC
  5
DB
330
2
100
AcDbEntity
  8
0
100
AcDbCircle
 10
-341.4206617372036
 20
102.7506043771071
 30
0.0
 40
0.192
100
AcDbArc
 50
180.0
 51
270.0
  0
LINE
  5
DC
330
2
100
AcDbEntity
  8
0
100
AcDbLine
 10
-341.6126617372036
 20
102.7506043771071
 30
0.0
 11
-341.6126617372036
 21
102.9426043771071
 31
0.0
  0
LINE
  5
DD
330
2
100
AcDbEntity
  8
0
100
AcDbLine
 10
-341.6126617372036
 20
102.7506043771071
 30
0.0
 11
-341.6126617372036
 21
102.9426043771071
 31
0.0
  0
ARC
  5
DE
330
2
100
AcDbEntity
  8
0
100
AcDbCircle
 10
339.3293977372037
 20
102.1592443771071
 30
0.0
 40
0.087552
210
0.0
220
0.0
230
-1.0
100
AcDbArc
 50
180.0
 51
0.0
  0
ARC
  5
DF
330
2
100
AcDbEntity
  8
0
100
AcDbCircle
 10
339.3293977372037
 20
102.1592443771071
 30
0.0
 40
0.087552
210
0.0
220
0.0
230
-1.0
100
AcDbArc
 50
180.0
 51
0.0
  0
LINE
  5
E0
330
2
100
AcDbEntity
  8
0
100
AcDbLine
 10
-340.1534617372036
 20
102.9426043771071
 30
0.0
 11
-339.9230617372036
 21
102.9426043771071
 31
0.0
  0
LINE
  5
E1
330
2
100
AcDbEntity
  8
0
100
AcDbLine
 10
-340.1534617372036
 20
102.9426043771071
 30
0.0
 11
-339.9230617372036
 21
102.9426043771071
 31
0.0
  0
LINE
  5
E2
330
2
100
AcDbEntity
  8
0
100
AcDbLine
 10
-340.4990617372036
 20
102.3282043771071
 30
0.0
 11
-339.9192217372036
 21
102.3282043771071
 31
0.0
  0
LINE
  5
E3
330
2
100
AcDbEntity
  8
0
100
AcDbLine
 10
-340.4990617372036
 20
102.3282043771071
 30
0.0
 11
-339.9192217372036
 21
102.3282043771071
 31
0.0
  0
LINE
  5
E4
330
2
100
AcDbEntity
  8
0
100
AcDbLine
 10
-340.4990617372036
 20
102.3282043771071
 30
0.0
 11
-340.4990617372036
 21
102.5586043771071
 31
0.0
  0
LINE
  5
E5
330
2
100
AcDbEntity
  8
0
100
AcDbLine
 10
-340.4990617372036
 20
102.3282043771071
 30
0.0
 11
-340.4990617372036
 21
102.5586043771071
 31
0.0
  0
LINE
  5
E6
330
2
100
AcDbEntity
  8
0
100
AcDbLine
 10
-340.4990617372036
 20
102.5586043771071
 30
0.0
 11
-340.3454617372037
 21
102.5586043771071
 31
0.0
  0
LINE
  5
E7
330
2
100
AcDbEntity
  8
0
100
AcDbLine
 10
-340.4990617372036
 20
102.5586043771071
 30
0.0
 11
-340.3454617372037
 21
102.5586043771071
 31
0.0
  0
ARC
  5
E8
330
2
100
AcDbEntity
  8
0
100
AcDbCircle
 10
-340.3454617372037
 20
102.7506043771071
 30
0.0
 40
0.192
100
AcDbArc
 50
270.0
 51
0.0
  0
ARC
  5
E9
330
2
100
AcDbEntity
  8
0
100
AcDbCircle
 10
-340.3454617372037
 20
102.7506043771071
 30
0.0
 40
0.192
100
AcDbArc
 50
270.0
 51
0.0
  0
LINE
  5
EA
330
2
100
AcDbEntity
  8
0
100
AcDbLine
 10
-340.1534617372036
 20
102.7506043771071
 30
0.0
 11
-340.1534617372036
 21
102.9426043771071
 31
0.0
  0
LINE
  5
EB
330
2
100
AcDbEntity
  8
0
100
AcDbLine
 10
-340.1534617372036
 20
102.7506043771071
 30
0.0
 11
-340.1534617372036
 21
102.9426043771071
 31
0.0
  0
LINE
  5
EC
330
2
100
AcDbEntity
  8
0
100
AcDbLine
 10
-339.7441177372036
 20
102.5586043771071
 30
0.0
 11
-339.7441177372036
 21
102.2998103419071
 31
0.0
  0
LINE
  5
ED
330
2
100
AcDbEntity
  8
0
100
AcDbLine
 10
-339.7441177372036
 20
102.5586043771071
 30
0.0
 11
-339.7441177372036
 21
102.2998103419071
 31
0.0
  0
LINE
  5
EE
330
2
100
AcDbEntity
  8
0
100
AcDbLine
 10
-339.4169497372037
 20
102.5586043771071
 30
0.0
 11
-339.4169497372037
 21
102.1592443771071
 31
0.0
  0
LINE
  5
EF
330
2
100
AcDbEntity
  8
0
100
AcDbLine
 10
-339.4169497372037
 20
102.5586043771071
 30
0.0
 11
-339.4169497372037
 21
102.1592443771071
 31
0.0
  0
ARC
  5
F0
330
2
100
AcDbEntity
  8
0
100
AcDbCircle
 10
339.7986457372037
 20
102.1922683771071
 30
0.0
 40
0.120576
210
0.0
220
0.0
230
-1.0
100
AcDbArc
 50
116.8868039999993
 51
0.0
  0
ARC
  5
F1
330
2
100
AcDbEntity
  8
0
100
AcDbCircle
 10
339.7986457372037
 20
102.1922683771071
 30
0.0
 40
0.120576
210
0.0
220
0.0
230
-1.0
100
AcDbArc
 50
116.8868039999993
 51
0.0
  0
LINE
  5
F2
330
2
100
AcDbEntity
  8
0
100
AcDbLine
 10
-339.9192217372036
 20
102.3282043771071
 30
0.0
 11
-339.9192217372036
 21
102.1922683771071
 31
0.0
  0
LINE
  5
F3
330
2
100
AcDbEntity
  8
0
100
AcDbLine
 10
-339.9192217372036
 20
102.3282043771071
 30
0.0
 11
-339.9192217372036
 21
102.1922683771071
 31
0.0
  0
LINE
  5
F4
330
2
100
AcDbEntity
  8
0
100
AcDbLine
 10
-339.4169497372037
 20
102.5586043771071
 30
0.0
 11
-339.7441177372036
 21
102.5586043771071
 31
0.0
  0
LINE
  5
F5
330
2
100
AcDbEntity
  8
0
100
AcDbLine
 10
-339.4169497372037
 20
102.5586043771071
 30
0.0
 11
-339.7441177372036
 21
102.5586043771071
 31
0.0
  0
LINE
  5
F6
330
2
100
AcDbEntity
  8
0
100
AcDbLine
 10
-339.6258457372037
 20
102.7997563771071
 30
0.0
 11
-339.7698385180035
 21
102.7997563771071
 31
0.0
  0
ARC
  5
F7
330
2
100
AcDbEntity
  8
0
100
AcDbCircle
 10
-339.7698385180035
 20
102.9533563771071
 30
0.0
 40
0.1536
100
AcDbArc
 50
184.0139870000031
 51
270.0
  0
ARC
  5
F8
330
2
100
AcDbEntity
  8
0
100
AcDbCircle
 10
-339.7698385180035
 20
102.9533563771071
 30
0.0
 40
0.1536
100
AcDbArc
 50
184.0139870000031
 51
270.0
  0
ARC
  5
F9
330
2
100
AcDbEntity
  8
0
100
AcDbCircle
 10
339.6258457372037
 20
102.9533563771071
 30
0.0
 40
0.1536
210
0.0
220
0.0
230
-1.0
100
AcDbArc
 50
180.0
 51
270.0
  0
ARC
  5
FA
330
2
100
AcDbEntity
  8
0
100
AcDbCircle
 10
339.6258457372037
 20
102.9533563771071
 30
0.0
 40
0.1536
210
0.0
220
0.0
230
-1.0
100
AcDbArc
 50
180.0
 51
270.0
  0
LINE
  5
FB
330
2
100
AcDbEntity
  8
0
100
AcDbLine
 10
-339.4722457372036
 20
102.9533563771071
 30
0.0
 11
-339.4722457372036
 21
103.7069688187071
 31
0.0
  0
LINE
  5
FC
330
2
100
AcDbEntity
  8
0
100
AcDbLine
 10
-339.4722457372036
 20
102.9533563771071
 30
0.0
 11
-339.4722457372036
 21
103.7069688187071
 31
0.0
  0
LINE
  5
FD
330
2
100
AcDbEntity
  8
0
100
AcDbLine
 10
-339.2418457372036
 20
102.1592443771071
 30
0.0
 11
-339.2418457372036
 21
103.8016298875071
 31
0.0
  0
LINE
  5
FE
330
2
100
AcDbEntity
  8
0
100
AcDbLine
 10
-339.2418457372036
 20
102.1592443771071
 30
0.0
 11
-339.2418457372036
 21
103.8016298875071
 31
0.0
  0
ARC
  5
FF
330
2
100
AcDbEntity
  8
0
100
AcDbCircle
 10
-342.1709977372036
 20
103.7069688187071
 30
0.0
 40
0.12288
100
AcDbArc
 50
149.999999999999
 51
180.0
  0
ARC
  5
100
330
2
100
AcDbEntity
  8
0
100
AcDbCircle
 10
-342.1709977372036
 20
103.7069688187071
 30
0.0
 40
0.12288
100
AcDbArc
 50
149.999999999999
 51
180.0
  0
LINE
  5
101
330
2
100
AcDbEntity
  8
0
100
AcDbLine
 10
-342.2938777372036
 20
102.7122043771071
 30
0.0
 11
-342.2938777372036
 21
103.7069688187071
 31
0.0
  0
LINE
  5
102
330
2
100
AcDbEntity
  8
0
100
AcDbLine
 10
-342.2938777372036
 20
102.7122043771071
 30
0.0
 11
-342.2938777372036
 21
103.7069688187071
 31
0.0
  0
LINE
  5
103
330
2
100
AcDbEntity
  8
0
100
AcDbLine
 10
-342.2938777372036
 20
102.3282043771071
 30
0.0
 11
-341.2670617372036
 21
102.3282043771071
 31
0.0
  0
LINE
  5
104
330
2
100
AcDbEntity
  8
0
100
AcDbLine
 10
-342.2938777372036
 20
102.3282043771071
 30
0.0
 11
-341.2670617372036
 21
102.3282043771071
 31
0.0
  0
ARC
  5
105
330
2
100
AcDbEntity
  8
0
100
AcDbCircle
 10
-342.1402777372037
 20
102.7122043771071
 30
0.0
 40
0.1536
100
AcDbArc
 50
180.0
 51
270.0
  0
ARC
  5
106
330
2
100
AcDbEntity
  8
0
100
AcDbCircle
 10
-342.1402777372037
 20
102.7122043771071
 30
0.0
 40
0.1536
100
AcDbArc
 50
180.0
 51
270.0
  0
LINE
  5
107
330
2
100
AcDbEntity
  8
0
100
AcDbLine
 10
-342.3399577372037
 20
98.50049237710713
 30
0.0
 11
-342.2938777372036
 21
98.54657237710714
 31
0.0
  0
LINE
  5
108
330
2
100
AcDbEntity
  8
0
100
AcDbLine
 10
-342.3399577372037
 20
98.50049237710713
 30
0.0
 11
-342.2938777372036
 21
98.54657237710714
 31
0.0
  0
LINE
  5
109
330
2
100
AcDbEntity
  8
0
100
AcDbLine
 10
-342.3399577372037
 20
98.42369237710713
 30
0.0
 11
-342.2938777372036
 21
98.37761237710711
 31
0.0
  0
LINE
  5
10A
330
2
100
AcDbEntity
  8
0
100
AcDbLine
 10
-342.3399577372037
 20
98.42369237710713
 30
0.0
 11
-342.2938777372036
 21
98.37761237710711
 31
0.0
  0
LINE
  5
10B
330
2
100
AcDbEntity
  8
0
100
AcDbLine
 10
-342.3399577372037
 20
98.42369237710713
 30
0.0
 11
-342.3399577372037
 21
98.50049237710713
 31
0.0
  0
LINE
  5
10C
330
2
100
AcDbEntity
  8
0
100
AcDbLine
 10
-342.3399577372037
 20
98.42369237710713
 30
0.0
 11
-342.3399577372037
 21
98.50049237710713
 31
0.0
  0
LINE
  5
10D
330
2
100
AcDbEntity
  8
0
100
AcDbLine
 10
-342.2938777372036
 20
98.54657237710714
 30
0.0
 11
-342.2938777372036
 21
102.3282043771071
 31
0.0
  0
LINE
  5
10E
330
2
100
AcDbEntity
  8
0
100
AcDbLine
 10
-342.2938777372036
 20
98.54657237710714
 30
0.0
 11
-342.2938777372036
 21
102.3282043771071
 31
0.0
  0
ARC
  5
10F
330
2
100
AcDbEntity
  8
0
100
AcDbCircle
 10
-340.8830617372036
 20
105.4615794043071
 30
0.0
 40
0.4070400000000002
100
AcDbArc
 50
130.2522419999988
 51
49.74775800000111
  0
ARC
  5
110
330
2
100
AcDbEntity
  8
0
100
AcDbCircle
 10
-340.8830617372036
 20
105.4615794043071
 30
0.0
 40
0.4070400000000002
100
AcDbArc
 50
130.2522419999988
 51
49.74775800000111
  0
LINE
  5
111
330
2
100
AcDbEntity
  8
0
100
AcDbLine
 10
-341.4590617372035
 20
104.8241394043071
 30
0.0
 11
-340.3070617372036
 21
104.8241394043071
 31
0.0
  0
LINE
  5
112
330
2
100
AcDbEntity
  8
0
100
AcDbLine
 10
-341.4590617372035
 20
104.8241394043071
 30
0.0
 11
-340.3070617372036
 21
104.8241394043071
 31
0.0
  0
LINE
  5
113
330
2
100
AcDbEntity
  8
0
100
AcDbLine
 10
-341.6126617372036
 20
104.2098043771071
 30
0.0
 11
-341.6126617372036
 21
104.6705394043071
 31
0.0
  0
LINE
  5
114
330
2
100
AcDbEntity
  8
0
100
AcDbLine
 10
-341.6126617372036
 20
104.2098043771071
 30
0.0
 11
-341.6126617372036
 21
104.6705394043071
 31
0.0
  0
LINE
  5
115
330
2
100
AcDbEntity
  8
0
100
AcDbLine
 10
-342.0225751324036
 20
104.2098043771071
 30
0.0
 11
-341.6126617372036
 21
104.2098043771071
 31
0.0
  0
LINE
  5
116
330
2
100
AcDbEntity
  8
0
100
AcDbLine
 10
-342.0225751324036
 20
104.2098043771071
 30
0.0
 11
-341.6126617372036
 21
104.2098043771071
 31
0.0
  0
ARC
  5
117
330
2
100
AcDbEntity
  8
0
100
AcDbCircle
 10
-341.4590617372035
 20
104.6705394043071
 30
0.0
 40
0.1536
100
AcDbArc
 50
90.0
 51
180.0
  0
ARC
  5
118
330
2
100
AcDbEntity
  8
0
100
AcDbCircle
 10
-341.4590617372035
 20
104.6705394043071
 30
0.0
 40
0.1536
100
AcDbArc
 50
90.0
 51
180.0
  0
ARC
  5
119
330
2
100
AcDbEntity
  8
0
100
AcDbCircle
 10
-340.8830617372036
 20
105.4615794043071
 30
0.0
 40
0.5913600000000001
100
AcDbArc
 50
130.2522419999988
 51
149.999999999999
  0
ARC
  5
11A
330
2
100
AcDbEntity
  8
0
100
AcDbCircle
 10
-340.8830617372036
 20
105.4615794043071
 30
0.0
 40
0.5913600000000001
100
AcDbArc
 50
130.2522419999988
 51
149.999999999999
  0
ARC
  5
11B
330
2
100
AcDbEntity
  8
0
100
AcDbCircle
 10
-341.2056217372037
 20
105.8425723771071
 30
0.0
 40
0.09216
100
AcDbArc
 50
310.2522419999989
 51
130.2522419999988
  0
ARC
  5
11C
330
2
100
AcDbEntity
  8
0
100
AcDbCircle
 10
-341.2056217372037
 20
105.8425723771071
 30
0.0
 40
0.09216
100
AcDbArc
 50
310.2522419999989
 51
130.2522419999988
  0
LINE
  5
11D
330
2
100
AcDbEntity
  8
0
100
AcDbLine
 10
-340.1534617372036
 20
104.2098043771071
 30
0.0
 11
-340.1534617372036
 21
104.6705394043071
 31
0.0
  0
LINE
  5
11E
330
2
100
AcDbEntity
  8
0
100
AcDbLine
 10
-340.1534617372036
 20
104.2098043771071
 30
0.0
 11
-340.1534617372036
 21
104.6705394043071
 31
0.0
  0
LINE
  5
11F
330
2
100
AcDbEntity
  8
0
100
AcDbLine
 10
-340.1534617372036
 20
104.2098043771071
 30
0.0
 11
-339.7435483420037
 21
104.2098043771071
 31
0.0
  0
LINE
  5
120
330
2
100
AcDbEntity
  8
0
100
AcDbLine
 10
-340.1534617372036
 20
104.2098043771071
 30
0.0
 11
-339.7435483420037
 21
104.2098043771071
 31
0.0
  0
LINE
  5
121
330
2
100
AcDbEntity
  8
0
100
AcDbLine
 10
-340.2363837724037
 20
105.5242202491071
 30
0.0
 11
-340.3709289244036
 21
105.7572594043071
 31
0.0
  0
LINE
  5
122
330
2
100
AcDbEntity
  8
0
100
AcDbLine
 10
-340.2363837724037
 20
105.5242202491071
 30
0.0
 11
-340.3709289244036
 21
105.7572594043071
 31
0.0
  0
ARC
  5
123
330
2
100
AcDbEntity
  8
0
100
AcDbCircle
 10
-340.3070617372036
 20
104.6705394043071
 30
0.0
 40
0.1536
100
AcDbArc
 50
0.0
 51
90.0
  0
ARC
  5
124
330
2
100
AcDbEntity
  8
0
100
AcDbCircle
 10
-340.3070617372036
 20
104.6705394043071
 30
0.0
 40
0.1536
100
AcDbArc
 50
0.0
 51
90.0
  0
LINE
  5
125
330
2
100
AcDbEntity
  8
0
100
AcDbLine
 10
-340.2532502812036
 20
105.4612737403071
 30
0.0
 11
-340.2363837724037
 21
105.5242202491071
 31
0.0
  0
LINE
  5
126
330
2
100
AcDbEntity
  8
0
100
AcDbLine
 10
-340.2532502812036
 20
105.4612737403071
 30
0.0
 11
-340.2363837724037
 21
105.5242202491071
 31
0.0
  0
LINE
  5
127
330
2
100
AcDbEntity
  8
0
100
AcDbLine
 10
-340.2148502812036
 20
105.3947630971071
 30
0.0
 11
-340.1519037724036
 21
105.3778965883071
 31
0.0
  0
LINE
  5
128
330
2
100
AcDbEntity
  8
0
100
AcDbLine
 10
-340.2148502812036
 20
105.3947630971071
 30
0.0
 11
-340.1519037724036
 21
105.3778965883071
 31
0.0
  0
LINE
  5
129
330
2
100
AcDbEntity
  8
0
100
AcDbLine
 10
-340.2148502812036
 20
105.3947630971071
 30
0.0
 11
-340.2532502812036
 21
105.4612737403071
 31
0.0
  0
LINE
  5
12A
330
2
100
AcDbEntity
  8
0
100
AcDbLine
 10
-340.2148502812036
 20
105.3947630971071
 30
0.0
 11
-340.2532502812036
 21
105.4612737403071
 31
0.0
  0
ARC
  5
12B
330
2
100
AcDbEntity
  8
0
100
AcDbCircle
 10
-340.5605017372037
 20
105.8425723771071
 30
0.0
 40
0.09216
100
AcDbArc
 50
49.74775800000111
 51
229.7477580000011
  0
ARC
  5
12C
330
2
100
AcDbEntity
  8
0
100
AcDbCircle
 10
-340.5605017372037
 20
105.8425723771071
 30
0.0
 40
0.09216
100
AcDbArc
 50
49.74775800000111
 51
229.7477580000011
  0
ARC
  5
12D
330
2
100
AcDbEntity
  8
0
100
AcDbCircle
 10
-340.8830617372036
 20
105.4615794043071
 30
0.0
 40
0.5913600000000001
100
AcDbArc
 50
30.00000000000089
 51
49.74775800000111
  0
ARC
  5
12E
330
2
100
AcDbEntity
  8
0
100
AcDbCircle
 10
-340.8830617372036
 20
105.4615794043071
 30
0.0
 40
0.5913600000000001
100
AcDbArc
 50
30.00000000000089
 51
49.74775800000111
  0
SOLID
  5
12F
330
2
100
AcDbEntity
  8
0
100
AcDbTrace
 10
-333.9426372644161
 20
112.4616636507304
 30
0.0
 11
-333.9426372644161
 21
111.6283303173971
 31
0.0
 12
-336.4426372644161
 22
112.0449969840638
 32
0.0
 13
-336.4426372644161
 23
112.0449969840638
 33
0.0
  0
LINE
  5
130
330
2
100
AcDbEntity
  8
0
100
AcDbLine
 10
-333.9426372644161
 20
112.0449969840638
 30
0.0
 11
-331.4426372644161
 21
112.0449969840638
 31
0.0
  0
ARC
  5
131
330
2
100
AcDbEntity
  8
0
100
AcDbCircle
 10
-335.7996217716029
 20
123.0989451472572
 30
0.0
 40
0.3500000000000085
100
AcDbArc
 50
180.000000000002
 51
270.0000000000195
  0
LINE
  5
132
330
2
100
AcDbEntity
  8
0
100
AcDbLine
 10
-330.7369368512433
 20
121.7094410715437
 30
0.0
 11
-336.4391258473164
 21
121.7094410715437
 31
0.0
  0
ARC
  5
133
330
2
100
AcDbEntity
  8
0
100
AcDbCircle
 10
-335.7996217716029
 20
124.8989451472572
 30
0.0
 40
0.349999999999909
100
AcDbArc
 50
89.99999999998046
 51
179.9999999999975
  0
LWPOLYLINE
  5
134
330
2
100
AcDbEntity
  8
0
100
AcDbPolyline
 90
        8
 70
     1
 43
0.0
 10
-333.7496217716028
 20
123.0989451472572
 42
-0.4142135623730085
 10
-333.9996217716029
 20
122.8489451472571
 10
-335.7996217716029
 20
122.8489451472572
 42
-0.4142135623736079
 10
-336.0496217716029
 20
123.0989451472571
 10
-336.0496217716028
 20
124.8989451472572
 42
-0.4142135623730085
 10
-335.7996217716026
 20
125.1489451472572
 10
-333.9996217716027
 20
125.1489451472572
 42
-0.4142135623736079
 10
-333.7496217716027
 20
124.8989451472573
  0
LINE
  5
135
330
2
100
AcDbEntity
  8
0
100
AcDbLine
 10
-336.1496217716029
 20
123.7189989981352
 30
0.0
 11
-336.4391258473164
 21
123.7189989981352
 31
0.0
  0
LINE
  5
136
330
2
100
AcDbEntity
  8
0
100
AcDbLine
 10
-336.4391258473164
 20
123.7189989981352
 30
0.0
 11
-336.4391258473164
 21
121.7094410715437
 31
0.0
  0
LINE
  5
137
330
2
100
AcDbEntity
  8
0
100
AcDbLine
 10
-336.1496217716029
 20
122.7489451472572
 30
0.0
 11
-336.1496217716028
 21
124.8989451472572
 31
0.0
  0
LINE
  5
138
102
{ACAD_REACTORS
330
2D
102
}
330
2
100
AcDbEntity
  8
0
100
AcDbLine
 10
-336.1496217716029
 20
122.7489451472572
 30
0.0
 11
-336.1496217716029
 21
121.9989451472572
 31
0.0
  0
LINE
  5
139
330
2
100
AcDbEntity
  8
0
100
AcDbLine
 10
-336.1496217716029
 20
125.2489451472572
 30
0.0
 11
-336.1496217716029
 21
122.7489451472572
 31
0.0
  0
LINE
  5
13A
330
2
100
AcDbEntity
  8
0
100
AcDbLine
 10
-335.7996217716028
 20
125.2489451472572
 30
0.0
 11
-333.9996217716028
 21
125.2489451472572
 31
0.0
  0
LINE
  5
13B
330
2
100
AcDbEntity
  8
0
100
AcDbLine
 10
-330.7369368512433
 20
121.9989451472572
 30
0.0
 11
-330.7369368512433
 21
121.7094410715437
 31
0.0
  0
LINE
  5
13C
330
2
100
AcDbEntity
  8
0
100
AcDbLine
 10
-333.6496217716028
 20
124.8989451472572
 30
0.0
 11
-333.6496217716028
 21
123.0989451472572
 31
0.0
  0
ARC
  5
13D
330
2
100
AcDbEntity
  8
0
100
AcDbCircle
 10
-333.9996217716027
 20
123.0989451472572
 30
0.0
 40
0.349999999999909
100
AcDbArc
 50
269.9999999999804
 51
359.9999999999975
  0
ARC
  5
13E
330
2
100
AcDbEntity
  8
0
100
AcDbCircle
 10
-333.9996217716027
 20
124.8989451472572
 30
0.0
 40
0.3500000000000085
100
AcDbArc
 50
0.0000000000024427
 51
90.00000000001953
  0
LINE
  5
13F
330
2
100
AcDbEntity
  8
0
100
AcDbLine
 10
-313.2674882637039
 20
121.9989451472572
 30
0.0
 11
-313.2674882637038
 21
111.80968510011
 31
0.0
  0
SOLID
  5
140
330
2
100
AcDbEntity
  8
0
100
AcDbTrace
 10
-313.6781430940915
 20
119.4979506008036
 30
0.0
 11
-313.2674882637039
 21
121.9989451472572
 31
0.0
 12
-312.8448121692748
 22
119.4999541448106
 32
0.0
 13
-312.8448121692748
 23
119.4999541448106
 33
0.0
1001
ACAD
1000
DSTYLE
1002
{
1070
    40
1040
1.0
1070
    42
1040
1.0
1070
    43
1040
4.0
1070
    77
1070
     0
1070
   140
1040
2.0
1070
   147
1040
1.5
1070
   271
1070
     0
1070
   272
1070
     0
1002
}
  0
MTEXT
  5
141
330
2
100
AcDbEntity
  8
0
100
AcDbMText
 10
-375.0634577624648
 20
131.1487165154422
 30
0.0
 40
2.0
 41
0.0
 71
     9
 72
     1
  1
40mm 
 73
     1
 44
1.0
  0
MTEXT
  5
142
102
{ACAD_REACTORS
330
152
102
}
330
2
100
AcDbEntity
  8
0
100
AcDbMText
 10
-370.6840147939709
 20
159.7153979032761
 30
0.0
 40
2.0
 41
0.0
 71
     9
 72
     1
  1
STRUCTURAL STEEL\PFRAMEWORK BY OTHERS
 73
     1
 44
1.0
  0
LINE
  5
143
330
2
100
AcDbEntity
  8
DASHED
 62
     7
 48
2.5
100
AcDbLine
 10
-347.4382204243386
 20
161.0749571450964
 30
0.0
 11
-340.8219015188533
 21
133.0674101948224
 31
0.0
  0
ARC
  5
144
330
2
100
AcDbEntity
  8
0
100
AcDbCircle
 10
-359.062992847093
 20
131.7059066493558
 30
0.0
 40
16.19948685836473
100
AcDbArc
 50
0.932746718823472
 51
40.25572584123348
  0
LEADER
  5
145
330
2
100
AcDbEntity
  8
0
100
AcDbLeader
  3
STANDARD
 40
18.66666666666666
 41
44.66666666666665
 76
     2
 10
-353.6514034114318
 20
131.9696145687883
 30
0.0
 10
-372.7030435061709
 20
131.9696145687883
 30
0.0
213
0.0
223
1.0
233
0.0
1001
ACAD
1000
DSTYLE
1002
{
1070
    40
1040
1.0
1070
    42
1040
1.0
1070
    43
1040
4.0
1070
    77
1070
     0
1070
   140
1040
2.0
1070
   147
1040
1.5
1070
   271
1070
     0
1070
   272
1070
     0
1002
}
  0
LINE
  5
146
330
2
100
AcDbEntity
  8
0
100
AcDbLine
 10
-372.7030435061709
 20
131.9696145687883
 30
0.0
 11
-372.7030435061709
 21
131.9696145687883
 31
0.0
  0
ARC
  5
147
330
2
100
AcDbEntity
  8
0
100
AcDbCircle
 10
-322.6985209153126
 20
131.7059066493558
 30
0.0
 40
16.19948685836473
100
AcDbArc
 50
139.7442741587662
 51
179.0672532811765
  0
LINE
  5
148
330
2
100
AcDbEntity
  8
0
100
AcDbLine
 10
-309.7624777996106
 20
145.7959883380252
 30
0.0
 11
-309.7624777996106
 21
139.2724667426411
 31
0.0
  0
LINE
  5
149
330
2
100
AcDbEntity
  8
0
100
AcDbLine
 10
-340.3656525528483
 20
131.9696145687883
 30
0.0
 11
-334.8957497339292
 21
131.9696145687883
 31
0.0
  0
SOLID
  5
14A
330
2
100
AcDbEntity
  8
0
100
AcDbTrace
 10
-340.3656525528483
 20
132.3862812354549
 30
0.0
 11
-340.3656525528483
 21
131.5529479021216
 31
0.0
 12
-342.8656525528483
 22
131.9696145687883
 32
0.0
 13
-342.8656525528483
 23
131.9696145687883
 33
0.0
  0
LINE
  5
14B
330
2
100
AcDbEntity
  8
0
100
AcDbLine
 10
-309.7624777996106
 20
127.7489451472572
 30
0.0
 11
-309.7624777996106
 21
134.2724667426411
 31
0.0
  0
HATCH
  5
14C
330
2
100
AcDbEntity
  8
0
100
AcDbHatch
 10
0.0
 20
0.0
 30
0.0
210
0.0
220
0.0
230
1.0
  2
SOLID
 70
     1
 71
     1
 91
        3
 92
        7
 72
     1
 73
     1
 93
        3
 10
-309.3841294203576
 20
136.554027204032
 42
0.0
 10
-309.7624777996106
 20
136.7724667426412
 42
0.0
 10
-309.7624777996106
 20
136.3355876654228
 42
0.2679491924311246
 97
        3
330
2E
330
14E
330
14D
 92
        7
 72
     1
 73
     1
 93
        4
 10
-309.7624777996106
 20
137.2093458198595
 42
0.0
 10
-309.7624777996106
 20
136.7724667426412
 42
0.0
 10
-309.3841294203576
 20
136.554027204032
 42
0.1316524975873954
 10
-309.3255987223923
 20
136.7724667426412
 42
0.4142135623730951
 97
        3
330
14E
330
2E
330
14D
 92
        7
 72
     1
 73
     1
 93
        3
 10
-309.7624777996106
 20
137.2093458198595
 42
0.4142135623730951
 10
-310.199356876829
 20
136.7724667426412
 42
0.4142135623730951
 10
-309.7624777996106
 20
136.3355876654228
 42
0.0
 97
        2
330
14D
330
14E
 75
     0
 76
     1
 47
0.0104051627948699
 98
        3
 10
-309.6564152368244
 20
136.5365239074583
 10
-309.5938984548339
 20
136.8694889193114
 10
-309.8231255958771
 20
136.7758426964966
  0
CIRCLE
  5
14D
102
{ACAD_REACTORS
330
14C
102
}
330
2
100
AcDbEntity
  8
0
100
AcDbCircle
 10
-309.7624777996106
 20
136.7724667426412
 30
0.0
 40
0.4368790772183502
  0
LINE
  5
14E
102
{ACAD_REACTORS
330
14C
102
}
330
2
100
AcDbEntity
  8
0
100
AcDbLine
 10
-309.7624777996106
 20
139.2724667426411
 30
0.0
 11
-309.7624777996106
 21
134.2724667426411
 31
0.0
  0
POINT
  5
14F
330
2
100
AcDbEntity
  8
DEFPOINTS
  6
ByBlock
 62
     7
100
AcDbPoint
 10
-328.3509057755964
 20
148.2959883380252
 30
0.0
  0
SOLID
  5
150
330
2
100
AcDbEntity
  8
0
100
AcDbTrace
 10
-310.1791444662773
 20
145.7959883380252
 30
0.0
 11
-309.345811132944
 21
145.7959883380252
 31
0.0
 12
-309.7624777996106
 22
148.2959883380252
 32
0.0
 13
-309.7624777996106
 23
148.2959883380252
 33
0.0
  0
LEADER
  5
151
330
2
100
AcDbEntity
  8
0
100
AcDbLeader
  3
STANDARD
 76
     3
 10
-336.2953502200408
 20
168.2609883380252
 30
0.0
 10
-364.8338144636711
 20
181.0073709998998
 30
0.0
 10
-369.4872429305044
 20
181.0073709998998
 30
0.0
1001
ACAD
1000
DSTYLE
1002
{
1070
    40
1040
1.0
1070
    42
1040
1.0
1070
    43
1040
4.0
1070
    77
1070
     0
1070
   140
1040
2.0
1070
   147
1040
1.5
1070
   271
1070
     0
1070
   272
1070
     0
1002
}
  0
LEADER
  5
152
330
2
100
AcDbEntity
  8
0
100
AcDbLeader
  3
STANDARD
 73
     0
 40
5.333333333333333
 41
38.0
 76
     3
 10
-356.8861221419008
 20
160.7153979032761
 30
0.0
 10
-367.3675458703355
 20
160.7153979032761
 30
0.0
 10
-359.6960848319861
 20
160.7153979032761
 30
0.0
340
142
213
9.487929961984832
223
1.0
233
0.0
1001
ACAD
1000
DSTYLE
1002
{
1070
    40
1040
1.0
1070
    42
1040
1.0
1070
    43
1040
4.0
1070
    77
1070
     0
1070
   140
1040
2.0
1070
   147
1040
1.5
1070
   271
1070
     0
1070
   272
1070
     0
1002
}
  0
POINT
  5
153
330
2
100
AcDbEntity
  8
DEFPOINTS
  6
ByBlock
 62
     7
100
AcDbPoint
 10
-348.3159057755965
 20
168.2609883380252
 30
0.0
  0
LINE
  5
154
330
2
100
AcDbEntity
  8
0
100
AcDbLine
 10
-348.2235775050071
 20
170.1788369595494
 30
0.0
 11
-348.2074864694264
 21
170.1949279951302
 31
0.0
  0
CIRCLE
  5
155
330
2
100
AcDbEntity
  8
0
100
AcDbCircle
 10
-328.3509057755964
 20
168.2609883380252
 30
0.0
 40
13.0
  0
ARC
  5
156
330
2
100
AcDbEntity
  8
0
100
AcDbCircle
 10
-328.3509057755964
 20
168.2609883380252
 30
0.0
 40
1.3
100
AcDbArc
 50
330.0735651333856
 51
29.92643486661428
  0
ARC
  5
157
330
2
100
AcDbEntity
  8
0
100
AcDbCircle
 10
-328.3509057755964
 20
168.2609883380252
 30
0.0
 40
1.3
100
AcDbArc
 50
150.0735651333857
 51
209.9264348666142
  0
ARC
  5
158
330
2
100
AcDbEntity
  8
0
100
AcDbCircle
 10
-331.4360313155054
 20
168.2609883380252
 30
0.0
 40
2.022222222222222
100
AcDbArc
 50
64.69367764719462
 51
295.3063223528048
  0
ARC
  5
159
330
2
100
AcDbEntity
  8
0
100
AcDbCircle
 10
-331.4360313155054
 20
168.2609883380252
 30
0.0
 40
1.444444444444444
100
AcDbArc
 50
49.31920348335602
 51
310.6807965166439
  0
ARC
  5
15A
330
2
100
AcDbEntity
  8
0
100
AcDbCircle
 10
-344.4189272571894
 20
168.2609883380252
 30
0.0
 40
13.96746833366327
100
AcDbArc
 50
341.2750553373831
 51
18.72494466261684
  0
CIRCLE
  5
15B
330
2
100
AcDbEntity
  8
0
100
AcDbCircle
 10
-328.3509057755964
 20
168.2609883380252
 30
0.0
 40
7.944444444444444
  0
LINE
  5
15C
330
2
100
AcDbEntity
  8
0
100
AcDbLine
 10
-331.1907485884789
 20
163.7770770141295
 30
0.0
 11
-325.6797837106832
 21
163.7770770141295
 31
0.0
  0
CIRCLE
  5
15D
330
2
100
AcDbEntity
  8
0
100
AcDbCircle
 10
-326.1842391089297
 20
162.3387661158029
 30
0.0
 40
0.7222222222222223
  0
LINE
  5
15E
330
2
100
AcDbEntity
  8
0
100
AcDbLine
 10
-327.4842391089297
 20
156.9943216713585
 30
0.0
 11
-327.4842391089297
 21
160.363958110164
 31
0.0
  0
LINE
  5
15F
330
2
100
AcDbEntity
  8
0
100
AcDbLine
 10
-329.217572442263
 20
156.9943216713585
 30
0.0
 11
-329.217572442263
 21
160.363958110164
 31
0.0
  0
LINE
  5
160
330
2
100
AcDbEntity
  8
0
100
AcDbLine
 10
-329.217572442263
 20
156.9943216713585
 30
0.0
 11
-327.4842391089297
 21
156.9943216713585
 31
0.0
  0
ARC
  5
161
330
2
100
AcDbEntity
  8
0
100
AcDbCircle
 10
-328.3509057755964
 20
168.2609883380252
 30
0.0
 40
1.3
100
AcDbArc
 50
240.0735651333861
 51
299.9264348666141
  0
LINE
  5
162
330
2
100
AcDbEntity
  8
0
100
AcDbLine
 10
-327.2242391089298
 20
167.6124343909843
 30
0.0
 11
-327.2242391089298
 21
167.1343216713585
 31
0.0
  0
LINE
  5
163
330
2
100
AcDbEntity
  8
0
100
AcDbLine
 10
-328.9994597226372
 20
167.1343216713585
 30
0.0
 11
-329.477572442263
 21
167.1343216713585
 31
0.0
  0
LINE
  5
164
330
2
100
AcDbEntity
  8
0
100
AcDbLine
 10
-329.477572442263
 20
167.1343216713585
 30
0.0
 11
-329.477572442263
 21
167.6124343909843
 31
0.0
  0
LINE
  5
165
330
2
100
AcDbEntity
  8
0
100
AcDbLine
 10
-327.2242391089298
 20
167.1343216713585
 30
0.0
 11
-327.7023518285555
 21
167.1343216713585
 31
0.0
  0
CIRCLE
  5
166
330
2
100
AcDbEntity
  8
0
100
AcDbCircle
 10
-330.517572442263
 20
162.3387661158029
 30
0.0
 40
0.7222222222222223
  0
LINE
  5
167
330
2
100
AcDbEntity
  8
0
100
AcDbLine
 10
-324.1931968655119
 20
161.4913757826518
 30
0.0
 11
-324.8256361451034
 21
163.2224376955741
 31
0.0
  0
LINE
  5
168
330
2
100
AcDbEntity
  8
0
100
AcDbLine
 10
-324.8256361451034
 20
163.222437695574
 30
0.0
 11
-325.6797837106832
 21
163.7770770141295
 31
0.0
  0
LINE
  5
169
330
2
100
AcDbEntity
  8
0
100
AcDbLine
 10
-331.1907485884789
 20
172.7448996619209
 30
0.0
 11
-325.6797837106832
 21
172.7448996619209
 31
0.0
  0
CIRCLE
  5
16A
330
2
100
AcDbEntity
  8
0
100
AcDbCircle
 10
-326.1842391089297
 20
174.1832105602474
 30
0.0
 40
0.7222222222222223
  0
ARC
  5
16B
330
2
100
AcDbEntity
  8
0
100
AcDbCircle
 10
-328.3509057755964
 20
168.2609883380252
 30
0.0
 40
1.3
100
AcDbArc
 50
60.07356513338376
 51
119.9264348666167
  0
LINE
  5
16C
330
2
100
AcDbEntity
  8
0
100
AcDbLine
 10
-327.7023518285555
 20
169.3876550046918
 30
0.0
 11
-327.2242391089298
 21
169.3876550046918
 31
0.0
  0
LINE
  5
16D
330
2
100
AcDbEntity
  8
0
100
AcDbLine
 10
-329.477572442263
 20
168.909542285066
 30
0.0
 11
-329.477572442263
 21
169.3876550046918
 31
0.0
  0
LINE
  5
16E
330
2
100
AcDbEntity
  8
0
100
AcDbLine
 10
-327.2242391089298
 20
169.3876550046918
 30
0.0
 11
-327.2242391089298
 21
168.909542285066
 31
0.0
  0
LINE
  5
16F
330
2
100
AcDbEntity
  8
0
100
AcDbLine
 10
-329.477572442263
 20
169.3876550046918
 30
0.0
 11
-328.9994597226373
 21
169.3876550046918
 31
0.0
  0
CIRCLE
  5
170
330
2
100
AcDbEntity
  8
0
100
AcDbCircle
 10
-330.517572442263
 20
174.1832105602474
 30
0.0
 40
0.7222222222222223
  0
LINE
  5
171
330
2
100
AcDbEntity
  8
0
100
AcDbLine
 10
-327.4842391089297
 20
179.5276550046918
 30
0.0
 11
-327.4842391089297
 21
176.1580185658864
 31
0.0
  0
LINE
  5
172
330
2
100
AcDbEntity
  8
0
100
AcDbLine
 10
-329.217572442263
 20
179.5276550046918
 30
0.0
 11
-329.217572442263
 21
176.1580185658864
 31
0.0
  0
LINE
  5
173
330
2
100
AcDbEntity
  8
0
100
AcDbLine
 10
-327.4842391089297
 20
179.5276550046918
 30
0.0
 11
-329.217572442263
 21
179.5276550046918
 31
0.0
  0
LINE
  5
174
330
2
100
AcDbEntity
  8
0
100
AcDbLine
 10
-324.8256361451034
 20
173.2995389804764
 30
0.0
 11
-325.6797837106832
 21
172.7448996619209
 31
0.0
  0
LINE
  5
175
330
2
100
AcDbEntity
  8
0
100
AcDbLine
 10
-324.1931968655119
 20
175.0306008933985
 30
0.0
 11
-324.8256361451034
 21
173.2995389804763
 31
0.0
  0
MTEXT
  5
176
330
2
100
AcDbEntity
  8
0
100
AcDbMText
 10
-279.8276341698124
 20
125.7332359285852
 30
0.0
 40
2.0
 41
0.0
 71
     1
 72
     1
  1
MIN. CLEARANCE \PBENEATH BUNDLE\PIS 100mm
 73
     1
 44
1.0
  0
LINE
  5
177
330
2
100
AcDbEntity
  8
0
100
AcDbLine
 10
-291.6230094099173
 20
111.80968510011
 30
0.0
 11
-291.6230094099173
 21
177.1724953256568
 31
0.0
  0
HATCH
  5
178
330
2
100
AcDbEntity
  8
0
100
AcDbHatch
 10
0.0
 20
0.0
 30
0.0
210
0.0
220
0.0
230
1.0
  2
ANSI31
 70
     0
 71
     0
 91
        2
 92
        7
 72
     0
 73
     1
 93
        4
 10
-299.5936689647837
 20
130.901502224516
 10
-300.3283876952528
 20
131.3256922813309
 10
-300.3283876952528
 20
122.7489451472572
 10
-299.5936689647837
 20
121.9989451472572
 97
        0
 92
        7
 72
     0
 73
     1
 93
        4
 10
-299.5936689647837
 20
151.7821854821859
 10
-300.3283876952528
 20
152.2063755390009
 10
-300.3283876952528
 20
131.3256922813309
 10
-299.5936689647837
 20
130.901502224516
 97
        0
 75
     0
 76
     1
 52
0.0
 41
10.0
 77
     0
 78
     1
 53
45.0
 43
217.2826545128687
 44
23.27498693197867
 45
-0.8838834764831842
 46
0.8838834764831844
 79
     0
 47
0.0982176686778104
 98
        2
 10
-299.8022469955087
 20
123.7375556049045
 10
-299.9989514888813
 20
132.2824926411113
  0
MTEXT
  5
179
330
2
100
AcDbEntity
  8
0
100
AcDbMText
 10
-278.0274690429178
 20
106.1855657015719
 30
0.0
 40
2.0
 41
45.65428025732993
 71
     1
 72
     1
  1
PLEASE NOTE:\PTHE ENTIRE SOFFIT AND REAR OF THE COLUMN MUST BE LEFT CLEAR UNTIL THE DOOR HAS BEEN INSTALLED
 73
     1
 44
1.0
  0
LINE
  5
17A
102
{ACAD_REACTORS
330
2D
102
}
330
2
100
AcDbEntity
  8
0
100
AcDbLine
 10
-299.5936689647837
 20
121.9989451472572
 30
0.0
 11
-300.3283876952528
 21
122.7489451472572
 31
0.0
  0
LINE
  5
17B
330
2
100
AcDbEntity
  8
0
100
AcDbLine
 10
-300.6783876952529
 20
125.2489451472572
 30
0.0
 11
-302.4783876952529
 21
125.2489451472572
 31
0.0
  0
LINE
  5
17C
330
2
100
AcDbEntity
  8
0
100
AcDbLine
 10
-302.8283876952528
 20
124.8989451472572
 30
0.0
 11
-302.8283876952528
 21
123.0989451472572
 31
0.0
  0
LINE
  5
17D
330
2
100
AcDbEntity
  8
0
100
AcDbLine
 10
-300.3283876952528
 20
122.7489451472572
 30
0.0
 11
-300.3283876952528
 21
124.8989451472572
 31
0.0
  0
ARC
  5
17E
330
2
100
AcDbEntity
  8
0
100
AcDbCircle
 10
-300.6783876952528
 20
123.0989451472572
 30
0.0
 40
0.3500000000000085
100
AcDbArc
 50
269.9999999999804
 51
359.9999999999975
  0
ARC
  5
17F
330
2
100
AcDbEntity
  8
0
100
AcDbCircle
 10
-302.4783876952527
 20
123.0989451472572
 30
0.0
 40
0.3500000000000085
100
AcDbArc
 50
180.000000000002
 51
270.0000000000195
  0
ARC
  5
180
330
2
100
AcDbEntity
  8
0
100
AcDbCircle
 10
-300.6783876952528
 20
124.8989451472572
 30
0.0
 40
0.349999999999909
100
AcDbArc
 50
0.0000000000024427
 51
90.00000000001953
  0
ARC
  5
181
330
2
100
AcDbEntity
  8
0
100
AcDbCircle
 10
-302.4783876952529
 20
124.8989451472572
 30
0.0
 40
0.3500000000000085
100
AcDbArc
 50
89.99999999998046
 51
179.9999999999975
  0
LWPOLYLINE
  5
182
330
2
100
AcDbEntity
  8
0
100
AcDbPolyline
 90
        8
 70
     1
 43
0.0
 10
-302.7283876952528
 20
123.0989451472572
 42
0.4142135623730085
 10
-302.4783876952527
 20
122.8489451472571
 10
-300.6783876952528
 20
122.8489451472572
 42
0.4142135623736079
 10
-300.4283876952527
 20
123.0989451472571
 10
-300.4283876952529
 20
124.8989451472572
 42
0.4142135623730085
 10
-300.678387695253
 20
125.1489451472572
 10
-302.4783876952529
 20
125.1489451472572
 42
0.4142135623736079
 10
-302.7283876952529
 20
124.8989451472573
  0
LINE
  5
183
330
2
100
AcDbEntity
  8
0
100
AcDbLine
 10
-284.2873551430407
 20
122.0643978192318
 30
0.0
 11
-281.3531817037245
 21
122.0643978192318
 31
0.0
  0
TEXT
  5
184
330
2
100
AcDbEntity
  8
0
100
AcDbText
 10
-282.321979363309
 20
153.1864500766276
 30
0.0
 40
2.0
  1
100mm ALUMINIUM TUBE DRUM
100
AcDbText
  0
TEXT
  5
185
330
2
100
AcDbEntity
  8
0
100
AcDbText
 10
-281.7886579342125
 20
177.5822169744002
 30
0.0
 40
2.0
  1
REQUIRED FOR A REMOVABLE
100
AcDbText
  0
TEXT
  5
186
330
2
100
AcDbEntity
  8
0
100
AcDbText
 10
-281.7886579342125
 20
170.9155503077336
 30
0.0
 40
2.0
  1
LENGTH OF THE BUNDLE TO
100
AcDbText
  0
TEXT
  5
187
330
2
100
AcDbEntity
  8
0
100
AcDbText
 10
-280.3178905879158
 20
136.380187178248
 30
0.0
 40
2.0
  1
BUNDLE DIA. REFER
100
AcDbText
  0
TEXT
  5
188
330
2
100
AcDbEntity
  8
0
100
AcDbText
 10
-280.3178905879158
 20
132.7720345192392
 30
0.0
 40
2.0
  1
TO TABLE BELOW
100
AcDbText
  0
TEXT
  5
189
330
2
100
AcDbEntity
  8
0
100
AcDbText
 10
-281.7886579342125
 20
164.2488836410669
 30
0.0
 40
2.0
  1
FOR SERVICING
100
AcDbText
  0
TEXT
  5
18A
330
2
100
AcDbEntity
  8
0
100
AcDbText
 10
-281.7886579342125
 20
167.5822169744002
 30
0.0
 40
2.0
  1
PROVIDE FUTURE ACCESS
100
AcDbText
  0
TEXT
  5
18B
330
2
100
AcDbEntity
  8
0
100
AcDbText
 10
-281.7886579342125
 20
174.2488836410669
 30
0.0
 40
2.0
  1
ACCESS PANEL THE ENTIRE
100
AcDbText
  0
LEADER
  5
18C
330
2
100
AcDbEntity
  8
0
100
AcDbLeader
  3
STANDARD
 40
18.66666666666666
 41
47.33333333333332
 76
     2
 10
-299.5936689647836
 20
177.1724953256568
 30
0.0
 10
-283.2886579342125
 20
177.1724953256568
 30
0.0
213
0.0
223
-1.0
233
0.0
1001
ACAD
1000
DSTYLE
1002
{
1070
    40
1040
1.0
1070
    42
1040
1.0
1070
    43
1040
4.0
1070
    77
1070
     0
1070
   140
1040
2.0
1070
   147
1040
1.5
1070
   271
1070
     0
1070
   272
1070
     0
1002
}
  0
MTEXT
  5
18D
330
2
100
AcDbEntity
  8
0
100
AcDbMText
 10
-328.0924128451099
 20
203.6693192145862
 30
0.0
 40
2.0
 41
0.0
 71
     5
 72
     1
  1
50mm CLEARANCE TYPICAL
 73
     1
 44
1.0
  0
LINE
  5
18E
330
2
100
AcDbEntity
  8
0
100
AcDbLine
 10
-299.5936689647837
 20
188.2259883380252
 30
0.0
 11
-299.5936689647837
 21
188.2259883380252
 31
0.0
  0
LINE
  5
18F
330
2
100
AcDbEntity
  8
0
100
AcDbLine
 10
-353.6514034114317
 20
191.4272883380252
 30
0.0
 11
-302.8283876952526
 21
191.4272883380252
 31
0.0
  0
LINE
  5
190
330
2
100
AcDbEntity
  8
0
100
AcDbLine
 10
-356.8861221419007
 20
193.9272883380251
 30
0.0
 11
-299.5936689647837
 21
193.9272883380252
 31
0.0
  0
MTEXT
  5
191
330
2
100
AcDbEntity
  8
0
100
AcDbMText
 10
-365.7608879434458
 20
183.1385178178695
 30
0.0
 40
2.0
 41
0.0
 71
     9
 72
     1
  1
5ONm 240 VOLT TUBULAR MOTOR, \PINCLUDING 2 LIMIT SWITCHES
 73
     1
 44
1.0
  0
LINE
  5
192
330
2
100
AcDbEntity
  8
0
100
AcDbLine
 10
-345.8159057755964
 20
200.4071106021394
 30
0.0
 11
-342.8992391089297
 21
200.4071106021394
 31
0.0
  0
LINE
  5
193
330
2
100
AcDbEntity
  8
0
100
AcDbLine
 10
-353.6514034114317
 20
194.8030093054956
 30
0.0
 11
-353.6514034114317
 21
199.1086955591715
 31
0.0
  0
ARC
  5
194
330
2
100
AcDbEntity
  8
0
100
AcDbCircle
 10
-354.0014034114316
 20
191.7772883380252
 30
0.0
 40
0.349999999999909
100
AcDbArc
 50
269.9999999999804
 51
359.9999999999951
  0
LWPOLYLINE
  5
195
330
2
100
AcDbEntity
  8
0
100
AcDbPolyline
 90
        8
 70
     1
 43
0.0
 10
-353.7514034114317
 20
191.7772883380252
 42
-0.4142135623730085
 10
-354.0014034114318
 20
191.5272883380252
 10
-355.8014034114318
 20
191.5272883380252
 42
-0.4142135623736079
 10
-356.0514034114317
 20
191.7772883380251
 10
-356.0514034114317
 20
193.5772883380252
 42
-0.4142135623730085
 10
-355.8014034114315
 20
193.8272883380253
 10
-354.0014034114316
 20
193.8272883380252
 42
-0.4142135623736079
 10
-353.7514034114316
 20
193.5772883380253
  0
ARC
  5
196
330
2
100
AcDbEntity
  8
0
100
AcDbCircle
 10
-354.0014034114316
 20
193.5772883380252
 30
0.0
 40
0.3500000000000227
100
AcDbArc
 50
0.0000000000048853
 51
90.00000000001953
  0
LINE
  5
197
330
2
100
AcDbEntity
  8
0
100
AcDbLine
 10
-356.1514034114317
 20
193.9272883380252
 30
0.0
 11
-354.0014034114317
 21
193.9272883380252
 31
0.0
  0
ARC
  5
198
330
2
100
AcDbEntity
  8
0
100
AcDbCircle
 10
-355.8014034114318
 20
191.7772883380252
 30
0.0
 40
0.3500000000000227
100
AcDbArc
 50
180.0000000000044
 51
270.0000000000195
  0
LINE
  5
199
330
2
100
AcDbEntity
  8
0
100
AcDbLine
 10
-354.0014034114317
 20
191.4272883380252
 30
0.0
 11
-355.8014034114317
 21
191.4272883380252
 31
0.0
  0
LINE
  5
19A
330
2
100
AcDbEntity
  8
0
100
AcDbLine
 10
-356.1514034114317
 20
191.7772883380252
 30
0.0
 11
-356.1514034114317
 21
193.9272883380252
 31
0.0
  0
ARC
  5
19B
330
2
100
AcDbEntity
  8
0
100
AcDbCircle
 10
-355.8014034114318
 20
193.5772883380252
 30
0.0
 40
0.349999999999909
100
AcDbArc
 50
89.99999999998046
 51
179.9999999999951
  0
LINE
  5
19C
330
2
100
AcDbEntity
  8
0
100
AcDbLine
 10
-353.6514034114317
 20
193.5772883380252
 30
0.0
 11
-353.6514034114317
 21
191.7772883380252
 31
0.0
  0
SOLID
  5
19D
330
2
100
AcDbEntity
  8
0
100
AcDbTrace
 10
-356.2024605624031
 20
200.8237772688061
 30
0.0
 11
-356.2024605624031
 21
199.9904439354728
 31
0.0
 12
-353.7024605624031
 22
200.4071106021394
 32
0.0
 13
-353.7024605624031
 23
200.4071106021394
 33
0.0
  0
LINE
  5
19E
330
2
100
AcDbEntity
  8
0
100
AcDbLine
 10
-356.2024605624031
 20
200.4071106021394
 30
0.0
 11
-358.7024605624031
 21
200.4071106021394
 31
0.0
  0
SOLID
  5
19F
330
2
100
AcDbEntity
  8
0
100
AcDbTrace
 10
-345.8159057755964
 20
200.8237772688061
 30
0.0
 11
-345.8159057755964
 21
199.9904439354728
 31
0.0
 12
-348.3159057755964
 22
200.4071106021394
 32
0.0
 13
-348.3159057755964
 23
200.4071106021394
 33
0.0
  0
LINE
  5
1A0
330
2
100
AcDbEntity
  8
0
100
AcDbLine
 10
-353.6514034114317
 20
194.8030093054956
 30
0.0
 11
-353.6514034114317
 21
201.395372805326
 31
0.0
  0
LINE
  5
1A1
330
2
100
AcDbEntity
  8
0
100
AcDbLine
 10
-327.3509057755962
 20
191.4272883380252
 30
0.0
 11
-313.0525724422629
 21
191.4272883380252
 31
0.0
  0
POINT
  5
1A2
330
2
100
AcDbEntity
  8
DEFPOINTS
  6
ByBlock
 62
     7
100
AcDbPoint
 10
-328.3509057755964
 20
188.2259883380252
 30
0.0
  0
POINT
  5
1A3
330
2
100
AcDbEntity
  8
DEFPOINTS
  6
ByBlock
 62
     7
100
AcDbPoint
 10
-328.3509057755964
 20
188.2259883380252
 30
0.0
  0
DIMENSION
  5
1A4
330
2
100
AcDbEntity
  8
0
100
AcDbDimension
  2
*D1
 10
-284.2873551430406
 20
191.4272883380252
 30
0.0
 11
-268.5598515599788
 21
189.912229696581
 31
0.0
 70
   160
  1
30mm CLEARANCE
 71
     5
 42
3.201300000000003
  3
STANDARD
100
AcDbAlignedDimension
 13
-299.5936689647837
 23
188.2259883380252
 33
0.0
 14
-299.5936689647837
 24
191.4272883380252
 34
0.0
 50
90.0
100
AcDbRotatedDimension
1001
ACAD
1000
DSTYLE
1002
{
1070
    40
1040
1.0
1070
    42
1040
1.0
1070
    43
1040
4.0
1070
    77
1070
     1
1070
   140
1040
2.0
1070
   147
1040
1.5
1070
   271
1070
     0
1070
   272
1070
     0
1070
   279
1070
     2
1002
}
  0
LINE
  5
1B2
330
2
100
AcDbEntity
  8
0
100
AcDbLine
 10
-300.3283876952528
 20
193.9272883380276
 30
0.0
 11
-302.4783876952529
 21
193.9272883380274
 31
0.0
  0
LINE
  5
1B3
330
2
100
AcDbEntity
  8
0
100
AcDbLine
 10
-302.8283876952528
 20
193.5772883380273
 30
0.0
 11
-302.8283876952526
 21
191.7772883380273
 31
0.0
  0
ARC
  5
1B4
330
2
100
AcDbEntity
  8
0
100
AcDbCircle
 10
-302.4783876952527
 20
191.7772883380274
 30
0.0
 40
0.349999999999909
100
AcDbArc
 50
180.0000000000097
 51
270.000000000026
  0
LINE
  5
1B5
330
2
100
AcDbEntity
  8
0
100
AcDbLine
 10
-302.4783876952526
 20
191.4272883380274
 30
0.0
 11
-300.6783876952527
 21
191.4272883380275
 31
0.0
  0
ARC
  5
1B6
330
2
100
AcDbEntity
  8
0
100
AcDbCircle
 10
-300.6783876952528
 20
193.5772883380275
 30
0.0
 40
0.349999999999909
100
AcDbArc
 50
0.0000000000097707
 51
90.00000000002605
  0
LWPOLYLINE
  5
1B7
330
2
100
AcDbEntity
  8
0
100
AcDbPolyline
 90
        8
 70
     1
 43
0.0
 10
-302.7283876952526
 20
191.7772883380274
 42
0.4142135623730085
 10
-302.4783876952525
 20
191.5272883380273
 10
-300.6783876952525
 20
191.5272883380275
 42
0.4142135623736079
 10
-300.4283876952525
 20
191.7772883380274
 10
-300.4283876952529
 20
193.5772883380275
 42
0.4142135623730085
 10
-300.678387695253
 20
193.8272883380276
 10
-302.4783876952529
 20
193.8272883380274
 42
0.4142135623736079
 10
-302.7283876952529
 20
193.5772883380274
  0
ARC
  5
1B8
330
2
100
AcDbEntity
  8
0
100
AcDbCircle
 10
-302.4783876952529
 20
193.5772883380273
 30
0.0
 40
0.3500000000000227
100
AcDbArc
 50
89.99999999998697
 51
180.0000000000004
  0
LINE
  5
1B9
330
2
100
AcDbEntity
  8
0
100
AcDbLine
 10
-300.3283876952526
 20
191.7772883380276
 30
0.0
 11
-300.3283876952528
 21
193.9272883380276
 31
0.0
  0
MTEXT
  5
1BA
330
2
100
AcDbEntity
  8
DIMENSION
 62
     7
100
AcDbMText
 10
-290.3350011176958
 20
77.18714569531468
 30
0.0
 40
3.025
 41
57.91071475988928
 71
     1
 72
     5
  1
SCALE: NOT TO SCALE
 73
     1
 44
1.0
  0
LWPOLYLINE
  5
1BB
330
2
100
AcDbEntity
  8
0
100
AcDbPolyline
 90
        4
 70
     1
 43
0.0
 10
-291.3249270271937
 20
79.43440854210848
 10
-233.4142122673044
 20
79.43440854210848
 10
-233.4142122673044
 20
72.02009998457572
 10
-291.3249270271937
 20
72.02009998457572
  0
LINE
  5
1BC
330
2
100
AcDbEntity
  8
0
100
AcDbLine
 10
-300.3283876952529
 20
200.4071106021394
 30
0.0
 11
-297.4117210285862
 21
200.4071106021394
 31
0.0
  0
SOLID
  5
1BD
330
2
100
AcDbEntity
  8
0
100
AcDbTrace
 10
-310.7149424820597
 20
200.8237772688061
 30
0.0
 11
-310.7149424820597
 21
199.9904439354728
 31
0.0
 12
-308.2149424820597
 22
200.4071106021394
 32
0.0
 13
-308.2149424820597
 23
200.4071106021394
 33
0.0
  0
LINE
  5
1BE
330
2
100
AcDbEntity
  8
0
100
AcDbLine
 10
-310.7149424820597
 20
200.4071106021394
 30
0.0
 11
-313.2149424820596
 21
200.4071106021394
 31
0.0
  0
LINE
  5
1BF
330
2
100
AcDbEntity
  8
0
100
AcDbLine
 10
-308.1638853310882
 20
194.8030093054956
 30
0.0
 11
-308.1638853310882
 21
201.395372805326
 31
0.0
  0
LINE
  5
1C0
330
2
100
AcDbEntity
  8
0
100
AcDbLine
 10
-302.828387695253
 20
194.9153294107509
 30
0.0
 11
-302.8283876952529
 21
201.395372805326
 31
0.0
  0
SOLID
  5
1C1
330
2
100
AcDbEntity
  8
0
100
AcDbTrace
 10
-300.3283876952529
 20
200.8237772688061
 30
0.0
 11
-300.3283876952529
 21
199.9904439354728
 31
0.0
 12
-302.8283876952529
 22
200.4071106021394
 32
0.0
 13
-302.8283876952529
 23
200.4071106021394
 33
0.0
  0
LINE
  5
1C2
330
2
100
AcDbEntity
  8
0
100
AcDbLine
 10
-353.6514034114317
 20
191.4272883380252
 30
0.0
 11
-356.1514034114318
 21
191.4272883380252
 31
0.0
  0
LINE
  5
1C3
330
2
100
AcDbEntity
  8
0
100
AcDbLine
 10
-353.6514034114318
 20
191.4272883380252
 30
0.0
 11
-353.6514034114318
 21
193.9272883380251
 31
0.0
  0
HATCH
  5
1C4
330
2
100
AcDbEntity
  8
0
100
AcDbHatch
 10
0.0
 20
0.0
 30
0.0
210
0.0
220
0.0
230
1.0
  2
ANSI31
 70
     0
 71
     0
 91
        1
 92
        7
 72
     0
 73
     1
 93
        5
 10
-299.5936689647837
 20
193.9272883380252
 10
-300.3283876952528
 20
193.9272883380252
 10
-300.3283876952526
 20
191.7772883380276
 10
-300.3283876952527
 20
148.5034414103538
 10
-299.5936689647837
 20
147.9859776705195
 97
        0
 75
     0
 76
     1
 52
0.0
 41
10.0
 77
     0
 78
     1
 53
45.0
 43
0.0
 44
0.0
 45
-0.8838834764831842
 46
0.8838834764831844
 79
     0
 47
0.1956280403890323
 98
        1
 10
-299.9744205651347
 20
157.2409791419538
  0
LINE
  5
1C5
330
2
100
AcDbEntity
  8
0
100
AcDbLine
 10
-302.8283876952526
 20
191.4272883380252
 30
0.0
 11
-302.8283876952526
 21
193.9272883380252
 31
0.0
  0
LINE
  5
1C6
330
2
100
AcDbEntity
  8
0
100
AcDbLine
 10
-302.8283876952526
 20
191.4272883380252
 30
0.0
 11
-300.3283876952528
 21
191.4272883380252
 31
0.0
  0
ENDSEC
  0
SECTION
  2
OBJECTS
  0
DICTIONARY
  5
7
330
0
100
AcDbDictionary
281
     1
  3
ACAD_GROUP
350
1DD
  3
ACAD_LAYOUT
350
1CA
  3
ACAD_MLINESTYLE
350
1DE
  3
ACAD_PLOTSETTINGS
350
1DF
  3
ACAD_PLOTSTYLENAME
350
6
  3
AcDbVariableDictionary
350
1E7
  0
DICTIONARY
  5
1DD
102
{ACAD_REACTORS
330
7
102
}
330
7
100
AcDbDictionary
281
     1
  0
DICTIONARY
  5
1CA
102
{ACAD_REACTORS
330
7
102
}
330
7
100
AcDbDictionary
281
     1
  3
mirage
350
1CE
  3
Model
350
1C9
  0
DICTIONARY
  5
1DE
102
{ACAD_REACTORS
330
7
102
}
330
7
100
AcDbDictionary
281
     1
  3
STANDARD
350
1E1
  0
DICTIONARY
  5
1DF
102
{ACAD_REACTORS
330
7
102
}
330
7
100
AcDbDictionary
281
     1
  0
ACDBDICTIONARYWDFLT
  5
6
102
{ACAD_REACTORS
330
7
102
}
330
7
100
AcDbDictionary
281
     1
  3
Normal
350
5
100
AcDbDictionaryWithDefault
340
5
  0
DICTIONARY
  5
1E7
102
{ACAD_REACTORS
330
7
102
}
330
7
100
AcDbDictionary
281
     1
  3
DIMASSOC
350
1E8
  0
LAYOUT
  5
1CE
102
{ACAD_REACTORS
330
1CA
102
}
330
1CA
100
AcDbPlotSettings
  1

  2
HP LaserJet 5N
  4
A4
  6

 40
6.043083190917968
 41
6.720414161682128
 42
7.821090698242187
 43
5.027069091796875
 44
210.0579986572265
 45
296.9259948730469
 46
0.0
 47
0.0
 48
0.0
 49
0.0
140
0.0
141
0.0
142
1.0
143
1.0
 70
   688
 72
     1
 73
     0
 74
     5
  7
Luke.ctb
 75
    16
147
1.0
148
0.0
149
0.0
100
AcDbLayout
  1
mirage
 70
     1
 71
     1
 10
-6.043083190917968
 20
-6.720414161682128
 11
204.0149154663085
 21
290.2055807113647
 12
0.0
 22
0.0
 32
0.0
 14
-84.0
 24
-0.1575368999165647
 34
0.0
 15
211.0941500469197
 25
282.033201554023
 35
0.0
146
0.0
 13
0.0
 23
0.0
 33
0.0
 16
1.0
 26
0.0
 36
0.0
 17
0.0
 27
1.0
 37
0.0
 76
     0
330
1CB
  0
LAYOUT
  5
1C9
102
{ACAD_REACTORS
330
1CA
102
}
330
1CA
100
AcDbPlotSettings
  1

  2
HP LaserJet 5N
  4
A4
  6

 40
6.043083190917968
 41
6.720414161682128
 42
7.821090698242187
 43
5.027069091796875
 44
210.0579986572265
 45
296.9259948730469
 46
0.0
 47
0.0
 48
-429.7562455916438
 49
32.40202740622715
140
-230.8778270991433
141
207.5281621129065
142
1.0
143
0.8926179756865819
 70
 11952
 72
     1
 73
     1
 74
     4
  7
Luke.ctb
 75
     0
147
1.120300091683479
148
429.7562455916438
149
-32.40202740622715
100
AcDbLayout
  1
Model
 70
     1
 71
     0
 10
0.0
 20
0.0
 11
12.0
 21
9.0
 12
0.0
 22
0.0
 32
0.0
 14
0.0
 24
0.0
 34
0.0
 15
0.0
 25
0.0
 35
0.0
146
0.0
 13
0.0
 23
0.0
 33
0.0
 16
1.0
 26
0.0
 36
0.0
 17
0.0
 27
1.0
 37
0.0
 76
     0
330
2
  0
MLINESTYLE
  5
1E1
102
{ACAD_REACTORS
330
1DE
102
}
330
1DE
100
AcDbMlineStyle
  2
STANDARD
 70
     0
  3

 62
     0
 51
90.0
 52
90.0
 71
     2
 49
0.5
 62
   256
  6
BYLAYER
 49
-0.5
 62
   256
  6
BYLAYER
  0
ACDBPLACEHOLDER
  5
5
102
{ACAD_REACTORS
330
6
102
}
330
6
  0
DICTIONARYVAR
  5
1E8
102
{ACAD_REACTORS
330
1E7
102
}
330
1E7
100
DictionaryVariables
280
     0
  1
1
  0
ENDSEC
  0
EOF
